#TITLE:Wake Up! Wake Up!;
#ARTIST:Everyday Sunday;
#BANNER:Wake Up! Wake Up! - Everyday Sunday.png;
#BACKGROUND:Wake Up! Wake Up! - Everyday Sunday-bg.png;
#LYRICSPATH:Wake Up! Wake Up! - Everyday Sunday.lrc;
#CDTITLE:.\CDTITLES\DP2SUNDAY.png;
#MUSIC:Wake Up! Wake Up! - Everyday Sunday.mp3;
#OFFSET:-2.323;
#SAMPLESTART:38.62;
#SAMPLELENGTH:12;
#BPMS:0=152;
#BGCHANGES:0=Wake Up! Wake Up! - Everyday Sunday.AVI=1=1=1=0,999=-=1=0=0=0;

//---------------dance-single - ----------------
#NOTES:
     dance-single:
     :
     Easy:
     2:
     0.181,0.218,0.066,0.044,0.000:
0000
0000
1000
0000
,
0010
0000
0001
0000
,
0010
0000
0001
0000
,
0100
0000
0010
0000
,
0100
0000
0010
0000
,
0100
0000
1000
0000
,
0100
0000
1000
0000
,
0100
0000
0001
0000
,
0100
0000
0001
0000
,
1000
0000
0001
0000
,
1000
0000
0001
0000
,
0010
0000
1000
0000
,
0001
0000
0010
0000
,
1000
0000
0010
0000
,
0001
0000
0100
0000
,
1000
0000
0001
0000
,
0010
0000
1000
0000
,
0001
0000
0100
0000
,
1000
0000
0010
0000
,
0001
0000
1000
0000
,
0010
0000
0000
0000
,
1000
0000
0001
0000
,
0020
0000
0000
0030
,
1001
0000
0100
0000
,
0010
0000
1000
0000
,
0001
0000
0010
0000
,
1000
0000
0001
0000
,
0010
0000
0001
0000
,
1000
0000
0001
0000
,
1010
0000
0101
0000
,
0010
0000
1000
0002
,
0000
0000
0000
0000
,
0000
0000
0000
0003
,
0010
0000
1000
0000
,
0010
0000
0100
0000
,
1000
0000
0001
0000
,
0010
0000
1000
0000
,
0001
0000
0100
0000
,
1000
0000
0001
0000
,
0010
0000
1000
0000
,
0001
0000
0010
0000
,
1000
0000
0100
0000
,
0001
0000
0010
0000
,
1000
0000
0100
0000
,
0001
0000
1000
0000
,
0010
0000
0100
0000
,
1000
0000
0001
0000
,
0010
0000
1000
0000
,
0001
0000
0100
0000
,
0010
0000
0001
0000
,
2000
0000
0000
0000
,
0000
0000
0000
3000
,
0001
0000
0010
0000
,
1000
0000
0001
0000
,
0010
0000
0001
0000
,
1000
0000
0010
0000
,
0001
0000
0100
0000
,
1000
0000
0100
0000
,
0011
0000
1100
0000
,
1000
0000
0010
0002
,
0000
0000
0103
0000
,
0010
0000
0100
0000
,
1000
0000
0010
0000
,
0001
0000
1000
0000
,
0010
0000
0001
0000
,
1000
0000
0001
0000
,
0010
0000
1000
0000
,
0001
0000
1000
0000
,
0010
0000
0100
0000
,
1000
0000
0001
0000
,
0010
0000
1000
0000
,
0001
0000
1000
0000
,
0010
0000
1000
0000
,
0001
0000
0100
0000
,
1010
0000
0101
0000
,
0001
0000
1000
0000
,
0020
0000
0000
0000
,
0000
0000
0000
0030
,
0001
0000
0100
0000
,
1000
0000
0010
0000
,
0001
0000
0100
0000
,
1000
0000
0100
0000
,
0011
0000
1100
0000
,
0001
0000
0010
0000
,
2000
0000
0000
3000
;

//---------------dance-single - ----------------
#NOTES:
     dance-single:
     :
     Hard:
     7:
     0.384,0.374,0.081,0.059,0.096:
0000
0000
0000
0000
,
1000
0000
0000
0010
0000
0000
0001
0000
0000
1000
0000
0001
,
0010
1000
0001
0010
,
0100
0000
0000
0001
0000
1000
0010
0000
0000
1000
0000
0001
,
0100
0000
0000
1000
0000
0001
0010
0000
0000
0001
0000
0000
,
0100
0001
1000
0001
,
0100
0001
1000
0001
,
0100
0010
0001
1000
,
0100
1000
0001
0010
,
1000
0100
0001
0100
,
1000
0100
0001
1000
,
0010
0001
1000
0010
,
0001
1000
0001
1000
,
0001
1000
0010
0100
,
0010
0000
0000
0100
0000
0000
0010
0000
0001
0100
0000
0001
,
1000
0010
0001
0100
,
0010
0001
1000
0010
,
0001
1000
0100
0001
,
1000
0000
0000
0100
0000
0000
0010
0000
0001
1000
0000
0010
,
0001
0010
1000
0001
,
0010
1000
0001
0010
,
1000
0100
0001
1000
,
0020
1000
1000
1030
,
1001
0000
0000
0001
0000
0000
0100
0000
0001
1000
0000
0000
,
0010
0000
1000
0001
0000
0000
1000
0000
0000
0010
0000
0000
,
0001
0100
0010
0001
,
1000
0100
0001
0100
,
0010
1100
0001
0010
,
1000
0010
0001
0100
,
1010
0100
0011
1000
,
0010
0100
1000
0002
,
1000
0000
1000
0000
,
1000
0000
1003
0000
,
0010
0001
1000
0001
,
0010
1000
1100
0001
,
1000
0010
0001
0100
,
0010
0001
1000
0010
,
0001
0010
0100
0001
,
1000
0000
0000
0100
0000
0000
0001
0000
0010
1000
0000
0100
,
0010
0001
1000
0010
,
0001
0100
0010
0001
,
1000
0001
0100
0010
,
0001
0000
0000
1000
0000
0000
0010
0000
1000
0001
0000
0100
,
1000
0001
0100
0010
,
0001
0100
1000
0001
,
0010
1000
0100
0001
,
1000
0000
0000
0010
0000
0000
0001
0000
1000
0100
0000
1000
,
0010
0001
1000
0010
,
0001
0000
0000
1000
0000
0000
0100
0000
1000
0001
0000
0000
,
0010
1000
0001
0010
,
2000
0001
0000
0001
,
0000
0001
0000
0000
,
3001
0000
0000
1000
0000
0000
0010
0000
0100
0001
0000
0000
,
1000
0000
0000
0010
0000
0000
0001
0000
1000
0100
0000
0000
,
0010
0000
0001
1000
0000
0000
0001
0000
0000
0010
0000
0000
,
1000
0001
0010
0100
,
0001
0000
0010
1000
0000
0000
0100
0000
0010
0001
0000
0000
,
1000
0001
0100
1000
,
0011
0100
1010
0001
,
1000
0100
0010
0002
,
1000
0000
0100
1003
,
0010
0001
0100
0001
,
2000
0001
0000
0001
,
3001
0000
0100
0010
0000
0000
1000
0000
0010
0001
0000
0000
,
0010
0000
0100
1000
0000
0000
0001
0000
0100
0010
0000
0000
,
1000
0100
0001
1000
,
0020
1000
1000
1000
,
1000
1000
1030
0001
,
0010
1000
0100
0001
,
1000
0010
0001
0100
,
0010
0001
1000
0010
,
0001
0100
1000
0001
,
0010
0001
1000
0010
,
0001
0010
0100
0001
,
1010
0100
0011
1000
,
0001
0010
1000
0001
,
0020
1000
0000
1000
,
0000
1000
0000
1030
,
0001
0010
0100
0001
,
1000
0100
0010
1000
,
0001
0010
0100
0001
,
1000
0001
0100
1000
,
0011
0100
1010
0100
,
0001
1000
0010
0001
,
2000
0001
0000
3000
;

//---------------dance-single - ----------------
#NOTES:
     dance-single:
     :
     Medium:
     5:
     0.335,0.342,0.066,0.059,0.000:
0000
0000
1000
0001
,
0010
1000
0001
1000
,
0010
1000
0001
0010
,
0100
0001
0010
1000
,
0100
1000
0010
0001
,
0100
0001
1000
0001
,
0100
0001
1000
0001
,
0100
0010
0001
1000
,
0100
1000
0001
0010
,
1000
0100
0001
0100
,
1000
0100
0001
1000
,
0010
0001
1000
0010
,
0001
1000
0001
1000
,
0001
1000
0010
0100
,
0010
0100
0010
0100
,
1000
0010
0001
0100
,
0010
0001
1000
0010
,
0001
1000
0100
0001
,
1000
0100
0010
1000
,
0001
0010
1000
0001
,
0010
1000
0001
0010
,
1000
0100
0001
1000
,
0020
0000
0000
0030
,
1001
0001
0100
1000
,
0010
0001
1000
0010
,
0001
0100
0010
0001
,
1000
0100
0001
0100
,
0010
0100
0001
0010
,
1000
0010
0001
0100
,
1010
0100
0011
1000
,
0010
0100
1000
0002
,
0000
0000
0000
0000
,
0000
0000
0000
0003
,
0010
0001
1000
0001
,
0010
0001
0100
0001
,
1000
0010
0001
0100
,
0010
0001
1000
0010
,
0001
0010
0100
0001
,
1000
0100
0001
1000
,
0010
0001
1000
0010
,
0001
0100
0010
0001
,
1000
0001
0100
0010
,
0001
1000
0010
0001
,
1000
0001
0100
0010
,
0001
0100
1000
0001
,
0010
1000
0100
0001
,
1000
0010
0001
0100
,
0010
0001
1000
0010
,
0001
1000
0100
0001
,
0010
1000
0001
0010
,
2000
0000
0000
0000
,
0000
0000
0000
0000
0000
3000
0000
0000
,
0001
1000
0010
0001
,
1000
0010
0001
0100
,
0010
1000
0001
0010
,
1000
0001
0010
0100
,
0001
1000
0100
0001
,
1000
0001
0100
1000
,
0011
0100
1010
0001
,
1000
0100
0010
0002
,
0000
0000
0000
0003
0100
0000
1000
0000
,
0010
0001
0100
0001
,
2000
0000
0000
0000
0000
0000
0000
3000
,
0001
0010
1000
0001
,
0010
1000
0001
0010
,
1000
0100
0001
1000
,
0020
0000
1000
0000
,
0000
0000
1030
0001
,
0010
1000
0100
0001
,
1000
0010
0001
0100
,
0010
0001
1000
0010
,
0001
0100
1000
0001
,
0010
0001
1000
0010
,
0001
0010
0100
0001
,
1010
0100
0011
1000
,
0001
0010
1000
0001
,
0020
0000
0000
0000
,
0000
0000
0000
0000
0000
0030
1000
0000
,
0001
0010
0100
0001
,
1000
0100
0010
1000
,
0001
0010
0100
0001
,
1000
0001
0100
1000
,
0011
0100
1010
0100
,
0001
1000
0010
0001
,
2000
0000
0000
3000
;

//---------------dance-single - ----------------
#NOTES:
     dance-single:
     :
     Challenge:
     9:
     0.604,0.776,0.867,0.140,0.411:
0000
0000
0000
0000
,
0011
0000
0000
0001
0000
1000
0001
0000
0000
1000
0000
0100
,
1000
0000
0000
0100
0000
1000
0010
0000
0000
0110
0000
0000
,
0100
0000
0000
0001
0000
1000
0001
0000
0000
1000
0000
0100
,
1000
0000
0000
0001
0000
1000
0001
0000
0000
0100
0000
0000
,
0001
0100
0001
0100
0001
0100
0001
0100
0001
0100
0001
1000
,
0001
1000
0001
1000
0001
1000
0001
1000
0001
1000
0001
1000
,
1001
0010
1010
0010
,
0110
0100
0101
0001
,
1001
0001
0011
0001
,
0101
0000
0000
0001
0000
1000
0001
0000
1000
0001
0000
0001
,
1000
1000
1010
0010
,
0110
0100
0110
0100
,
0101
0001
1001
1000
,
1100
0000
0000
1000
0000
0100
1000
0000
1000
0100
0000
0100
,
1000
1010
1000
0110
,
0100
0110
0100
0101
,
0001
1001
0001
0101
,
0001
0000
0000
1000
0000
1000
0001
0000
0001
0100
0000
0100
,
0001
0101
0100
0110
,
0100
0101
0001
1001
,
1000
1100
1000
1010
,
0010
0100
0010
0100
0010
0100
0010
0100
0001
0100
0001
0100
,
0101
0000
0000
0101
0000
0000
1001
0000
1000
0001
0000
0000
,
1001
0000
0000
1010
0000
0000
1100
0000
1000
0100
0000
0000
,
1100
1010
1010
0110
,
1010
1010
1001
1010
,
0110
0000
0000
0110
0000
0001
0100
0000
0000
0110
0000
0000
,
0101
0101
0110
0110
,
0101
0101
1001
1001
,
0011
0011
0100
0110
,
0011
0000
0000
0010
0000
0001
0010
0000
0000
0010
0000
0001
,
0100
0000
0000
0001
0000
1000
0001
0000
0000
1000
0000
0000
,
1100
0000
0000
1000
0000
0010
0100
0000
0000
0010
0000
0100
,
0010
0000
0000
1000
0000
0010
1000
0000
0000
1010
0000
0000
,
1000
1010
0010
0110
,
0100
0101
1000
1001
,
0001
0101
0100
0101
,
0001
1001
1100
0110
,
0110
0010
0011
0010
,
0011
0001
0101
0001
,
1001
0001
0011
0010
,
0110
0011
0101
0001
,
1001
1001
1000
1000
,
1010
0110
0010
0010
,
1010
1001
1000
1000
,
1100
0110
0110
0011
,
0011
0001
0101
0001
,
1001
0001
0011
0001
,
0011
0010
0110
0010
,
0001
1000
0001
1000
0001
1000
0001
1000
0010
1000
0010
1000
,
0010
0100
0010
0100
0010
0100
0110
0000
0000
0000
0000
0100
,
0010
0000
0000
0100
0000
0000
0101
0000
0001
1000
0000
0000
,
1001
0000
0000
1000
0000
0000
1100
0000
0100
1000
0000
0000
,
1100
0000
0000
1000
0000
0000
1010
0000
0010
0100
0000
0000
,
0110
0100
0110
0110
,
0010
0000
0000
1000
0000
0010
1000
0000
0000
0001
0000
0000
,
0010
0001
1000
0001
,
1001
0001
0011
0001
,
1000
0100
1100
1001
,
0010
0000
0000
0100
0000
0000
0010
0100
0010
0100
0000
0000
,
0010
0000
0000
1000
0000
0000
0010
1000
0010
1000
0000
0000
,
0001
0000
0000
0010
0000
0000
0001
0010
0001
0010
0000
0000
,
0001
0000
0000
1000
0000
0000
0100
1000
0100
1000
0000
0000
,
0001
0000
0000
0010
0000
0000
0001
1000
0001
1000
0000
0000
,
0100
0000
0000
1000
0000
0000
0010
1000
0010
1000
0000
0000
,
0010
0000
0000
0100
0000
0000
0010
0100
0010
0100
0000
0000
,
0010
0100
0010
0100
0000
0000
0001
1000
0001
1000
0000
0000
,
2002
3000
0020
0003
,
0002
0030
2000
0003
,
3200
1000
1000
2300
,
0010
0010
0010
3010
,
1000
0010
1000
0010
1000
0010
1000
0010
1000
0010
1000
0010
,
1000
0001
1000
0001
1000
0001
1000
0001
1000
0001
1000
0001
,
0100
0001
0100
0001
0100
0001
0100
0001
0100
0001
0100
0001
,
0100
0000
0010
0000
0100
0000
0010
0000
0100
0000
0010
0000
0200
0000
0000
0000
0000
0000
0020
0000
0000
0330
0000
0000
,
1000
0000
0000
0001
0000
0000
0001
0000
0001
1000
0000
0000
,
2001
0001
0001
3001
,
2010
0010
0010
3010
,
0120
0100
0100
0130
,
0102
1003
1002
1003
,
1001
1001
1001
1001
,
2010
3010
0120
0130
,
0220
0030
0001
0002
,
0000
0000
0303
0000
;
