#TITLE:Waiting;
#ARTIST:Fireflight;
#BANNER:Waiting - Fireflight.png;
#BACKGROUND:Waiting - Fireflight-bg.png;
#LYRICSPATH:Waiting - Fireflight.lrc;
#CDTITLE:.\CDTITLES\DP2FIRE.png;
#MUSIC:Waiting - Fireflight.mp3;
#OFFSET:-3.042;
#SAMPLESTART:31.9;
#SAMPLELENGTH:12;
#BPMS:0=131;
#BGCHANGES:0=Waiting - Fireflight.AVI=1=1=1=0,999=-=1=0=0=0;

//---------------dance-single - ----------------
#NOTES:
     dance-single:
     :
     Easy:
     2:
     0.166,0.211,0,0.101,0:
0001
0000
1000
0000
,
0000
1000
0000
0000
0001
0000
0000
0000
,
1000
0000
0001
0000
,
0000
0010
0000
0000
1000
0000
0000
0000
,
0001
0000
0010
0000
,
0000
1000
0000
0000
0010
0000
0000
0000
,
0001
0000
1000
0000
,
0000
0001
0000
0000
0010
0000
0000
0000
,
0001
0000
1000
0000
,
0010
0000
1000
0000
,
0001
0000
0010
0000
,
1000
0000
0010
0000
,
0001
0000
1000
0000
,
0010
0000
0100
0000
,
1000
0000
0100
0000
,
0001
0000
0000
0000
1000
0000
0000
0010
,
0000
1000
0000
0200
0000
0000
0300
1000
,
0000
0010
0000
0002
0000
0000
0000
0000
,
0003
0000
0100
0000
,
1000
0000
0000
0000
0010
0000
0000
0001
,
0000
0010
0000
2000
0000
0000
3000
0010
,
0000
1000
0000
0002
0000
0000
0000
0000
,
0000
0003
1000
0000
,
0010
0000
1000
0000
,
0001
0000
1000
0000
,
0010
0000
1000
0000
,
0001
0000
1000
0000
,
0010
0000
0001
0000
,
1000
0001
0000
0000
,
0010
0000
0100
0000
,
0001
0000
0100
0000
,
0010
0000
0000
0000
,
1000
0000
0001
0000
,
0010
0000
0000
0001
0000
0000
0000
0000
,
1000
0000
0001
0000
,
0010
0000
1000
0000
,
0001
0000
1000
0000
,
0010
0000
0001
0000
,
1000
0000
0001
0000
,
1000
0000
0000
0000
0001
0000
0000
0010
,
0000
0001
0000
2000
0000
0000
3000
0001
,
0000
0010
0000
2000
0000
0000
0000
0000
,
0000
3000
0000
0000
0001
0000
0000
0000
,
1000
0000
0000
0000
0001
0000
0000
0010
,
0000
0001
0000
2000
0000
0000
3000
0001
,
0000
0010
0000
0200
0000
0000
0000
0000
,
0000
0300
0000
0000
0010
0000
0000
0000
,
0001
0000
1000
0000
,
0010
0000
0000
1000
,
0000
0001
0000
0010
,
0000
1000
0000
0001
,
0000
1000
0000
0010
,
0000
1000
0000
0001
,
0000
1000
0000
0010
,
0000
0001
0000
1000
,
0000
1000
0000
0020
,
0000
0000
0000
0000
,
0000
0000
0000
0000
,
0000
0000
0030
0000
,
0000
1000
0000
0000
0010
0000
0000
0000
,
0001
0000
0100
0000
,
1000
0000
0100
0000
,
0001
0000
1000
0000
,
0010
0000
0001
0000
,
1000
0000
0001
0000
,
0010
0000
1000
0000
,
0001
0000
1000
0000
,
0010
0000
0001
0000
,
1000
0000
0000
0001
0000
1000
0000
0020
,
0000
0000
0030
1000
0000
0100
0000
0002
,
0000
0000
0000
0000
0000
0003
0000
0000
,
1000
0000
0100
0000
,
0010
0000
0000
0100
0000
1000
0000
0002
,
0000
0000
0003
0100
0000
1000
0000
0020
,
0000
0000
0000
0000
0000
0030
0000
0000
,
1000
0000
0001
0000
,
0010
0000
0000
1000
0000
0010
0000
0002
,
0000
0000
0003
1000
0000
0100
0000
0020
,
0000
0000
0000
0030
;

//---------------dance-single - ----------------
#NOTES:
     dance-single:
     :
     Hard:
     6:
     0.283,0.291,0.060,0.141,0:
0000
0010
1000
0000
0000
0000
1000
0000
,
0010
0001
0000
1000
0010
0000
1000
0000
,
0010
0001
0000
0000
0000
0000
0010
0000
,
0001
1000
0000
0100
0010
0000
0001
0000
,
1000
0010
0000
0000
0000
0000
1000
0000
,
0001
0010
0000
0001
1000
0000
0001
0000
,
0010
1000
0000
0010
0100
0000
0001
0000
,
0000
0010
0000
0000
1000
0000
0001
0000
,
0010
0000
1000
0000
0001
0000
0010
0001
,
0000
1000
0100
0010
0001
0000
0000
0000
,
0001
0020
0030
0001
,
1000
0001
0000
0000
0010
0000
0000
0000
,
0001
0010
1000
0000
,
0010
0001
0100
0001
,
1000
0000
0001
0000
0100
0002
0000
0000
,
0000
0000
0003
0000
1000
0000
0101
0010
,
0000
1000
0000
0200
0000
0000
0300
1000
,
0000
0010
0000
0002
0000
0000
0000
0000
,
0000
0003
0000
1000
0001
1000
0100
1000
,
0001
1000
0001
0000
0010
0000
1000
0001
,
0000
0010
0000
2000
0000
0000
3000
0010
,
0000
1000
0000
0002
0000
0000
0000
0000
,
0000
0000
0003
0000
0000
1000
0001
0000
,
0010
2000
0001
0000
0010
0000
3000
0000
,
0001
1000
0000
0110
,
0000
0001
1000
0000
,
0001
1000
0000
0110
,
0000
0000
1000
0000
0000
0001
0000
0000
,
1000
0001
0000
0110
,
0000
0000
1000
0000
0000
0001
0000
0000
,
1000
0001
0000
2000
,
0000
0000
3000
0001
0000
1000
0000
0001
,
0000
0000
0100
0010
0000
0100
0001
0000
,
1100
0010
0000
0001
0000
0010
0000
0000
,
1000
0000
0010
0000
0001
0000
1000
0001
,
0010
0001
1000
0010
,
0001
0010
1000
0001
,
0010
1000
0000
0000
0001
0000
0010
0000
,
1000
0002
0000
0000
0000
0000
0003
0000
,
1000
0000
0010
0000
0001
0000
1000
0010
,
0000
0001
0000
2000
0000
0000
3000
0001
,
0000
0010
0000
2000
0000
0000
0000
0000
,
0000
0000
3000
0001
0010
0001
1000
0010
,
1000
0000
0010
0000
0001
0000
1000
0010
,
0000
0001
0000
2000
0000
0000
3000
0001
,
0000
0010
0000
0200
0000
0000
0000
0000
,
0000
0300
0010
1000
,
0001
0010
1000
0001
,
0010
0100
0001
1000
,
0010
0001
1000
0010
,
0001
1000
0010
0001
,
0010
1000
0001
0020
,
1000
1000
1000
1000
,
1000
0030
0000
1000
,
0010
0001
0010
1000
,
0010
1000
0001
0020
,
0000
0000
0000
0000
,
0000
0000
0000
0000
,
0000
0000
0000
0030
,
0001
1000
0100
0000
0001
0000
1000
0000
,
0001
0010
0100
0001
,
1000
0011
0100
1000
,
0001
0010
1000
0001
,
0010
1100
0001
0010
,
1000
0010
0001
0100
,
1000
0011
1000
0010
,
0001
0000
0100
0000
1000
0000
0011
0100
,
0000
0000
0001
0010
,
1000
0000
0010
0001
0000
1000
0000
0020
,
0000
0000
0030
1000
0000
0100
0000
0002
,
0000
0000
0000
0003
,
1000
0001
0100
1000
,
0010
0000
1000
0100
0000
1000
0000
0002
,
0000
0000
0003
0100
0000
1000
0000
0020
,
0000
0000
0000
0030
,
1000
0010
0001
1000
,
0010
0000
0001
1000
0000
0100
0000
0002
,
0000
0000
0003
1000
0000
0100
0000
0020
,
0000
0000
0000
0030
;

//---------------dance-single - ----------------
#NOTES:
     dance-single:
     :
     Medium:
     4:
     0.224,0.238,0.007,0.141,0:
0001
0000
1000
1000
,
0000
0010
0000
0000
0001
0000
0010
0000
,
0000
1000
0000
0000
0001
0000
0010
0000
,
0000
0010
0000
0000
1000
0000
0010
0000
,
0000
0001
0000
0000
0010
0000
0010
0000
,
0000
1000
0000
0000
0010
0000
1000
0000
,
0000
0001
0000
0000
1000
0000
0001
0000
,
0000
0001
0000
0000
0010
0000
1000
0000
,
0001
0010
1000
0001
,
0010
0001
0000
0000
1000
0000
0010
0000
,
0001
0020
0000
0030
,
1000
0000
0010
0000
,
0001
0010
1000
0000
,
0010
0001
0100
0001
,
1000
0000
0001
0000
0100
0002
0000
0000
,
0000
0000
0003
0000
1000
0000
0000
0010
,
0000
1000
0000
0200
0000
0000
0300
1000
,
0000
0010
0000
0002
0000
0000
0000
0000
,
0000
0003
0100
0001
,
1000
0000
0001
0000
0010
0000
0000
0001
,
0000
0010
0000
2000
0000
0000
3000
0010
,
0000
1000
0000
0002
0000
0000
0000
0000
,
0000
0003
1000
0001
,
0010
2000
0000
3000
,
0001
0000
1000
0000
,
0010
0000
1000
0000
,
0001
0000
1000
0000
,
0010
0000
1000
0000
0000
0001
0000
0000
,
1000
0001
0000
0000
,
0000
0000
1000
0000
0000
0001
0000
0000
,
1000
0001
0000
2000
,
0000
3000
0000
0000
,
1000
0000
0001
0000
,
0010
1000
0000
0001
0000
0010
0000
0000
,
1000
0010
0001
0000
,
0010
0001
1000
0010
,
0001
0010
1000
0001
,
0010
1000
0000
0000
0001
0000
0010
0000
,
1000
0002
0000
0000
0000
0003
0000
0000
,
1000
0000
0000
0000
0001
0000
0000
0010
,
0000
0001
0000
2000
0000
0000
3000
0001
,
0000
0010
0000
2000
0000
0000
0000
0000
,
0000
0000
3000
0010
0001
0000
0010
0000
,
1000
0000
0010
0000
0001
0000
0000
0010
,
0000
0001
0000
2000
0000
0000
3000
0001
,
0000
0010
0000
0200
0000
0000
0000
0000
,
0000
0300
0010
1000
,
0001
0010
1000
0000
,
0010
0000
0000
1000
,
0000
0001
0000
0010
,
0000
1000
0000
0001
,
0010
1000
0001
0020
,
0000
0000
0000
0000
,
0000
0000
0000
0030
0000
0000
1000
0000
,
0000
0001
0000
1000
,
0010
1000
0001
0020
,
0000
0000
0000
0000
,
0000
0000
0000
0000
,
0000
0000
0030
0000
,
0000
1000
0000
0000
0001
0000
1000
0000
,
0001
0010
0100
0001
,
1000
0001
0100
1000
,
0001
0010
1000
0001
,
0010
1000
0001
0010
,
1000
0010
0001
0100
,
0010
0001
1000
0010
,
0001
0000
0100
0000
1000
0000
0011
0100
,
0000
0000
0001
0000
,
1000
0000
0000
0001
0000
1000
0000
0020
,
0000
0000
0030
1000
0000
0100
0000
0002
,
0000
0000
0000
0003
,
1000
0001
0100
1000
,
0010
0000
0000
0100
0000
1000
0000
0002
,
0000
0000
0003
0100
0000
1000
0000
0020
,
0000
0000
0000
0030
,
1000
0010
0001
1000
,
0010
0000
0000
1000
0000
0100
0000
0002
,
0000
0000
0003
1000
0000
0100
0000
0020
,
0000
0000
0000
0030
;

//---------------dance-single - ----------------
#NOTES:
     dance-single:
     :
     Challenge:
     7:
     0.428,0.448,0.248,0.322,0:
0000
0000
0000
0000
0000
0000
0001
0010
,
0000
0001
0000
1000
0100
0000
0100
1000
,
0000
0001
0000
0010
0001
0000
1000
0100
,
1000
0010
0000
0010
0100
0000
0010
1000
,
0000
0001
0000
0010
0001
0000
1000
0100
,
1000
0010
0000
0010
1000
0000
0001
0010
,
0000
0001
0000
1000
0100
0000
1000
0001
,
0001
1000
0100
1000
0100
1000
0100
1000
,
0100
1000
0001
1000
0001
1000
0001
1000
,
0001
1000
0001
0010
0001
0010
0001
0010
,
0001
0010
0001
1000
0001
1000
0001
1000
,
0001
1000
0001
1000
0100
1000
0001
1000
,
0100
1000
0001
0010
0001
1000
0001
0010
,
0001
1000
0100
1000
0010
1000
0100
1000
,
0010
1000
0010
0100
0010
1000
0010
0100
,
0010
1000
1001
0000
1010
0000
0010
2000
,
0000
3002
0000
0023
0000
0000
0000
0032
,
0000
2003
0000
3200
0000
0000
0000
0000
,
0000
0000
0300
1000
0001
0010
0010
0000
,
0001
0002
0000
0000
0000
0003
0001
0200
,
0000
0320
0000
2030
0000
0000
0000
3200
,
0000
0320
0000
0032
0000
0000
0000
0000
,
0000
0003
0000
1010
,
0010
1000
0000
1000
0001
0000
0010
0001
,
0000
0001
0000
1000
0100
0000
0100
1000
,
0001
0010
0000
0010
0001
0000
1000
0100
,
0000
1100
0000
1000
0010
0000
0100
0010
,
1000
1010
0000
1000
0001
0000
0010
0001
,
0000
1001
0000
1000
0100
0000
1000
0001
,
0010
0011
0000
0010
0001
0000
1000
0100
,
0000
1100
0000
1000
0001
0000
0010
0001
,
1000
1100
0000
1000
0001
0000
0010
0001
,
1000
0000
0001
1000
0010
0000
1000
0010
,
0100
0010
0000
0010
1000
0000
0001
0010
,
0001
0010
0000
0010
0001
0000
1000
0100
,
0010
0100
0000
0100
0010
0000
0001
0100
,
0001
0100
0000
0100
0010
0000
0100
0001
,
1000
0100
0000
0100
1000
0000
0001
0100
,
0010
0100
0000
0100
0001
0000
1000
0001
,
0000
0000
1001
0000
1010
0000
0010
2000
,
0000
3002
0000
0023
0000
0000
0000
0032
,
0000
2003
0000
3200
0000
0000
0000
0000
,
0000
0000
0300
1000
0001
0010
0010
0000
,
0001
0002
0000
0000
0000
0003
1000
0200
,
0000
2300
0000
3002
0000
0000
0000
0203
,
0000
0320
0000
2030
0000
0000
0000
0000
,
0000
3000
0000
1001
,
0001
1000
0010
1000
0010
1000
0000
0100
,
1000
0000
0001
1000
0001
1000
0000
0100
,
1000
0000
0010
0000
0010
1000
0001
1000
,
0001
1000
0000
0001
1000
0100
1000
0100
,
1000
0000
0010
1000
0010
1000
0000
1000
,
0001
0000
0010
0001
0010
0001
0000
0001
,
0100
0000
0001
0000
0001
1000
0001
1000
,
0010
1000
0000
0010
1000
0010
0100
0000
,
0010
2002
0000
0000
,
0000
0000
0000
0000
,
0000
0000
0000
0000
,
3003
0000
0000
0000
0000
0000
1000
0001
,
1000
1010
1010
0010
,
0010
0110
0110
0100
,
0100
0101
0101
1000
,
1000
1001
1001
1000
,
1000
1100
1100
0010
,
0010
0011
0011
0001
,
0001
0101
0101
1001
,
1001
0000
0011
0000
0011
0000
1001
0100
,
0000
1100
1100
1100
,
1010
0000
1000
0200
0000
0320
0000
0032
,
0000
0000
0000
0023
0000
0230
0000
2300
,
0000
0000
0000
0000
3000
0000
0000
0100
,
0010
0001
1000
0000
0010
0020
0000
0000
,
0000
0030
0010
2000
0000
3200
0000
0320
,
0000
0000
0000
0032
0000
2003
0000
3200
,
0000
0000
0000
0300
,
0000
0000
1100
0000
0100
1000
0000
1000
,
0010
0000
1000
0002
0000
0020
0003
0002
,
0030
0000
0000
2000
0003
0200
3000
2000
,
0300
0020
3030
0000
;
