#TITLE:Voice Of Truth;
#ARTIST:Casting Crowns;
#BANNER:Voice Of Truth - Casting Crowns.png;
#BACKGROUND:Voice Of Truth - Casting Crowns-bg.png;
#LYRICSPATH:Voice Of Truth - Casting Crowns.lrc;
#CDTITLE:.\CDTITLES\DP2CROWN2.png;
#MUSIC:Voice Of Truth - Casting Crowns.mp3;
#OFFSET:-3.649;
#SAMPLESTART:48.78;
#SAMPLELENGTH:12;
#BPMS:0=82;
#BGCHANGES:0=Voice Of Truth - Casting Crowns.AVI=0.93=1=1=0,999=-=1=0=0=0;

//---------------dance-single - ----------------
#NOTES:
     dance-single:
     :
     Easy:
     2:
     0.133,0.197,0.120,0,0.004:
0001
0000
0000
1000
0000
0000
0000
0000
,
0001
0000
0000
0010
0000
0000
0000
0000
,
1000
0000
0000
0001
0000
0000
0000
0000
,
0010
0000
0000
1000
0000
0000
0000
0000
,
0001
0000
0000
1000
0000
0000
0000
0000
,
0010
0000
0000
1000
0000
0000
0000
0000
,
0001
0000
0000
0010
0000
0000
0000
0000
,
1000
0000
0000
0001
0000
0000
0000
0000
,
0010
0000
0000
0001
0000
0000
0000
0000
,
1000
0000
0000
0001
0000
0000
0000
0000
,
0010
0000
0000
0001
0000
0000
0000
0000
,
1000
0000
0001
0010
0000
0000
0000
0000
,
1000
0000
0001
0010
0000
0000
0000
0000
,
1000
0000
0001
0010
0000
0000
0000
0000
,
1000
0001
0010
0000
1000
0000
0001
0000
,
0010
0000
1000
0010
1001
0000
0000
0000
,
0110
1000
0001
0000
,
0010
1000
0101
0000
,
0011
1000
0001
0000
,
0010
0001
0101
0000
,
1010
0001
1000
0000
,
0010
0001
1000
0000
,
0010
0001
0010
0000
,
1000
0000
0000
0001
0000
0000
0010
0000
0000
0000
0000
0000
0000
0000
0000
0000
,
0010
1000
0000
0110
,
0001
1100
0000
0000
,
0010
0001
0000
0000
,
1000
0010
0000
0000
,
0001
1000
0000
0000
,
0010
0100
0000
0000
,
1000
0001
0000
0000
,
0010
1000
0000
0000
,
0001
1000
0000
0000
,
0110
0000
1010
0000
,
0101
1000
0000
0000
,
0001
0100
0101
0000
,
1010
0100
0000
0000
,
0001
1000
1100
0000
,
0011
0100
0000
0000
,
1000
0001
0000
0000
,
0010
0100
0000
0000
,
0001
1000
0000
0000
,
0010
0100
0000
0000
,
1000
0001
0000
0000
,
0010
0100
0000
0000
,
0001
1100
0000
0011
,
1000
0001
0000
0000
;

//---------------dance-single - ----------------
#NOTES:
     dance-single:
     :
     Hard:
     6:
     0.311,0.297,0.120,0.028,0.089:
0000
0000
0000
0000
0000
0000
0000
0000
0000
0001
0010
0000
0000
1000
0000
0000
,
0010
0000
0001
0000
1000
0000
0000
0000
0010
0000
0000
0000
0000
0001
0010
0100
,
1000
0010
0001
0001
0000
0000
1000
0000
,
0010
0000
0000
0000
0001
0000
1000
0000
0000
0000
0001
1000
0000
0010
0000
0000
,
0001
0000
0000
0000
0010
0000
1000
0000
0000
0100
0010
0000
0001
0000
1000
0000
,
0010
0000
1000
0001
0000
0000
1000
0000
0000
0000
0000
0000
0100
0000
0000
1000
,
0001
0000
0010
0000
1000
0000
0001
0000
0000
0010
0000
0000
0001
0000
0010
0000
,
1000
0000
0000
0000
0010
0000
0001
0000
0000
0010
0000
0000
1000
0000
0001
0000
,
0010
0000
0000
0000
1000
0000
0001
0000
0000
1000
0000
0000
0010
0000
0000
0000
,
1000
0000
0000
0010
0000
0000
0001
0000
0000
0000
0010
0000
1000
0000
0000
0000
,
0010
0000
0001
1000
0000
0002
0000
1000
0000
0000
0000
0000
0013
0000
0000
0000
,
1000
0000
0010
0001
0000
0010
0000
0010
0000
0000
1000
0000
0001
0000
0000
0000
,
1000
0000
0010
0001
0000
0010
0000
0010
0000
0000
0001
0000
0000
0000
0000
0000
,
1000
0000
0000
0000
0001
0000
0000
0010
0000
0000
1000
0000
0001
0000
0000
0000
,
1000
0002
0010
1000
1003
0010
0001
1000
,
0011
0000
1000
0010
1001
0000
0010
0000
,
0101
0000
1000
0010
0001
0010
1000
0001
,
0010
1000
0101
0010
,
0101
0000
1000
0010
0001
0100
1000
0001
,
0010
0000
0001
1000
0101
0000
0010
0000
,
1001
0000
0001
0010
1000
0100
0001
1000
,
0010
0000
0001
0010
1000
0100
0001
1000
,
0010
1000
0001
1000
0010
0000
0001
0000
,
1000
0000
0000
0001
0000
0000
0010
0000
0000
0000
0001
0000
1000
0000
0000
0000
,
0010
0001
1000
0010
0001
1000
0110
0000
,
0001
0000
1100
0000
0001
0010
1000
0001
,
0010
1000
0001
0000
0010
1000
0100
0001
,
1000
0000
0010
0001
1000
0001
0010
1000
,
0001
0000
1000
0000
0001
0010
1000
0001
,
0010
0000
0100
1000
0001
1000
0010
0001
,
1000
0010
0001
0000
1000
0010
0001
1000
,
0010
0001
1000
0001
0010
0000
0100
1000
,
0001
0010
1000
0010
0001
0010
1000
0000
,
0110
0000
0001
0100
1010
0000
0100
0000
,
1001
0000
0010
0001
1000
0001
0010
1000
,
0001
0000
0100
1000
0101
0000
0010
0000
,
1001
0000
0100
1000
0001
1000
0010
1000
,
0001
0000
1000
0001
1100
0000
0010
0000
,
0101
0000
0010
0001
1000
0010
0001
0100
,
1000
0010
0001
0010
1000
0001
0100
0001
,
0010
0001
0100
0001
1000
0000
0010
0000
,
0001
0000
1000
0000
0001
0010
1000
0001
,
0010
1000
0100
0010
0001
1000
0010
0001
,
2000
0000
0000
3000
0001
0010
0100
0001
,
0010
1000
0100
1000
0002
0000
0000
0000
,
0003
0000
0010
0100
0000
0000
0000
0000
0010
0000
0000
0000
0101
0000
0000
0000
,
1000
0010
0001
0010
1000
0000
0000
0000
;

//---------------dance-single - ----------------
#NOTES:
     dance-single:
     :
     Medium:
     3:
     0.202,0.247,0.120,0,0.004:
0001
0000
0000
1000
0000
0000
1000
0000
,
0001
0000
0000
0010
0000
0000
0001
0000
,
1000
0000
0000
0001
0000
0000
1000
0000
,
0010
0000
0000
1000
0000
0000
0010
0000
,
0001
0000
0000
1000
0000
0000
0001
0000
,
0010
0000
0001
1000
0000
0000
0100
0000
,
0001
0000
1000
0010
0000
0000
0001
0000
,
1000
0000
0010
0001
0000
0000
1000
0000
,
0010
0000
0000
0001
0000
0000
0010
0000
,
1000
0000
0000
0001
0000
0000
1000
0000
,
0010
0000
1000
0001
0000
0000
0010
0000
,
1000
0000
0001
0010
0000
0000
0001
0000
,
1000
0000
0001
0010
0000
0001
0000
0000
,
1000
0000
0001
0010
0000
0000
0001
0000
,
1000
0001
0010
0001
1000
0010
0001
0000
,
0010
0000
1000
0010
1001
0000
0010
0000
,
0101
1000
0001
1000
,
0010
1000
0101
0010
,
0101
1000
0001
1000
,
0010
0001
0101
0010
,
1001
0001
1000
0001
,
0010
0001
1000
0001
,
0010
0001
0010
0001
,
1000
0000
0000
0001
0000
0000
0010
0000
0000
0000
0000
0000
1000
0000
0000
0000
,
0010
1000
0001
0110
,
0001
1100
0001
1000
,
0010
0001
0010
0100
,
1000
0010
1000
0010
,
0001
1000
0001
1000
,
0010
0100
0001
0010
,
1000
0001
1000
0001
,
0010
1000
0010
0100
,
0001
1000
0001
1000
,
0110
0001
1010
0100
,
1001
0010
1000
0010
,
0001
0100
0101
0010
,
1001
0100
0001
0000
,
0001
1000
1100
0010
,
0101
0010
1000
0001
,
1000
0001
1000
0100
,
0010
0100
1000
0010
,
0001
1000
0001
1000
,
0010
0100
0001
0010
,
1000
0001
1000
0100
,
0010
0100
0001
1000
,
0001
1100
0010
0101
,
1000
0001
1000
0000
;

//---------------dance-single - ----------------
#NOTES:
     dance-single:
     :
     Challenge:
     7:
     0.409,0.424,0.283,0.269,0.425:
0010
0000
0001
1000
0000
1000
0100
0000
0000
1000
0100
0000
0000
1000
0010
0100
,
0010
0000
1000
0000
0001
0000
0001
0010
0000
0010
0001
0000
1000
0000
0100
1000
,
0100
0100
1000
2020
3030
0100
0220
0330
,
0100
0000
0001
1000
0000
0100
0000
1000
0000
1000
0000
0010
0000
0100
0000
0010
,
0000
1000
0001
0000
1000
0000
0100
0000
0010
0100
0000
0010
0000
0002
0000
0000
,
0100
0000
0103
0000
0000
0000
0100
0000
0010
0000
0010
0000
0100
0010
1000
0010
,
1000
0000
1000
0010
0000
0200
0020
0000
0000
0000
0330
0000
0000
0000
0100
0001
,
1000
0000
0100
1000
0000
0000
1000
0100
0000
0010
0000
0100
0000
0010
0100
0010
,
0000
0010
0001
0000
1000
0000
0100
1000
0000
1000
0010
0000
0100
0000
0010
0000
,
1000
0000
1000
0100
0000
1000
0000
0010
0000
0000
0010
0000
0100
0000
0100
0000
,
0001
0000
0001
1000
0000
0200
2000
0000
0000
0000
3300
0000
1010
0000
1000
0010
,
0100
0000
0100
0010
0000
1000
0000
0000
0010
1000
0010
0000
1000
0000
0000
0000
,
0001
0000
0010
0001
0000
0001
1000
0000
0000
0000
0100
0000
0000
0000
0000
0000
,
0100
1000
0010
0000
0000
0000
1100
0000
0000
0000
0000
0000
1000
0000
0000
0010
,
0100
0010
0110
0000
0101
0000
0101
0000
0101
0000
1010
0000
1010
0000
1010
0000
,
1010
0000
0000
0000
1000
0000
0001
1000
0100
0000
0000
1100
0000
0000
2020
0000
,
0000
0000
0000
0000
3030
0000
0100
0000
0010
0000
0010
1000
0000
0001
0000
0020
,
0000
0000
0002
0000
0033
0000
0000
0001
1000
0000
0000
0100
0000
0000
2200
0000
,
0000
0000
0000
0000
3300
0000
1000
0000
1000
0010
0000
1000
0000
0020
0200
0000
,
0000
0000
0000
0000
0330
0000
0100
0001
1000
0000
0000
1000
0000
0000
2200
0000
,
0000
0000
0000
0000
3300
0000
1000
0000
0001
0001
0000
0010
0000
0001
0000
1100
,
0000
0000
1100
0000
0000
0000
0010
1000
0010
0000
0100
0000
0010
0000
0010
0000
,
1000
0000
0000
0011
0000
0000
0001
0000
2200
0000
0000
0000
0000
0000
3300
0000
,
0001
0000
0000
0010
0000
0000
0001
0000
1000
0000
0000
0100
0000
0000
1000
0000
,
0010
0000
0000
0100
0000
0000
0010
0000
1000
0000
0000
0000
1001
0000
0000
0000
,
0110
0000
0000
0000
0000
0000
1000
0001
0100
0000
0100
0010
0000
0010
1000
0000
,
0010
0000
0010
0100
0000
0010
0100
0000
0001
0000
0100
0001
0000
0100
0010
0000
,
0100
0000
0100
0001
0000
0100
0010
0000
0100
0000
0010
0100
0000
0010
1000
0000
,
0010
0000
0010
0100
0000
0001
1000
0000
0100
0000
0010
0100
0000
1000
0100
0000
,
1000
0000
0010
0100
0000
0010
0100
0000
0001
0000
1000
0100
0000
1000
0100
0000
,
1000
0000
0010
0100
0000
0010
1000
0000
0001
0000
0010
0001
0000
0100
0010
0000
,
0100
0000
0001
0010
0000
0100
0010
0000
0001
0000
0200
0000
0320
0000
1030
0000
,
1010
1010
1010
1010
0101
0101
0101
0101
,
1001
0000
0000
0000
1000
0000
1000
0001
0010
0000
0000
0011
0000
0000
0202
0000
,
0000
0000
0000
0000
0303
0000
0010
0000
0100
0000
0100
0001
0000
1000
0000
0200
,
0000
0000
2000
0000
3300
0000
0000
1000
0001
0000
0000
0010
0000
0000
0022
0000
,
0000
0000
0000
0000
0033
0000
0001
0000
0001
0100
0000
0001
0000
0200
0020
0000
,
0000
0000
0000
0000
0330
0000
0010
1000
0001
0000
0000
0001
0000
0000
0022
0000
,
0000
0000
0000
0000
0033
0000
0001
0000
0001
1000
0000
0100
0000
1000
0000
0011
,
0000
0011
0000
0000
0000
0000
0001
0100
0001
0000
0010
0100
0000
0100
0000
0000
,
1000
0000
1000
0100
0000
0010
0000
0000
0022
0000
0000
0000
0000
0000
0033
0000
,
1000
0000
0000
0100
0000
0000
1000
0000
0001
0000
0000
0010
0000
0000
0001
0000
,
0100
0000
0000
0010
0000
0000
0100
0000
0001
0000
0000
0000
1001
0000
0000
0000
,
0110
0000
0000
0001
0000
0000
1000
0000
0010
0000
0000
0100
0000
0000
0001
0000
,
0100
0100
0010
0010
2000
0000
0000
0000
,
0000
0000
3002
0000
0000
0200
0000
0000
,
0303
0000
0000
0000
;
