#TITLE:Undo Me;
#ARTIST:Jennifer Knapp;
#BANNER:Undo Me - Jennifer Knapp.png;
#BACKGROUND:Undo Me - Jennifer Knapp-bg.png;
#LYRICSPATH:Undo Me - Jennifer Knapp.lrc;
#CDTITLE:.\CDTITLES\DP2KNAPP.png;
#MUSIC:Undo Me - Jennifer Knapp.mp3;
#OFFSET:-3.375;
#SAMPLESTART:41.6;
#SAMPLELENGTH:12;
#BPMS:0=112;
#BGCHANGES:0=Undo Me - Jennifer Knapp.AVI=1=1=1=0,999=-=1=0=0=0;

//---------------dance-single - ----------------
#NOTES:
     dance-single:
     :
     Easy:
     2:
     0.157,0.157,0.162,0.014,0.007:
0000
1000
0000
0001
,
0000
0110
0000
0001
,
0000
1000
0000
0010
,
0000
0001
0000
1000
,
0000
0110
0000
0001
,
0000
1000
0000
0001
,
0000
0010
0000
0100
,
0000
1001
0000
0100
,
0000
0010
0000
1000
,
0000
0001
0000
0100
,
0000
1010
0000
0100
,
0000
0001
0000
0010
,
0000
1000
0000
0100
,
0000
0011
0000
0100
,
0000
1000
0000
0001
,
0000
0010
0000
0100
,
0000
1001
0000
0100
,
0000
0010
0000
1000
,
0000
0001
0000
1000
,
0020
0000
0000
0000
0000
0000
0000
0030
,
1000
0000
0000
0001
0000
0000
1000
0000
0000
0000
0000
0000
0110
0000
0000
0000
,
0000
0001
0000
0010
,
0000
1100
0000
0010
,
0000
0001
0000
1000
,
0000
0010
0000
0100
,
0000
1001
0000
0100
,
0000
0010
0000
0100
,
0000
1000
0000
0100
,
0000
0011
0000
0100
,
0000
1000
0000
0010
,
0000
0001
0000
1000
,
0000
0110
0000
0001
,
0000
1000
0000
0001
,
0000
0010
0000
0100
,
0000
1001
0000
0100
,
0000
0010
0000
0100
,
0000
0001
0000
0010
,
0000
1100
0000
0010
,
0000
1001
0010
1001
,
0000
0010
0000
0100
,
0000
0011
0000
0100
,
0000
1000
0000
0010
,
0000
0001
0000
1000
,
0000
0110
0000
0001
,
0000
1000
0000
0001
,
0000
0010
0000
0100
,
0000
1001
0000
0100
,
0000
0010
0000
0001
,
0000
1000
0000
0100
,
0020
0000
0000
0000
0000
0000
0000
0030
,
1000
0000
0000
0001
0000
0000
1000
0000
0000
0000
0000
0000
0110
0000
0000
0000
,
0000
0001
0000
0100
,
0000
1010
0000
0100
,
0000
0001
0000
0100
,
0000
0010
0000
0100
,
0000
1001
0000
0010
,
0000
0110
0000
0010
,
0000
1001
0000
0010
,
0000
1000
0000
0010
,
0000
0001
0000
0100
,
0000
0010
0000
0100
,
0000
1000
0000
0010
,
0000
0001
0000
1000
,
0000
0010
0000
1000
;

//---------------dance-single - ----------------
#NOTES:
     dance-single:
     :
     Hard:
     6:
     0.339,0.338,0.099,0.056,0.018:
0000
1000
1000
0001
,
0001
0000
0110
0001
1000
0010
0001
1000
,
0001
0010
1000
0001
1000
0000
0000
1000
,
0010
1000
0001
0000
0010
0001
1000
0010
,
0001
0000
0010
0000
1100
0000
0001
1000
,
0010
0000
1000
0001
0100
0000
0001
0000
,
1000
0000
0010
0000
0001
1000
0100
0001
,
0010
0000
1000
0100
0010
0100
0010
0000
,
1000
0000
0000
0000
0110
0000
0000
0000
0001
0000
0000
0000
1000
0000
0100
0001
,
0100
0010
0001
0010
1000
0001
0100
1000
,
0000
0001
1000
0200
0000
0000
0300
0001
,
0010
1000
0001
0010
1000
0000
0010
1000
,
0001
1000
0011
0100
,
1000
0000
0010
0000
1000
0010
0100
0000
,
0001
0000
1000
0000
0010
1000
0001
0010
,
0100
0000
0010
1000
0001
0000
0100
1000
,
0010
0100
1000
0000
0010
0000
0100
0010
,
1001
0000
0020
0000
0000
0030
1000
0000
,
0100
0000
0001
0010
0100
0000
1000
0000
,
0020
1000
0000
1000
,
1030
0000
0000
0001
0000
0000
1000
0000
0000
0000
0000
0000
0110
0000
0000
0000
,
1000
0000
0001
0010
1000
0000
0010
0000
,
0001
0010
0000
0000
0001
0000
0010
0000
,
1000
0000
0002
0000
0000
0000
0003
1000
,
0100
0000
0000
0010
0000
0000
0001
0000
0000
0000
0000
0000
0100
0000
0000
0000
,
0010
0000
1000
0000
0010
0000
0100
1000
,
0001
0010
1000
0100
,
0001
1000
0001
0100
,
1000
0000
0001
0000
1000
0001
0100
0000
,
0001
0000
1000
0010
0001
1000
0010
0000
,
1000
0000
0001
0000
0010
0000
1000
0010
,
0001
0000
0110
0000
1000
0010
0001
1000
,
0010
0000
1000
0001
0100
0000
0001
0010
,
1000
0100
0010
0001
1000
0000
0100
0001
,
0010
1000
0011
0100
,
0001
1000
0010
1000
0001
0000
0100
0001
,
1000
0000
0001
0000
1000
0000
0010
1000
,
0001
0010
1000
0000
0001
0000
0010
0000
,
0100
1001
0000
0000
0010
0100
1001
0000
,
0100
0000
0010
1000
0001
1000
0100
0001
,
1000
0000
0001
0010
1000
0000
0100
0000
,
0001
2000
0000
0000
,
3010
0001
0010
1000
,
0001
0010
0100
0001
1000
0000
0001
1000
,
0010
0000
1000
0000
0100
0010
0001
0010
,
1000
0010
0010
0100
,
0010
0000
1001
0100
0010
0000
0100
0000
,
0011
0200
0000
0301
,
0100
0001
1000
0001
0010
0000
0100
0000
,
0020
1000
0000
1000
,
1030
0000
0000
0001
0000
0000
1000
0000
0000
0000
0000
0000
0110
0000
0000
0000
,
1000
0000
0001
1000
0010
1000
0100
0000
,
0001
0010
1000
0000
0001
0000
0100
0000
,
0010
0000
0002
0000
0000
0000
0003
0010
,
1000
0000
0000
0010
0000
0000
0001
0000
0000
0000
0000
0000
0100
0000
0000
0000
,
0010
0000
1000
0000
0100
0000
0010
0001
,
1000
0000
0010
0000
1000
0000
0010
1000
,
0101
1000
0100
0010
,
0001
1000
0001
0010
,
1000
0001
0010
0100
,
0001
0010
0001
0100
,
0001
1000
0001
0010
,
1000
0001
0010
1000
,
0001
0010
0001
0100
,
0010
0000
0000
0000
;

//---------------dance-single - ----------------
#NOTES:
     dance-single:
     :
     Medium:
     4:
     0.271,0.247,0.106,0.028,0.014:
0000
1000
1000
0001
,
0001
0110
1000
0001
,
0001
1000
1000
0010
,
0010
0001
0010
1000
,
0001
0010
1100
0001
,
0010
1000
0100
0001
,
1000
0010
0001
0100
,
0010
1000
0010
0100
,
1000
0110
0001
1000
,
0010
0001
1000
0100
,
0001
1000
0001
0100
,
0010
0001
1000
0010
,
0001
1000
0011
0100
,
1000
0010
1000
0100
,
0001
1000
0010
0001
,
0100
0010
0001
0100
,
0010
1000
0010
0100
,
1001
0010
0100
1000
,
0100
0001
0100
1000
,
0020
1000
0000
1000
,
1030
0000
0000
0001
0000
0000
1000
0000
0000
0000
0000
0000
0110
0000
0000
0000
,
1000
0001
1000
0010
,
0001
1100
0001
0010
,
1000
0000
0002
0000
0000
0000
0000
1003
,
0100
0000
0000
0010
0000
0000
0001
0000
0000
0000
0000
0000
0100
0000
0000
0000
,
0010
1000
0010
0100
,
0001
0010
1000
0100
,
0001
1000
0001
0100
,
1000
0001
1000
0100
,
0001
1000
0001
0010
,
1000
0001
0010
1000
,
0001
0110
1000
0001
,
0010
1000
0100
0001
,
1000
0010
1000
0100
,
0010
1000
0011
0100
,
0001
0010
0001
0100
,
1000
0001
1000
0010
,
0001
1000
0001
0010
,
0100
1001
0000
0000
0010
0000
1001
0000
,
0100
0010
0001
0100
,
1000
0001
1000
0100
,
0001
1000
0001
0010
,
1000
0001
0010
1000
,
0001
0100
1000
0001
,
0010
1000
0100
0001
,
1000
0010
0010
0100
,
0010
1001
0010
0100
,
0011
0010
1000
0001
,
0100
1000
0010
0100
,
0020
1000
0000
1000
,
1000
0000
0030
0001
0000
0000
1000
0000
0000
0000
0000
0000
0110
0000
0000
0000
,
1000
0001
0010
0100
,
0001
1000
0001
0100
,
0010
0000
0002
0000
0000
0000
0000
0013
,
1000
0000
0000
0010
0000
0000
0001
0000
0000
0000
0000
0000
0100
0000
0000
0000
,
0010
1000
0100
0010
,
1000
0010
1000
0010
,
0101
1000
0100
0010
,
0001
1000
0001
0010
,
1000
0001
0010
0100
,
0001
0010
0001
0100
,
0001
1000
0001
0010
,
1000
0001
0010
1000
,
0001
0010
0001
0100
;

//---------------dance-single - ----------------
#NOTES:
     dance-single:
     :
     Challenge:
     6:
     0.385,0.363,0.127,0.415,0.014:
0000
0000
0000
0000
,
0000
0000
1000
0010
0000
0010
1000
0010
,
0010
0010
0100
0010
0000
0000
0000
1000
,
0010
0100
0010
0010
0000
1000
0010
0100
,
0000
0100
0000
0002
0000
2000
0000
0000
,
3003
0000
1000
0010
0100
0000
0001
1000
,
0000
0000
0001
1000
0000
1000
0001
0010
,
0010
0001
1000
0100
0100
1000
0000
0000
,
0100
0100
1000
0000
0010
0010
0100
0000
,
0100
0000
0010
1000
0000
0001
1000
0100
,
0000
1000
1000
0010
0000
0010
0100
0010
,
1000
1000
0001
0010
0001
0000
1000
0001
,
0000
1000
1000
0100
0000
0100
1000
0000
,
1000
0020
0000
0230
0000
0310
1000
0002
,
0000
2003
0000
3001
0000
0001
1000
0100
,
0000
0100
1000
0001
0000
0001
0010
0001
,
0000
0001
1000
0100
0000
0100
1000
0000
,
0012
0000
2000
0000
3003
1000
0010
0100
,
0000
0100
0010
2000
0000
3000
2000
0002
,
0000
0000
0000
3003
,
0101
0000
0000
0110
0000
0000
2020
0000
0000
0000
3030
0000
0110
0000
0000
0000
,
0100
0000
0001
1000
0001
1000
0000
0100
,
0000
0100
0000
0010
0000
0000
0020
0000
,
0002
0030
0200
0000
0000
0000
0303
0100
,
1010
0000
0000
0110
0000
0000
2002
0000
0000
0000
3003
0000
1010
0000
0000
0000
,
1000
0000
0001
1000
0000
1000
0001
0000
,
0010
0001
0010
0000
0001
1000
0100
0000
,
1000
0001
1000
0000
1000
0100
0100
0000
,
0010
0100
0010
0000
0001
1000
0100
0000
,
1000
0100
1000
0000
1000
0010
0100
0100
,
0000
0010
0100
0000
0100
0001
1000
0000
,
0001
0000
0010
0001
0000
1000
0010
0100
,
0000
0010
1000
0010
0000
0010
1000
0000
,
0001
0010
0001
0100
0000
0100
0001
1000
,
1000
0100
0000
2000
0000
0020
0000
0000
,
3030
0010
1000
1000
0000
0100
0010
0010
,
0000
0001
0000
0001
0000
1000
0100
1000
,
0000
1000
0010
0010
0000
1000
0001
0000
,
0010
0001
1000
0000
0100
1000
0001
0000
,
0010
0000
0100
0010
0000
0010
0001
1000
,
0000
1000
0001
0010
0000
0010
0001
0100
,
1000
1000
0200
0000
0001
0301
2000
0100
,
0000
0001
0000
0100
0000
3001
0000
0000
,
0001
1000
0100
1000
0100
1000
0010
0000
,
1000
0010
1000
0001
0010
0001
0010
0000
,
0001
1000
0100
1000
0001
0010
0001
0000
,
1000
0010
0100
0010
1000
0001
0010
0000
,
0010
0000
0001
0000
0000
0001
1000
0100
,
0000
0100
2000
0002
0000
3003
0020
0002
,
0000
0000
0000
0000
0000
0000
0000
0033
,
1100
0000
0000
0011
0000
0000
2002
0000
0000
0000
3003
0000
1001
0000
0000
0000
,
0001
0000
1000
0100
1000
0000
0010
0100
,
0000
0010
0000
2020
0000
3030
2000
0000
,
0002
3000
0020
0000
0000
0000
0033
0010
,
1001
0000
0000
0101
0000
0000
0220
0000
0000
0000
0330
0000
1010
0000
0000
0000
,
0000
1000
0010
0000
0000
0000
0010
0200
,
0000
0010
0000
0020
0300
0000
2030
0000
,
0002
0000
3000
0200
0000
0003
0002
0300
,
0020
0000
0003
0200
0030
0000
2000
0300
,
0020
0000
3000
2000
0030
0000
0200
3000
,
0020
0000
0300
0002
0030
0000
0200
0003
,
0020
0000
0300
2000
0030
0000
0020
3000
,
2000
0000
0030
0200
3000
0000
0020
0300
,
0002
0000
0030
2000
0003
0000
0001
0000
,
0002
0000
3003
0000
;
