#TITLE:Tonight;
#ARTIST:Jeremy Camp;
#BANNER:Tonight - Jeremy Camp.png;
#BACKGROUND:Tonight - Jeremy Camp-bg.png;
#LYRICSPATH:Tonight - Jeremy Camp.lrc;
#CDTITLE:.\CDTITLES\DP2JEREMY.png;
#MUSIC:Tonight - Jeremy Camp.mp3;
#OFFSET:-2.107;
#SAMPLESTART:37.3;
#SAMPLELENGTH:12;
#BPMS:0=128;
#BGCHANGES:0=Tonight - Jeremy Camp.AVI=1=1=1=0,999=-=1=0=0=0;

//---------------dance-single - ----------------
#NOTES:
     dance-single:
     :
     Easy:
     2:
     0.149,0.131,0,0.060,0:
0000
0000
0000
0000
0000
0010
0000
0000
,
0000
1000
0000
0000
0000
0001
0000
0000
,
0000
1000
0000
0000
0000
0010
0000
0000
,
1000
0000
0001
0000
,
1000
0000
0010
0000
,
0001
0000
0010
0000
,
1000
0000
0100
0000
,
1000
0000
0001
0000
,
1000
0000
0100
0000
,
0001
0000
1000
0000
,
0001
0000
0100
0000
,
0000
0010
0000
1000
0000
0000
0000
0000
,
0010
0000
1000
0000
,
0010
0000
0001
0000
,
1000
0000
0001
0000
,
0000
1000
0000
0100
0000
0000
0000
0000
,
0010
0000
0100
0000
,
0010
0000
0100
0000
,
0020
0000
0000
0000
0000
0030
0000
0000
,
0002
0000
0000
0003
,
1000
0000
0010
0000
,
0002
0000
0000
0000
0000
0003
0000
0000
,
1000
0000
0010
0000
,
0002
0000
0000
0003
,
0010
0000
0001
0000
,
1000
0000
0001
0000
,
0010
0000
1000
0000
,
0000
0001
0000
0000
0000
1000
0000
0000
,
0000
0010
0000
0000
0000
0000
0001
0000
,
0000
1000
0000
0000
0000
0001
0000
0000
,
0000
0010
0000
0000
0000
0000
1000
0000
,
0000
0001
0000
0001
,
0000
1000
0000
0100
,
0000
0010
0000
1000
,
0000
0001
0000
0010
,
0000
1000
0000
0001
,
0000
0010
0000
1000
,
0000
0001
0000
0010
,
0000
1000
0000
0100
,
0000
0001
0000
0010
,
0000
1000
0000
0100
,
0000
0001
0000
1000
,
0000
0010
0000
0001
,
0000
1000
0000
0000
0000
0001
0000
0000
,
0000
0010
0000
0001
,
0000
0000
1000
0000
0000
0000
0010
0002
,
0000
0000
0000
0000
0003
0000
0000
0020
,
0000
0000
0000
0000
0000
0000
0030
1000
,
0000
0000
0000
0010
0000
0000
0000
0002
,
0000
0000
0000
0000
0000
0003
0000
0010
,
0000
0000
0000
1000
0000
0000
0000
0002
,
0000
0000
0000
0000
0000
0003
0000
0010
,
0000
0000
0000
0001
0000
0000
0000
0000
,
1000
0000
0001
0000
,
0010
0000
1000
0000
,
0001
0000
0010
0000
,
1000
0000
0100
0000
,
0010
0000
0100
0000
,
0001
0000
0010
0000
,
1000
0000
0100
0000
,
0001
0000
0010
0000
,
1000
0000
0001
0000
,
0020
0000
0000
0030
,
1000
0000
0010
0000
,
0001
0000
0100
0000
,
1000
0000
0001
0000
,
0010
0000
1000
0000
,
0010
0000
1000
0000
,
0001
0000
0010
0000
,
1000
0000
0001
0000
,
0010
0000
0100
0000
,
0001
0000
0010
0000
,
1000
0000
0001
0000
,
0010
0000
0100
0000
,
1000
0000
0010
0000
,
0001
0000
0100
0000
,
1000
0000
0010
0000
,
0001
0000
0100
0000
,
0010
0000
0000
0000
;

//---------------dance-single - ----------------
#NOTES:
     dance-single:
     :
     Hard:
     5:
     0.286,0.314,0.067,0.148,0:
0000
0100
0010
0100
0000
0010
0100
0010
,
0000
1000
0001
1000
0000
0001
1000
0001
,
0000
0010
0100
0010
0100
0010
0100
0010
,
0001
1000
0100
0001
,
0020
0000
0030
1000
,
0001
1000
0010
0001
,
1000
0001
0100
0001
,
1000
0010
0001
0010
,
2000
0000
3000
0010
,
0001
0010
1000
0100
,
0002
0000
0000
0003
,
0000
1100
0000
0011
0000
1000
0000
0000
,
0010
0001
1000
0001
,
0010
1000
0001
0010
,
1000
0010
0001
0100
,
0000
1010
0000
0101
0000
1000
0000
0000
,
0010
1000
0100
0001
,
0010
0001
0100
1000
,
0020
0000
0030
1000
,
0002
0000
0000
0003
,
1000
0100
0010
1000
,
0002
0000
0000
0000
0000
0003
0010
0000
,
1000
0001
0010
1000
,
0002
0000
0000
0000
0000
0003
1000
0000
,
0010
1000
0001
0010
,
1000
0001
1000
0001
,
0010
0001
1000
0200
,
0300
0011
0000
1000
0000
1100
0000
0001
,
0000
0110
0000
1000
0000
0000
0001
0000
,
0000
1100
0000
0010
0000
0101
0000
1000
,
0000
0110
0000
0001
0000
0000
1000
0000
,
0010
0001
1000
0001
,
2000
0000
3000
0100
,
1000
0010
0001
1000
,
0010
0001
1000
0010
,
0000
1000
0010
0001
,
2000
0000
3000
0001
,
0010
1000
0001
0010
,
2000
0000
0000
3100
,
0000
0001
0000
1000
0000
0010
0000
0000
,
0001
1000
0001
0100
,
1000
0001
0010
1000
,
0001
0010
1000
0001
,
0000
0010
0000
1000
0000
0010
0000
0000
,
1000
0010
1000
0001
,
0010
0000
1000
0000
0001
0000
0010
0002
,
0000
0000
0000
0000
0003
0000
1000
0020
,
0000
0000
0000
0000
0000
0000
0030
1000
,
0000
0001
0000
0010
0000
1000
0000
0002
,
0000
0000
0000
0000
0000
0003
0000
0010
,
0000
0100
0000
1000
0000
0010
0000
0002
,
0000
0000
0000
0000
0000
0003
0000
0010
,
0000
1000
0000
0001
0000
0010
0000
0000
,
1000
0010
0001
1000
,
0010
0001
1000
0010
,
0001
1000
0010
0001
,
1000
0001
0100
0001
,
0010
0001
0100
1000
,
0001
1000
0010
0001
,
1000
0001
0100
1000
,
0001
1000
0010
0001
,
1000
0010
0001
1000
,
0020
0000
0000
0031
,
2000
0000
0000
3001
,
0001
0010
0100
0001
,
2000
0000
0000
3001
,
0010
0001
1000
0001
,
0020
0000
0000
0031
,
0001
1000
0010
0001
,
1000
0010
0001
1000
,
0010
1000
0100
0010
,
0002
0000
0000
1003
,
1000
0010
0001
1000
,
0020
0000
0000
1030
,
1000
0001
0010
1000
,
0002
0000
0000
1003
,
1000
0001
0010
1000
,
0001
0010
0100
1000
,
0010
0000
0000
0000
;

//---------------dance-single - ----------------
#NOTES:
     dance-single:
     :
     Medium:
     3:
     0.212,0.209,0.067,0.141,0:
0000
0000
0000
0000
0000
0010
0000
0000
,
0000
1000
0000
0000
0000
0001
0000
0000
,
0000
1000
0000
0000
0000
0010
0000
0000
,
0001
1000
0000
0001
,
0020
0000
0000
0000
0000
0030
1000
0000
,
0001
0000
0010
0001
,
1000
0000
0100
0001
,
1000
0000
0001
0010
,
2000
0000
0000
0000
0000
3000
0000
0000
,
0001
0010
1000
0000
,
0002
0000
0000
0003
,
0000
1100
0000
0011
0000
0000
0000
0000
,
0010
0001
1000
0000
,
0010
1000
0001
0000
,
1000
0010
0001
0000
,
0000
1010
0000
0101
0000
0000
0000
0000
,
0010
1000
0100
0000
,
0010
0001
0100
0000
,
0020
0000
0000
0030
,
0002
0000
0000
0003
,
1000
0100
0010
0000
,
0002
0000
0000
0003
,
1000
0001
0010
0000
,
0002
0000
0000
0003
,
0010
1000
0001
0000
,
1000
0001
1000
0000
,
0010
0001
1000
0000
,
0000
0011
0000
0000
0000
1100
0000
0000
,
0000
0110
0000
0000
0000
0000
0001
0000
,
0000
1100
0000
0000
0000
0101
0000
0000
,
0000
0110
0000
0000
0000
0000
1000
0000
,
0000
0001
1000
0001
,
2000
0000
0000
0000
0000
3000
0100
0000
,
0000
0010
0001
1000
,
0000
0001
1000
0010
,
0000
1000
0010
0001
,
2000
0000
0000
0000
0000
3000
0001
0000
,
0000
1000
0001
0010
,
2000
0000
0000
0000
0000
0000
0100
3000
,
0000
0001
1000
0010
,
0000
1000
0001
0100
,
0000
0001
0010
1000
,
0000
0010
1000
0001
,
0000
1000
0000
0010
0000
0001
0000
0000
,
0000
0010
1000
0001
,
0000
0000
1000
0000
0001
0000
0010
0002
,
0000
0000
0000
0000
0000
0000
0003
0020
,
0000
0000
0000
0000
0000
0000
0030
1000
,
0000
0001
0000
0010
0000
1000
0000
0002
,
0000
0000
0000
0000
0000
0000
0003
0010
,
0000
0100
0000
1000
0000
0000
0000
0002
,
0000
0000
0000
0000
0000
0000
0003
0010
,
0000
1000
0000
0001
0000
0010
0000
0000
,
1000
0010
0001
0000
,
0010
0001
1000
0000
,
0001
1000
0010
0000
,
1000
0001
0100
0000
,
0010
0001
0100
0000
,
0001
1000
0010
0000
,
1000
0001
0100
0000
,
0001
1000
0010
0000
,
1000
0010
0001
0000
,
0020
0000
0000
0030
,
2000
0000
0000
3000
,
0001
0010
0100
0000
,
2000
0000
0000
3000
,
0010
0001
1000
0000
,
0020
0000
0000
0030
,
0001
1000
0010
0000
,
1000
0010
0001
0000
,
0010
1000
0100
0000
,
0002
0000
0000
0003
,
1000
0010
0001
0000
,
0020
0000
0000
0030
,
1000
0001
0010
0000
,
0002
0000
0000
0003
,
1000
0001
0010
0000
,
0001
0010
0100
1000
,
0010
0000
0000
0000
;

//---------------dance-single - ----------------
#NOTES:
     dance-single:
     :
     Challenge:
     8:
     0.531,0.522,0.322,0.268,0.027:
0000
0000
0000
0000
,
0000
0000
0000
0000
,
0000
0000
0000
0000
,
0001
0010
0001
0010
0001
1000
0001
0010
,
0001
0100
0001
0100
0001
1000
0001
0010
,
0100
1000
0100
1000
0010
0100
0010
0100
,
0001
1000
0001
1000
0100
0010
0100
0000
,
1000
0100
1000
0100
1000
0001
1000
0100
,
1000
0010
1000
0010
1000
0001
1000
0100
,
0010
0001
0010
0001
0100
0010
0100
0010
,
1000
0001
1000
0001
0100
0010
1000
0001
,
0000
1001
0001
0100
0000
1001
1000
0010
,
0000
0001
1000
0100
0100
0001
1001
0000
,
1000
0100
0001
0000
0100
0100
1000
0000
,
0010
0001
1000
0100
0001
1000
0001
0000
,
0000
1001
0000
1001
0000
0110
0100
0001
,
0000
0101
0001
1000
0000
0110
0100
1000
,
0000
1100
1000
0001
0000
1001
0001
0200
,
0010
0010
0010
0010
0310
0000
0000
0000
,
2010
0100
0000
0100
3002
0000
0023
0100
,
0000
0100
0031
0000
1000
0001
1001
0000
,
0102
1000
0000
1000
0023
0000
0230
1000
,
0000
0000
1000
0000
0310
0000
0000
0100
1000
0000
0001
0000
1001
0000
0000
0000
,
0210
0001
0000
0001
0320
0000
2030
0001
,
0000
0001
3100
0000
1000
0001
1001
0000
,
0001
1000
1000
0001
0001
1000
1000
0001
,
0001
0100
0100
0010
0010
1000
1001
1001
,
0000
1010
1000
1000
0000
1100
1000
1000
,
0000
1001
1000
1000
0001
0010
0001
1000
,
0000
0101
0001
0001
0000
0011
0001
0001
,
0000
1001
0001
0001
0010
0100
1000
0000
,
0010
0100
0010
0100
0010
1000
0010
0100
,
0002
1000
1000
1000
1003
0100
1000
0002
,
0010
0013
0100
2000
0010
3010
0100
0002
,
1000
1003
0100
2000
0001
3001
1000
0000
,
0100
0010
0100
0000
0010
0000
0100
0000
0010
0000
0001
0000
0010
0000
0100
0000
,
2000
0001
0001
0001
3001
0010
0001
2000
,
0010
3010
0100
0002
0010
0013
0100
2000
,
0100
3100
1000
0200
1000
1300
0100
0010
,
0000
1001
0000
1001
0000
0100
0000
1010
,
0000
0100
1000
0010
0010
0100
0000
0011
,
0000
0010
0001
0100
0100
0010
0000
1100
,
0000
0000
1001
0000
0000
0000
0010
0000
0000
0000
0100
0000
0000
0000
0001
0100
,
0001
0101
0000
1001
0000
0010
0000
1100
,
0000
0001
0100
1000
0001
0100
0000
0010
,
1000
0001
0010
1000
0010
0001
0100
0020
,
1000
1000
1000
1000
1030
0000
0010
1002
,
0000
0100
0000
1000
0023
0000
0230
0001
,
0000
0001
0310
0000
0100
1000
0001
2001
,
0000
0010
0000
0100
3002
0000
0203
1000
,
0000
1000
0310
0000
0100
0001
1000
1002
,
0000
0010
0000
1000
0203
0000
0320
1000
,
0000
0000
1000
0000
0130
0000
0000
0010
1000
0000
0001
0000
1001
0000
0000
0000
,
0001
0100
0100
0001
0001
1000
1000
0100
,
0100
0000
0010
0000
0010
0000
0001
0000
0001
0000
1000
0000
1000
0001
1000
0001
,
0000
0020
0000
0130
0000
1000
0010
0200
,
0000
0301
0100
0010
1000
0000
0101
0000
,
0010
1000
0001
0020
0000
0031
1000
0020
,
0000
0000
0130
0001
2000
0000
3001
0000
,
1000
0100
0010
0002
0000
0103
0001
2000
,
0000
3100
0001
0100
1000
0000
0101
0000
,
0010
0000
0100
0010
0000
1000
0001
0010
,
0100
0000
0100
0000
0100
0000
0010
2001
,
0000
0000
0000
0000
0000
0100
0100
0100
,
0000
0010
0000
3100
0000
0001
1000
1002
,
0000
0000
0000
0000
0000
0010
0010
0010
,
0000
1000
0000
0103
0000
1000
0001
1001
,
1000
0010
0100
0000
0010
0000
1000
0000
,
0001
0010
0100
0000
0010
0000
0001
0000
,
0100
0001
0100
0001
0100
1000
0100
1000
,
0100
0001
1000
0000
,
1001
0010
0000
1000
0100
0000
1001
0010
,
0000
0000
0001
0000
0100
0000
0000
0001
1000
0000
0100
0000
0010
0000
0001
0000
,
1001
0100
0000
0001
0010
0000
1001
0100
,
0000
1000
0010
0000
0100
0001
1000
0100
,
1001
0010
0000
0100
1000
0000
1001
0010
,
0000
0000
0100
0000
0001
0000
0000
1000
0001
0000
0100
0000
0010
0000
0000
0000
,
2000
0000
0000
3000
;
