#TITLE:This Fragile Breath;
#ARTIST:Todd Agnew;
#BANNER:This Fragile Breath - Todd Agnew.png;
#BACKGROUND:This Fragile Breath - Todd Agnew-bg.png;
#LYRICSPATH:This Fragile Breath - Todd Agnew.lrc;
#CDTITLE:.\CDTITLES\DP2AGNEW.png;
#MUSIC:This Fragile Breath - Todd Agnew.mp3;
#OFFSET:-1.350;
#SAMPLESTART:48.7;
#SAMPLELENGTH:12;
#BPMS:0=70.4;
#BGCHANGES:0=This Fragile Breath - Todd Agnew.AVI=1=1=1=0,999=-=1=0=0=0;

//---------------dance-single - ----------------
#NOTES:
     dance-single:
     :
     Easy:
     1:
     0.085,0.100,0.014,0.014,0:
0000
0000
0000
0000
,
0001
0000
1000
0000
,
0010
0000
0100
0000
,
0010
0000
0000
0001
0000
0000
1001
0000
,
0010
0000
1000
0000
,
0001
0000
1000
0000
,
0010
0000
0100
0000
,
1000
0000
0000
0002
0000
0000
0003
0000
,
0010
0000
0100
0000
,
0001
0000
1000
0000
,
0010
0000
0100
0000
,
1000
0000
0001
0000
,
1000
0000
0001
0000
,
1000
0000
0010
0000
,
1001
0000
0100
0000
,
0010
0000
1000
0000
,
0001
0000
0100
0000
,
0010
0000
0000
0001
0000
0000
0000
0000
,
1000
0000
0010
0000
,
0001
0000
1000
0000
,
0010
0000
0100
0000
,
0001
0000
1000
0000
,
0020
0000
0030
0000
,
1000
0000
0001
0000
,
0010
0000
0010
0000
,
1000
0000
0000
0001
0000
0000
0000
0000
,
0010
0000
0100
0000
,
1000
0000
0010
0000
,
0001
0000
0010
0000
,
1000
0000
0100
0000
,
0010
0000
1000
0000
,
0010
0000
0001
0000
,
1000
0000
0010
0000
,
0001
0000
0100
0000
,
0010
0000
0010
0000
,
1000
0000
0010
0000
,
0001
0000
1000
0000
,
0010
0000
0100
0000
,
1000
0000
0001
0000
,
0010
0000
1000
0000
,
0001
0000
0100
0000
,
0001
0000
0000
0000
;

//---------------dance-single - ----------------
#NOTES:
     dance-single:
     :
     Hard:
     6:
     0.290,0.288,0.056,0.028,0.129:
0000
0000
0000
0000
,
0010
0000
1000
0000
0100
0000
0000
0001
0010
0000
0001
0000
0100
0000
0000
0000
,
1000
0000
0001
0000
0010
0000
0000
0001
1000
0000
0001
0000
0010
0000
0000
0000
,
1000
0001
1000
0000
0100
0000
0001
0020
0000
0000
0031
0000
1000
0000
0100
0000
,
0010
0000
0000
0000
1000
0000
0000
0010
0100
0000
0001
0000
1000
0000
0000
0000
,
0001
0000
0000
0000
0100
0000
0000
1000
0001
0000
1000
0000
0100
0000
0000
0000
,
0001
0000
0000
0000
1000
0000
0000
0010
0001
0000
0010
0000
1000
0000
0000
0000
,
0001
0000
0000
0000
1000
0000
0010
0002
0000
0000
0000
0000
0000
0000
0003
0000
,
0010
0000
0000
0000
0001
0000
0000
1000
0010
0000
1000
0000
0001
0000
0000
0000
,
1000
0000
0000
0000
0100
0000
0000
0001
1000
0000
0001
0000
0100
0000
0000
0000
,
0010
0000
0000
0000
0100
0000
0000
1000
0010
0000
0001
0000
0100
0000
0000
0000
,
1000
0000
0001
0010
1000
0010
0001
0100
,
1000
0001
0010
1000
0001
1000
0100
0001
,
1000
0010
0001
1000
0010
1000
0100
0010
,
1001
0000
0100
0000
0010
0000
0000
0001
0100
0000
0001
0000
1000
0000
0100
0000
,
0010
0000
1000
0000
0001
0000
0000
0010
1000
0000
0001
0000
0010
0000
0000
1000
,
0001
0000
0010
0000
1000
0000
0000
0001
0100
0000
1000
0000
0001
0000
0000
0010
,
1000
0000
0001
0000
1000
0000
0011
0100
0000
0000
1000
0001
0010
0000
0001
0000
,
1100
0000
0010
0000
0001
0000
0000
1000
0010
0000
0001
0000
1000
0000
0000
1000
,
0001
0000
1000
0000
0010
0000
0000
0100
1001
0000
0010
0000
0001
0000
0000
0000
,
0110
0001
1000
0000
0110
0001
1000
0010
,
0001
0000
0000
1000
0000
0010
0000
0001
0000
1000
0000
0000
0010
0001
1000
0000
,
0020
0000
1000
0000
0030
1000
0001
0010
,
1000
0000
0001
0000
0010
0000
0000
1000
0001
0000
1000
0000
1000
0000
0001
0000
,
0010
0000
0001
0000
1000
0000
0000
0001
0010
0000
1000
0000
0001
0000
0010
0000
,
1000
0001
0010
0002
0000
0000
1000
0003
,
0010
0000
0001
0000
0100
1000
0001
0000
,
1000
0000
0001
0000
0010
0001
1000
0000
,
0001
0000
0000
0000
1000
0000
0000
0010
0100
0000
1000
0000
0001
0000
0000
0000
,
1000
0000
0001
0010
0100
0000
0001
0000
,
0010
0000
0000
0000
0001
0000
0000
0010
1000
0000
0010
0000
0001
0000
0000
0000
,
0010
0000
0000
0000
1000
0000
0000
0010
0001
0000
1000
0000
0010
0000
0000
0000
,
1000
0000
0000
0000
0100
0000
0000
1000
0010
0000
0001
0000
1000
0000
0000
0000
,
0001
0000
1000
0001
0100
0001
1000
0100
,
0011
0100
1000
0001
0010
1000
0001
0010
,
1000
0010
0001
0100
0010
0001
0100
0010
,
1001
0000
0100
0000
0010
0000
0000
0001
1000
0000
0010
0000
0001
0000
0100
0000
,
0010
0000
1000
0000
0001
0000
0000
0010
0100
0000
1000
0000
0001
0000
0010
0000
,
1000
0000
0001
0000
0010
0000
0000
0001
1000
0000
0010
0000
0100
0000
0000
0001
,
0010
1000
0001
0010
1000
0001
0010
1000
,
0001
0000
0010
0000
1000
0000
0000
0001
0100
0000
0001
0000
1000
0000
0000
0000
,
0001
0010
1000
0000
0000
0000
0000
0000
;

//---------------dance-single - ----------------
#NOTES:
     dance-single:
     :
     Medium:
     2:
     0.169,0.159,0.049,0.028,0:
0000
0000
0000
0000
,
0010
0100
0010
0100
,
1000
0010
1000
0010
,
0001
0000
0100
0020
0000
0030
1001
0000
,
0010
1000
0010
1000
,
0001
0100
0001
0100
,
0001
1000
0001
1000
,
0001
0000
1000
0002
0000
0000
0000
0003
,
0010
0001
0010
0001
,
1000
0100
1000
0100
,
0010
0100
0010
0100
,
1000
0001
1000
0001
,
1000
0010
0001
0100
,
1000
0001
0010
0100
,
1001
0010
0100
1000
,
0010
0001
1000
0010
,
0001
1000
0100
0001
,
0010
0000
1000
0110
0000
0000
0010
0000
,
1100
0001
0010
1000
,
0001
0010
1001
0001
,
0010
1000
0100
1000
,
0001
0010
1000
0001
,
0020
0000
0000
0000
0000
0030
0001
0000
,
1000
0010
0001
1000
,
0010
1000
0010
0001
,
1000
0000
0010
0002
0000
0000
0000
0003
,
0010
0001
0100
0001
,
1000
0001
0010
1000
,
0001
1000
0010
0001
,
1000
0001
0100
0001
,
0010
0001
1000
0001
,
0010
1000
0001
0010
,
1000
0100
0010
1000
,
0001
1000
0100
1000
,
0011
1000
0010
0001
,
1000
0001
0010
0100
,
1001
0010
1000
0001
,
0010
0001
0100
0001
,
1000
0010
0001
0100
,
0010
0001
1000
0010
,
0001
1000
0100
1000
,
0001
1000
0000
0000
;

//---------------dance-single - ----------------
#NOTES:
     dance-single:
     :
     Challenge:
     7:
     0.371,0.362,0.161,0.154,0.266:
0000
0000
0000
0000
0000
0000
0010
0001
,
1001
0000
1000
0000
1100
0000
0000
0000
1000
0000
0010
0000
0100
0010
1000
0010
,
0100
0000
0110
0000
0100
0000
0101
0000
0001
0000
1000
0000
0001
0100
0010
0100
,
0100
0001
0001
1000
1000
0001
1000
0000
0000
0000
0000
0000
1100
0000
0000
0000
,
0100
0000
1000
0000
0010
0000
0010
0100
0000
0000
0000
0000
0100
0001
0000
0000
,
0001
0000
1000
0000
0100
0100
1000
0000
0000
0000
1000
0000
0010
0000
0100
0000
,
0010
1000
0000
0000
0001
0000
1000
0000
0022
0000
0033
0000
0010
0000
0001
0000
,
1000
0100
0100
1000
2020
3030
0220
0330
,
0100
0100
0001
0001
1000
1000
0100
0100
,
1000
0000
1000
0010
0000
0000
0010
0000
0010
0000
0100
0000
0100
0000
0010
0000
,
0100
0000
0010
1000
0000
0000
0000
0000
1000
0000
1000
0000
0010
0010
0000
0000
,
1001
1000
1000
0001
0001
0010
0001
0000
0000
0001
0010
0000
0011
0000
0000
0000
,
0100
1000
1001
1001
1000
1000
1010
1010
,
1000
0000
1000
0000
0011
0000
0011
0000
0010
0000
0010
0000
0001
0010
0110
0000
,
1000
0010
1000
0000
1000
0000
0010
0000
0010
0100
0010
0000
1000
0000
1000
0000
,
0001
0100
0001
0000
1000
0000
0100
0000
0010
0100
0010
0000
0001
0000
0010
0001
,
0000
0001
0100
0000
0001
0000
1000
0000
0001
0000
1000
0000
0100
1000
0100
1000
,
0100
1000
0010
1000
0010
0000
0010
0100
0000
0010
0100
0000
0100
0001
0100
0000
,
0101
0000
0001
0000
1000
0000
0001
1000
0100
0000
1000
0000
0010
0000
0100
0010
,
1000
0000
0001
0000
0001
0000
0010
0001
0100
0000
0001
0000
1000
0000
0100
0000
,
1000
0001
0000
0010
0000
0001
0000
1000
0000
0000
0200
0000
0000
0000
0300
0000
,
1000
0001
0000
0010
0000
0001
0000
1000
0000
0000
0000
0000
0002
0000
0000
0000
,
0020
0000
0000
0000
0033
0000
0010
0001
,
1000
0000
0000
0000
0001
0000
0000
0000
0010
0000
0000
0000
0001
1000
0100
1000
,
0010
0100
0010
1000
,
0001
0010
0001
0010
0100
0010
0100
0000
0000
0000
0000
0000
0220
0000
0330
0000
,
1000
0000
1000
0000
0010
0000
0010
0100
0000
0000
0000
0000
0100
0010
0000
0000
,
0010
0000
1000
0000
1000
0000
0001
0000
0010
0000
0010
0000
0002
0000
0000
0003
,
1000
0000
0000
1000
0000
0100
0000
0000
1000
0000
1000
0000
0010
0000
0000
0000
,
0010
1000
0000
1000
0000
0010
0000
0200
0000
0000
0000
0000
0020
0000
0000
0330
,
1000
0000
1000
0000
0010
1000
0010
0000
0010
0000
0100
0000
0010
0000
1000
0000
,
1000
0000
0010
1000
0000
0001
0000
0000
1000
0000
1000
0000
0100
0000
0100
0000
,
1000
1000
0010
1000
0001
0001
0010
0001
,
2000
0000
0000
0000
3100
0000
1000
0010
0000
0010
0100
0000
0010
0000
1000
0000
,
0001
0010
0001
0010
0100
0010
0100
0010
,
0001
0000
1000
0000
0001
0000
1000
0000
1000
0100
1000
0100
1000
0010
1000
0010
,
2020
0000
0000
0030
0010
0000
0010
3000
1002
0000
0010
0000
0010
0003
0001
1000
,
0000
1000
0200
0000
2000
0000
0000
3300
1000
0000
0010
0000
0100
0000
0010
1000
,
0000
1000
0001
0000
0100
0000
1000
0000
0100
0000
0010
0000
0010
0100
0010
0000
,
1000
0010
1000
0010
1000
0010
1010
0000
0000
1000
0001
0000
0011
0000
0000
0000
,
0001
0000
1000
0000
0100
0000
0100
1000
0000
1000
0010
0000
0100
0000
0020
0000
,
2000
0000
3030
0000
;
