#TITLE:There You Go;
#ARTIST:Caedmon's Call;
#BANNER:There You Go - Caedmon's Call.png;
#BACKGROUND:There You Go - Caedmon's Call-bg.png;
#LYRICSPATH:There You Go - Caedmon's Call.lrc;
#CDTITLE:.\CDTITLES\DP2CAED.png;
#MUSIC:There You Go - Caedmon's Call.mp3;
#OFFSET:-3.165;
#SAMPLESTART:39.7;
#SAMPLELENGTH:12;
#BPMS:0=104.954;
#BGCHANGES:0=There You Go - Caedmon's Call.AVI=1=1=1=0,999=-=1=0=0=0;

//---------------dance-single - ----------------
#NOTES:
     dance-single:
     :
     Easy:
     2:
     0.147,0.170,0.041,0.014,0.000:
0000
0000
1000
0001
,
0000
0000
0000
1000
,
0001
1000
0001
0000
,
0000
0000
1000
0000
0001
1000
0000
0000
,
0000
0001
0000
1000
0000
0000
0000
0000
,
1000
0000
0001
0000
0000
1000
0000
0000
,
0000
0001
0000
0000
0000
0000
1000
0000
,
0011
0100
0010
0100
,
0010
0000
1000
0001
,
1000
0001
0000
1000
,
0001
0010
0200
0300
,
0000
0010
0100
1000
,
0001
0000
0100
0000
,
0001
1000
0010
0100
,
0001
0000
0000
1001
,
0010
0000
0000
0000
,
1001
0010
0100
0001
,
0000
1000
0001
0000
,
0000
0010
0100
0010
,
0100
0000
1000
0001
,
0000
0001
0000
1000
,
0001
0010
0100
0000
,
0100
0010
1000
0001
,
0000
1000
0001
0000
,
1001
0010
0000
0000
,
0020
0000
0000
0030
,
1100
0010
0001
0000
,
0010
0000
1000
0000
,
0010
0000
0001
0000
,
0010
0000
1000
0000
,
0100
0000
0010
0000
,
0001
0000
1000
0000
,
0001
0000
0010
0000
,
1000
0000
0001
0000
,
1000
0000
0010
0000
,
0001
0000
1000
0000
,
0010
0000
0001
0000
,
0100
0000
0010
0000
,
0010
0000
0100
0000
,
0001
0000
0010
0000
,
1000
0000
0100
0000
,
0010
0000
0001
0000
,
0010
0000
1000
0000
,
0001
0000
0010
1000
,
0100
0000
0001
0000
,
0010
0000
1000
0000
,
0110
0000
0001
0000
,
0010
0000
1000
0000
,
0001
0000
0010
0000
,
0001
0000
0100
0000
,
1000
0000
0010
0000
,
1000
0000
0001
0000
,
0100
0000
0010
0000
,
1000
0000
0100
0000
,
0001
0000
0010
0000
,
1000
0000
1000
0000
,
0001
0000
0010
0000
,
0100
0000
0001
0000
,
1000
0000
0010
0000
,
0001
0000
0100
0000
,
0001
0000
0010
0000
,
1000
0000
0001
0000
;

//---------------dance-single - ----------------
#NOTES:
     dance-single:
     :
     Hard:
     6:
     0.299,0.318,0.034,0.041,0.024:
0000
0000
0000
0000
,
0000
0000
0000
0000
0000
0000
1000
0010
,
0001
1000
0001
0000
,
0000
0000
1000
0000
0001
1000
0000
0001
,
0000
1000
0000
0001
0000
0000
0000
1000
,
0010
0000
0100
0000
0001
0000
0010
0000
0100
0000
1000
0002
0000
0000
0000
0000
,
0000
1000
0000
0003
0000
0000
1000
0000
,
0011
0100
0010
0100
,
0010
0000
0001
0010
1000
0000
0001
0000
,
1000
0000
0001
0000
0010
0001
1000
0010
,
0001
1000
0010
0000
0200
0000
0001
0300
,
1000
0001
0010
0000
0100
1000
0000
0010
,
0001
0000
0000
0010
0100
0000
1000
0010
,
0001
0000
1000
0001
0010
1000
0100
1000
,
0001
1000
0010
1001
,
0010
0000
0000
0000
1000
0000
0001
0000
0000
0000
1000
0010
0000
1000
0010
0000
,
1001
0010
0001
0100
1000
0001
1000
0001
,
1000
0000
0000
0000
0001
0010
0100
0000
,
1000
0000
0010
0000
0100
1000
0010
0001
,
0100
0000
0001
0000
1000
0010
0001
0000
,
1000
0000
0001
0000
0010
0100
1000
0000
,
0001
0000
0010
1000
0100
0001
1000
0000
,
0100
0000
0010
0001
1000
0010
0001
1000
,
0010
0000
1000
0010
0001
1000
0010
1000
,
0001
0100
0010
0000
1000
0000
0001
0000
,
0020
0000
1000
0000
1000
0000
1000
0030
,
1100
0010
0001
1000
,
0010
0000
0100
0001
1000
0000
0100
0001
,
0010
0100
1000
0000
0001
0000
1000
0100
,
0010
1000
0001
0000
1000
0000
0001
0000
,
0100
0000
0001
0000
0010
0000
1000
0010
,
0001
0000
0010
0001
1000
0000
0010
0000
,
0001
0010
1000
0000
0010
0000
1000
0001
,
1000
0000
0010
0000
0001
1000
0010
0000
,
1000
0000
0000
0000
0001
0000
0000
0000
0010
0000
1000
0000
0001
0010
0100
0000
,
0001
0000
0010
0000
1000
0010
0001
0000
,
0010
1000
0001
0010
,
0100
0000
0000
0000
0001
0000
0000
0010
0000
0000
0001
0000
1000
0000
0000
0000
,
0010
0001
0100
1000
,
0001
0000
0000
0000
1000
0000
0000
0010
0000
0000
1000
0000
0001
0000
0000
0000
,
1000
0000
0001
0000
0100
0001
1000
0000
,
0010
0000
0000
0000
1000
0000
0000
0001
0000
0000
0010
0000
1000
0000
0000
0000
,
0010
0000
0001
0010
1000
0000
0010
0000
,
0001
1000
0001
0000
0010
0000
1000
0000
,
0200
0000
0000
0000
0001
0000
0000
0000
0001
0300
0000
0000
1000
0000
0000
0000
,
0010
0001
1000
0001
,
0110
0000
1000
0000
0001
1000
0010
1000
,
0010
0001
1000
0010
,
0001
0000
1000
0000
0010
0000
1000
0010
,
0001
0000
1000
0010
0100
0000
0001
0000
,
2000
0000
0000
0000
3010
0000
0001
0010
,
1000
0000
0010
1000
0001
0000
1000
0000
,
0100
1000
0010
0001
,
1000
0002
1000
0000
,
1000
0000
0013
0100
,
1000
0001
1000
0010
,
0001
1000
0010
0001
,
0100
1000
0001
0010
,
1000
0001
0010
1000
,
0001
0010
0100
1000
,
0001
0100
0010
0001
,
1000
0010
0001
0000
;

//---------------dance-single - ----------------
#NOTES:
     dance-single:
     :
     Medium:
     3:
     0.230,0.254,0.034,0.034,0.000:
0000
0000
0000
0000
,
1000
0000
0001
0000
0000
0000
1000
0001
,
1000
0001
0001
0000
,
0000
0000
1000
0000
0001
1000
0000
0001
,
0000
1000
0000
0001
0000
0000
0000
0000
,
1000
0000
0001
0000
0000
1000
0000
0000
,
0000
0001
0000
0000
0000
0000
1000
0000
,
0011
0100
0010
0100
,
0010
0000
1000
0001
,
1000
0001
0000
1000
,
0001
0010
0200
0000
,
0300
0010
0100
1000
,
0001
0000
0000
0010
0100
0000
0000
0000
,
0001
1000
0010
0100
,
0001
1000
0010
1001
,
0010
0000
0000
0000
,
1001
0000
0010
0000
0100
0000
0001
1000
,
0001
0000
1000
0000
0001
0010
0100
0000
,
0000
0010
0100
0010
,
0100
0000
0001
0000
1000
0010
0001
0000
,
0000
0000
0001
0000
0000
0010
1000
0000
,
0001
0000
0010
0000
0100
0001
1000
0000
,
0100
0010
1000
0001
,
0010
0000
1000
0010
0001
1000
0010
1000
,
0001
0100
0010
0000
1000
0000
0001
0000
,
0020
0000
0000
0000
0000
0000
0000
0030
,
1100
0010
0001
1000
,
0010
0000
0000
0001
1000
0000
0100
0000
,
0010
0000
1000
0000
0001
0000
0000
0100
,
0010
0001
1000
0000
,
0100
0001
0010
1000
,
0001
0010
1000
0010
,
0001
0000
1000
0000
0010
0000
0000
0001
,
1000
0010
0001
0000
,
1000
0000
0010
0000
,
0001
0010
1000
0001
,
0010
1000
0001
0010
,
0100
0001
0010
1000
,
0010
0001
0100
1000
,
0001
1000
0010
0001
,
1000
0000
0001
0000
0100
0001
1000
0000
,
0010
1000
0001
1000
,
0010
0001
1000
0010
,
0001
1000
0001
0000
0010
0000
1000
0000
,
0200
0000
0000
0000
0001
0300
0000
0000
,
0010
0000
1000
0000
,
0110
0000
0000
0000
0001
1000
0010
1000
,
0010
0001
1000
0010
,
0001
0000
0000
0000
0010
0000
1000
0010
,
0001
0000
1000
0010
0100
0000
0001
0000
,
2000
0000
0000
3000
0010
0000
0001
0010
,
1000
0000
0010
1000
0001
0000
1000
0000
,
0100
0000
0010
0001
,
1000
0002
0000
0000
,
0000
0000
0000
0000
0010
0003
0100
0000
,
1000
0001
1000
0010
,
0001
1000
0010
0001
,
0100
1000
0001
0010
,
1000
0001
0010
1000
,
0001
0010
0100
1000
,
0001
0100
0010
0001
,
1000
0010
0001
0000
;

//---------------dance-single - ----------------
#NOTES:
     dance-single:
     :
     Challenge:
     7:
     0.410,0.534,0.200,0.358,0.059:
0000
0001
0000
0010
0000
0010
0000
0001
,
0000
1000
0000
0000
0000
0000
1000
0001
,
0010
0010
0001
1000
,
0001
0000
0010
0000
0010
0001
0000
0001
,
0000
1000
0000
0001
0000
0000
0000
0001
,
1000
0100
1000
1000
0010
0010
0000
0100
,
0000
0100
0000
0001
1000
0000
0001
0000
,
0010
0001
1000
1000
0001
1000
0010
0000
,
0100
0100
0010
0100
0001
1000
0001
0000
,
0010
0010
0001
1000
0100
0010
0010
0000
,
0100
0010
0001
0001
0100
0010
0100
0000
,
0001
1000
1000
0100
1000
0001
0100
0000
,
0010
0010
0100
0001
1000
0001
0010
0000
,
0001
0001
1000
0100
1000
0010
0100
0000
,
0010
0100
0010
0000
1000
0001
1000
0000
,
0100
0100
1000
0000
1000
0001
1000
0000
,
0010
0010
0100
0010
0100
0001
1000
0001
,
1000
0000
0000
0001
0000
0000
0010
0000
0000
0001
0000
0000
0100
0000
0000
0000
,
0001
0001
0010
0001
0100
0100
0010
0100
,
0001
0000
0000
0010
0000
0000
0010
0000
0000
0001
0000
0000
0010
0000
0000
0000
,
0100
0100
0010
0100
1000
0001
1000
0100
,
0010
0000
0000
0100
0000
0000
0010
0000
0000
0001
0000
0000
0110
0000
0000
0000
,
1000
1000
0001
1000
0100
0010
0010
0100
,
1000
0000
0000
0010
0000
0000
0100
0000
0000
0010
0000
0000
0101
0000
0000
0000
,
1000
0001
1000
0000
0001
0000
0020
0000
,
0002
0000
0000
0033
,
1000
1000
0010
0010
0100
0010
0000
0010
,
0000
0000
0000
1000
0001
0000
0010
0000
,
0001
0000
0001
0000
1000
0000
0001
0010
,
0001
0001
0000
1000
0000
1000
0100
0000
,
1000
0000
0010
0000
0010
0100
0000
0100
,
0000
0000
0001
0000
1000
1000
0001
0000
,
0001
0010
0001
0001
1000
0000
1000
0000
,
0010
0010
0100
0100
,
0001
0000
0000
0000
0001
0000
0000
0000
1000
0000
0001
0000
1000
0001
1000
0000
,
0001
0010
0010
0100
0010
0001
0001
1000
,
0100
0000
0000
0100
0000
0000
1000
0000
0000
1000
0000
0000
0010
0000
0000
0000
,
0100
0100
0010
0100
0001
1000
0001
1000
,
0001
0000
0000
0001
0000
0000
0010
0000
0000
0010
0000
0000
0100
0000
0000
0000
,
0010
0010
0001
0001
1000
1000
0100
1000
,
1000
0000
0000
0010
0000
0000
0010
0000
0000
0100
0000
0000
0101
0000
0000
0000
,
0100
0100
0001
1000
0001
1000
0001
0100
,
0010
0000
0000
0010
0000
0000
0100
0000
0000
0100
0000
0000
1001
0000
0000
0000
,
1000
0001
1000
0000
0100
0000
1000
0000
,
0220
0000
0000
0330
,
0202
0000
0000
0303
,
0022
0033
2200
3300
,
0220
0330
2020
3030
,
2002
3003
0022
0033
,
2002
3003
2200
3300
,
0010
0010
0220
0330
0100
0100
0202
0303
,
1000
1000
2200
3300
1000
1000
2020
3030
,
0010
0010
0220
0330
0100
0100
0202
0303
,
1000
1000
2002
3003
1000
0010
0220
0330
,
0001
0001
0001
1000
0001
1000
2200
3300
,
1000
1000
0010
0100
0010
0100
0202
0303
,
0001
1000
0001
1000
0100
0010
0022
0033
,
0010
0001
0100
0010
0100
0001
2002
3003
,
0001
0100
0010
0010
0100
0010
2020
3030
,
0100
0001
1000
0100
1000
0010
0220
0330
,
0001
1000
0001
0100
0010
0100
0202
0000
,
0000
0000
0000
0000
,
0303
0000
0000
0000
;
