#TITLE:Stand in the Rain;
#ARTIST:Superchick;
#BANNER:Stand in the Rain - Superchick.png;
#BACKGROUND:Stand in the Rain - Superchick-bg.png;
#LYRICSPATH:Stand in the Rain - Superchick.lrc;
#CDTITLE:.\CDTITLES\DP2CHICK.png;
#MUSIC:Stand in the Rain - Superchick.mp3;
#OFFSET:-3.094;
#SAMPLESTART:37.94;
#SAMPLELENGTH:12;
#BPMS:0=60;
#BGCHANGES:0=Stand in the Rain - Superchick.AVI=1=1=1=0,999=-=1=0=0=0;

//---------------dance-single - ----------------
#NOTES:
     dance-single:
     :
     Easy:
     1:
     0.145,0.133,0.067,0.022,0.004:
0000
0000
0001
0000
,
0010
0000
0000
0000
0000
0000
0000
0000
0200
0000
0000
0000
,
0300
0001
0010
0001
,
1000
0010
0001
1000
,
0010
0000
0000
0001
0000
0000
0200
0000
0000
0000
0000
0300
,
1000
0010
0001
1000
,
0010
0001
1000
0001
,
0020
1030
0001
0010
,
1000
0001
0100
0010
,
1001
0010
0110
0100
,
0010
0001
0100
0010
,
1001
0010
0110
0100
,
0010
0001
1000
0010
,
0001
1000
0010
0001
,
1000
0001
0010
1000
,
0001
0010
1000
0100
,
0010
1000
0001
0010
,
1100
0001
0011
0100
,
1000
0001
0100
0001
,
0010
0001
1000
0010
,
0001
1000
0010
0100
,
1000
0010
0001
0100
,
0010
0001
0100
0010
,
1001
0100
0110
1000
,
0010
0001
0100
0001
,
1001
0010
0001
0100
,
1000
0010
0001
0100
,
0010
1000
0001
0010
,
1000
0001
0010
1000
,
0001
0010
1000
0001
,
0010
1000
0001
0010
,
1000
0010
0001
1000
,
0100
0010
0100
0000
;

//---------------dance-single - ----------------
#NOTES:
     dance-single:
     :
     Hard:
     6:
     0.341,0.291,0.067,0.067,0.660:
0000
0000
0000
0010
1000
0010
0001
1000
0001
0100
0001
0100
,
0010
1000
0010
0001
1000
0010
0001
0000
0200
0000
0000
0300
,
0001
0010
1000
0001
1000
0001
0010
1000
0010
0001
1000
0001
,
2000
0000
0000
3000
0001
0010
0002
0000
0003
1000
0001
0100
,
0020
0000
0000
0030
1000
0001
0200
0000
0000
0002
0000
0000
,
0303
0000
0001
0010
1000
0010
0001
0000
0010
1000
0000
0001
,
0010
0000
1000
0001
0100
0010
1000
0001
1000
0001
1000
0001
,
0020
0000
0030
1000
0100
0010
0001
0000
1000
0010
1000
0001
,
2000
0000
0000
3000
0001
1000
0200
0000
0300
0010
1000
0010
,
1001
0000
0100
0010
0001
1000
0110
0000
0001
0100
0000
0001
,
0010
1000
0010
0001
1000
0001
0100
0000
1000
0010
1000
0010
,
1001
0000
0100
0010
0001
1000
0110
0000
0001
0100
0000
0001
,
0010
1000
0100
0001
0100
0010
1000
0000
0100
0010
1000
0010
,
0100
0010
0000
1000
0001
0000
0010
1000
0000
0001
0010
0000
,
1000
0010
0000
0001
0100
0000
0010
0001
0000
1000
0010
0000
,
0001
0000
0100
1000
0010
0001
1000
0000
0010
0100
0000
0001
,
0010
0000
0100
1000
0100
0010
0001
0010
0100
1000
0001
0010
,
1100
0000
0010
0001
1000
0100
0011
0000
0010
0100
0001
0010
,
1000
0000
0010
0001
1000
0010
0100
0000
1000
0001
0000
1000
,
0010
0000
1000
0001
0010
0100
1000
0000
0001
0010
0000
0100
,
0001
0000
0010
1000
0001
1000
0010
1000
0001
0100
0001
0010
,
1000
0000
0100
0010
1000
0010
0001
0010
0000
0100
1000
0001
,
0010
0000
1000
0001
1000
0001
0100
0000
0001
0010
0100
0010
,
1001
0000
0010
0100
1000
0001
0110
0001
0000
1000
0000
0100
,
0010
1000
0100
0001
0010
0001
0100
1000
0000
0001
0010
0100
,
1001
0100
0000
0010
1000
0100
0001
0000
0010
0100
0001
1000
,
0100
0001
0000
0010
1000
0001
0100
0010
0000
0100
1000
0001
,
0010
0000
0100
1000
0010
0000
0001
0010
1000
0010
0000
0100
,
1000
0001
0010
0001
0000
0000
0010
0100
0000
1000
0010
0000
,
0001
0100
0000
0010
0001
0000
1000
0010
0000
0001
1000
0000
,
0010
1000
0001
1000
0010
0100
0001
1000
0100
0010
0001
0100
,
1000
0000
0000
0010
1000
0010
0001
0000
0000
1000
0000
0001
,
0100
1000
0001
0010
1000
0001
0100
0000
0000
0000
0000
0000
;

//---------------dance-single - ----------------
#NOTES:
     dance-single:
     :
     Medium:
     4:
     0.282,0.255,0.075,0.052,0.463:
0000
0010
0001
0100
,
0010
0000
0000
0001
0000
0000
0000
0000
0200
0000
0000
0000
,
0000
0300
0000
1000
0001
1000
0011
1000
0010
0001
1000
0001
,
2000
0000
0000
0000
3001
0010
0002
0000
0000
1003
0001
0100
,
0020
0000
0000
0030
1000
0001
0200
0000
0000
0000
0000
0300
,
1000
0000
0001
0010
0000
0000
0001
0000
0010
1000
0000
0001
,
0010
0000
1000
0001
0000
0010
1000
0000
0010
0001
0000
1000
,
0020
0000
0000
1030
0100
0010
0001
0000
1000
0010
0000
0001
,
1000
0000
0010
0001
0000
0010
0200
0000
0300
0010
1000
0010
,
1001
0000
0100
0010
0000
1000
0110
0000
0001
0100
0000
0001
,
0010
0000
1000
0001
0000
0010
0100
0000
1000
0010
0000
0100
,
1001
0000
0100
0010
0000
1000
0110
0000
0001
0100
0000
0001
,
0010
0000
1000
0001
0000
0010
1000
0000
0100
0010
1000
0000
,
0001
0010
0000
1000
0001
0000
0010
1000
0000
0001
0010
0000
,
1000
0010
0000
0001
0100
0000
0010
0001
0000
1000
0010
0000
,
0001
0000
0100
0010
0001
1000
0010
0000
0000
0100
0000
0001
,
0010
0000
0100
1000
0000
0010
0001
0000
0100
0010
0001
0000
,
1100
0000
0010
0001
0000
1000
0011
0000
0010
0100
0001
0000
,
1000
0000
0010
0001
0010
0000
0100
1000
0000
0001
1000
0000
,
0010
1000
0000
0001
0100
0000
1000
0001
0000
0010
0100
0000
,
0001
0010
0000
1000
0001
0000
0010
0000
0010
0100
0001
0010
,
1000
0000
0100
0010
0000
0100
0001
0000
0010
0100
0000
1000
,
0010
0000
1000
0001
0010
0010
0100
0000
0001
0010
0100
0010
,
1001
0000
0010
0100
0000
0001
0110
0000
0001
1000
0000
0100
,
0010
1000
0000
0001
0010
0000
0100
1000
0000
0001
0010
0000
,
1001
0000
0100
0010
0000
1000
0001
0000
0010
0100
0000
0001
,
1000
0000
0001
0010
0000
1000
0001
0000
0010
0100
0000
1000
,
0010
0000
0100
1000
0000
0010
0001
0000
1000
0010
0000
0100
,
1000
0001
0010
0001
0000
0000
0010
0100
0000
1000
0000
0000
,
0001
0100
0000
0010
0001
0000
1000
0010
0000
0001
1000
0000
,
0010
0010
0000
1000
0010
0100
0001
1000
0000
0010
0001
0100
,
1000
0000
0000
0010
1000
0000
0001
0000
0000
1000
0000
0001
,
0100
1000
0000
0010
1000
0000
0100
0000
0000
0000
0000
0000
;

//---------------dance-single - ----------------
#NOTES:
     dance-single:
     :
     Challenge:
     7:
     0.436,0.421,0.381,0.201,0.653:
0001
1000
0010
0100
,
0010
0000
0000
0000
0000
0000
1000
0000
0001
0000
2000
0000
0000
0000
0000
0002
0000
0000
0000
0000
0000
0000
0000
0000
,
3003
0000
0000
1000
0001
1000
0001
0010
0001
0010
0001
1000
,
2002
0000
0000
3003
0000
0000
0000
0000
1000
0000
0010
0000
0220
0000
0000
0330
0000
0000
0100
0000
0001
0000
1000
0000
,
2002
0000
0000
3003
0010
0100
0220
0000
0000
0330
0000
0000
,
0220
0000
0330
0100
0001
1000
0011
0010
0001
1000
0100
1000
,
1100
1000
0010
0100
0010
1000
1001
0001
0010
0011
0001
0001
,
1001
1000
0010
0100
0010
1000
0110
0010
1000
0001
0010
0100
,
0110
0010
0001
0101
0100
0001
1001
0001
0010
0001
0100
0010
,
0210
0000
0000
0301
1000
0100
1100
0000
0000
2010
0000
0000
,
3010
0100
0001
1000
0001
0100
0102
0000
0000
0103
0001
1000
,
1010
0000
0000
0010
0000
0000
0100
0000
0010
0000
1000
0000
1010
0000
0000
0010
0000
0000
0100
0000
0100
0000
0001
0000
,
1000
1000
0100
0010
0100
0010
0012
0000
0000
0013
0001
1000
,
0100
0000
1000
0100
1000
0000
0100
0000
1000
0010
1000
0000
0010
0000
0100
0010
0100
0000
0001
0000
0100
0001
0100
0000
,
0010
0000
0100
0010
0100
0000
0001
0000
0010
0100
0010
0000
0001
0000
1000
0100
1000
0000
0010
0000
1000
0010
1000
0000
,
0200
0000
0000
0000
0000
0000
1300
0000
1000
0000
0010
0000
0200
0000
0000
0010
0000
0000
0310
0000
1000
0000
0001
0000
,
1000
0000
0000
1000
0000
0000
0100
0000
1000
0000
0010
0000
0200
0000
0000
0010
0000
0000
0301
0000
0001
0000
1000
0000
,
2000
0000
0000
0100
0000
0000
3100
0000
1000
0000
0010
0000
0200
0000
0000
0010
0000
0000
0310
0000
0010
0000
1000
0000
,
0002
0000
0000
1000
0000
0000
1003
0000
1000
0000
0010
0000
0200
0000
0000
0010
0000
0000
0310
0000
1000
0000
1000
0000
,
0100
0000
0000
0100
0000
0000
1000
0000
0010
0000
0100
0000
0010
0000
0000
1000
0000
0000
0001
0000
0010
0000
0001
0000
,
1001
0000
0000
1000
0000
0000
1100
0000
1000
0000
0010
0000
0110
0000
0000
0100
0000
0000
0101
0000
0001
0000
1000
0000
,
1100
0000
0000
1000
0000
0000
1001
0000
0001
0000
0010
0000
0011
0000
0000
0001
0000
0000
1001
0000
1000
0000
0100
0000
,
1100
0000
0000
1000
0000
0000
1010
0000
0010
0000
0100
0000
0110
0000
0000
0100
0000
0000
0001
0000
1000
0000
0001
0000
,
0101
0100
0001
0100
0110
0100
0101
0001
1000
1100
1000
0010
,
0110
0100
0110
0100
0001
0100
0110
0000
0100
0001
1000
0100
,
1000
0100
0000
1000
0000
0010
1000
0000
0001
0000
0001
0000
1000
0010
0000
0100
0000
0010
1000
0000
0100
0000
0010
0000
,
0100
0100
1000
0010
0100
0010
1010
1000
0010
0100
0010
0100
,
0001
1000
0000
0001
0000
1000
0001
0000
1000
0000
0100
0000
1000
0100
0000
0100
0000
1000
0010
0000
0100
0000
0010
0000
,
1000
0010
0000
0100
0000
0010
0100
0000
0001
0000
1000
0000
1000
0000
1001
0000
1001
0000
0001
0000
0101
0000
0101
0000
,
0100
0000
0010
0100
0010
0000
0100
0000
0001
0100
0001
0000
0100
0000
0010
0100
0010
0000
1000
0000
0100
1000
0100
0000
,
1001
1010
1010
1000
1000
0001
0011
1001
1010
1000
0010
0100
,
0220
0000
0000
0330
0100
0001
2000
0000
0000
0002
0000
0000
,
0000
3003
0000
0000
;
