#TITLE:Shine;
#ARTIST:Matt Redman;
#BANNER:Shine - Matt Redman.png;
#BACKGROUND:Shine - Matt Redman-bg.png;
#LYRICSPATH:Shine - Matt Redman.lrc;
#CDTITLE:.\CDTITLES\DP2MATT.png;
#MUSIC:Shine - Matt Redman.mp3;
#OFFSET:-3.312;
#SAMPLESTART:46.6;
#SAMPLELENGTH:12;
#BPMS:0=80;
#BGCHANGES:-0.12=Shine - Matt Redman.AVI=1.01=1=1=0,999=-=1=0=0=0;

//---------------dance-single - ----------------
#NOTES:
     dance-single:
     :
     Easy:
     1:
     0.137,0.113,0,0,0:
0000
0000
0000
0000
,
0001
1000
0001
0000
,
1000
0001
1000
0000
,
0001
1000
0001
0000
,
1000
0001
1000
0000
,
0010
0100
0010
0000
,
0001
1000
0001
0000
,
0010
0100
0010
0000
,
1000
0001
1000
0000
,
0010
0100
0010
0000
,
1000
0001
1000
0000
,
0010
0100
0010
0000
,
0010
0100
0010
0000
,
0001
1000
0001
0000
,
1000
0001
1000
0000
,
0010
0100
0010
0000
,
0001
1000
0001
0000
,
0010
0100
0010
0000
,
0001
1000
0001
0000
,
0010
0100
0010
0000
,
1000
0001
1000
0000
,
0010
0100
0010
0000
,
0001
1000
0001
0000
,
0010
0100
0010
0000
,
1000
0001
1000
0000
,
0010
0100
0010
0000
,
0001
1000
0001
0000
,
0010
0100
0010
0000
,
1000
0001
1000
0000
,
0001
1000
0001
0000
,
0010
0100
0010
0000
,
1000
0001
1000
0000
,
0001
1000
0001
0000
,
0010
0100
0010
0000
,
1000
0001
1000
0000
,
0010
0100
0010
0000
,
0001
1000
0001
0000
,
0010
0100
0001
0000
,
1000
0001
1000
0000
,
0001
1000
0001
0000
,
0010
0100
0010
0000
,
1000
0001
1000
0000
,
0001
1000
0001
0000
,
0010
0100
0010
0000
,
1000
0001
1000
0000
,
0010
0100
0010
0000
,
0001
1000
0001
0000
,
1000
0001
1000
0000
,
0010
0100
0000
0000
;

//---------------dance-single - ----------------
#NOTES:
     dance-single:
     :
     Hard:
     6:
     0.321,0.259,0.034,0.027,0.111:
0000
0000
1000
0010
,
0001
1000
0001
0100
,
1000
0000
0000
0000
0001
0000
0000
0000
1000
0000
0000
1000
0010
0000
1000
0001
,
0000
0000
0000
0001
1000
0000
0010
0001
0000
0000
0000
1000
0100
0000
0001
1000
,
0000
0000
0000
1000
0001
0000
0010
1000
0000
0000
0000
0000
0000
0000
0000
0000
,
1000
0010
0001
0100
1000
0010
0001
1000
,
0001
0000
0000
0000
1000
0000
0000
0000
0001
0000
0000
0010
1000
0000
0001
0010
,
0000
0000
0000
1000
0100
0000
0001
0010
0000
0000
0000
1000
0001
0000
0010
1100
,
0000
0000
0000
0010
0101
0000
0010
1000
0000
0000
0000
0000
0100
0000
1000
0000
,
0010
0001
0100
1000
0010
1000
0001
0010
,
1000
0000
0001
0000
1000
0010
0010
1000
,
0010
0001
0100
0001
0010
0000
1000
0001
,
0010
1000
0100
0001
0010
0000
1000
0010
,
0001
0010
1000
0010
0002
0000
2000
0000
,
0000
3003
0000
0000
0010
0000
0000
0000
1000
0000
0010
0000
0001
0000
1000
0000
,
0110
0001
1000
0001
0010
0100
1000
0010
,
0001
0010
1000
0100
0001
0000
1001
0000
,
0010
1000
0100
1000
0010
0001
1000
0000
,
0001
0010
1000
0000
0001
0000
0100
1000
,
0010
0001
0100
0001
0010
0100
0001
0000
,
1000
0010
0001
0000
1000
0100
0001
1000
,
0010
1000
0100
1000
0010
0001
1000
0000
,
0001
0000
0010
0000
1000
0000
0000
0000
0001
0000
0000
0010
1000
0000
0001
0010
,
0000
0000
0000
0001
0100
0000
1000
0010
0000
0000
0000
0001
0100
0000
0001
1000
,
0000
0000
0000
1000
0010
0000
0001
0010
0000
0000
0000
0000
0001
0000
1000
0000
,
0010
0001
0100
1000
0010
0001
1000
0000
,
0001
0000
0000
0000
1000
0000
0000
0000
0001
0000
0000
0010
1000
0000
0001
0010
,
0000
0000
0000
0001
0100
0000
1000
0010
0000
0000
0000
0001
0100
0000
0001
1000
,
0000
0000
0000
0100
0001
0000
0010
1000
0000
0000
0000
0000
0010
0000
1000
0000
,
0001
0010
1000
0010
0001
0100
1000
0000
,
0010
0000
0100
0000
0010
0000
0001
1000
,
0010
1000
0001
0010
1000
0001
0100
0001
,
0010
0100
1000
0010
0001
0100
1000
0001
,
0010
1000
0100
0001
0020
2000
0000
0000
,
0000
3030
0100
0000
0001
0000
0000
0010
1000
0000
0010
0000
0001
0000
0100
0000
,
1010
0001
0100
1000
0010
0001
1000
0000
,
0001
0000
1000
0010
0001
0000
1000
0001
,
0010
1000
0100
1000
0001
1000
0100
0001
,
1000
0010
0001
0010
1000
0001
0010
1000
,
0001
0010
1000
0010
0001
1000
0100
0000
,
0010
1000
0100
0000
0010
1000
0001
0010
,
1000
0010
0001
0100
1000
0001
0010
0000
,
0001
0010
1000
0000
0001
1000
0100
0001
,
0010
1000
0100
0001
0010
1000
0001
0010
,
1000
0010
0001
0010
1000
0000
0100
1000
,
0010
0000
0100
0000
0010
0000
1000
0010
,
0001
0100
1000
0001
1000
0001
0010
0100
,
1000
0010
0001
0000
1000
0010
0001
0000
,
0010
1000
0100
0000
0000
0000
0000
0000
;

//---------------dance-single - ----------------
#NOTES:
     dance-single:
     :
     Medium:
     3:
     0.186,0.178,0.040,0.013,0:
0000
0000
1000
0000
,
0001
1000
0001
0100
,
1000
0001
1000
0010
,
0001
1000
0001
0100
,
1000
0001
1000
0000
,
0010
0100
0010
1000
,
0001
1000
0001
1000
,
0010
0100
0010
0001
,
1100
0011
1000
0100
,
0010
0100
0010
0001
,
1000
0001
1000
0001
,
0010
0100
0010
1000
,
0010
0100
0010
1000
,
0001
1000
0002
0000
,
0003
0010
1000
0001
,
0110
1000
0010
1000
,
0001
1000
0001
1000
,
0010
0100
0010
1000
,
0001
1000
0001
0100
,
0010
0100
0010
0001
,
1000
0001
1000
0001
,
0010
0100
0010
1000
,
0001
1000
0001
1000
,
0010
0100
0010
0100
,
1000
0001
1000
0001
,
0010
0100
0010
1000
,
0001
1000
0001
1000
,
0010
0100
0010
0100
,
1010
0101
1000
0010
,
0001
1000
0001
1000
,
0010
0100
0010
0001
,
0010
0001
1000
0100
,
0010
1000
0001
1000
,
0010
0100
0020
0000
,
0000
0030
0001
0000
1000
0000
0001
0000
,
1010
0100
0010
1000
,
0001
1000
0001
1000
,
0010
0100
0001
0100
,
1000
0001
1000
0010
,
0001
1000
0001
0100
,
0010
0100
0010
0001
,
1000
0001
1000
0010
,
0001
1000
0001
0100
,
0010
0100
0010
0001
,
1000
0001
1000
0100
,
0010
0100
0010
1000
,
0001
1000
0001
0010
,
1000
0001
1000
0001
,
0010
0100
0000
0000
;

//---------------dance-single - ----------------
#NOTES:
     dance-single:
     :
     Challenge:
     6:
     0.331,0.372,0.235,0.067,0.131:
0010
1000
0001
0010
,
0001
0001
1000
0100
,
1000
0000
0000
0000
1000
0000
0000
0000
0010
0000
0000
0100
0010
0000
0100
0001
,
0000
0000
0000
1000
0100
0000
0100
1000
0000
0000
0000
1000
0010
0000
0010
0100
,
0000
0000
0000
0100
0001
0000
0001
1000
0000
0000
0000
0000
0100
0000
0100
0000
,
1000
1000
0010
0010
1000
0001
0001
0010
,
0011
0000
0000
0000
0001
0000
0000
0000
1001
0000
0000
1000
0010
0000
0010
0100
,
0000
0000
0000
0100
0010
0000
0010
1000
0000
0000
0000
1000
0001
0000
0001
0010
,
0000
0000
0000
0010
0001
0000
0001
1000
0000
0000
0000
0000
0100
0000
0010
0000
,
0010
0100
0100
0010
0001
0010
0011
0000
,
0202
0000
0000
0303
0100
0000
0001
1000
,
0100
0000
0100
0000
1000
0010
0100
0000
0000
0000
0000
0000
0010
0000
1000
0000
,
0001
0000
0001
0000
0010
0001
0010
0000
0000
0000
0000
0000
0001
0000
0001
0000
,
1000
0000
0100
0000
1000
0100
1000
0000
0000
0000
0200
0000
0000
0000
0000
0000
,
2000
0000
0000
0000
0000
0000
0000
0000
0000
0000
3300
0000
1000
0010
0100
0000
,
0000
0100
0000
0010
0000
0010
1000
0001
,
0000
0001
0000
0010
0000
0000
0010
0100
,
0010
0010
0000
0001
0000
0001
1000
0100
,
0000
0100
0000
1000
0000
0000
0010
0100
,
0010
0100
0001
1000
1001
0000
1100
0000
,
0010
0010
0001
0000
1000
0010
1000
0100
,
1000
0001
0010
0001
0011
0000
1001
0000
,
0100
0000
1000
0000
1000
0000
0000
0000
0010
0000
0100
0000
0010
0000
1000
0001
,
0000
0000
0000
0001
1000
0000
1000
0100
0000
0000
0000
1000
0010
0000
0010
0100
,
0000
0000
0000
0100
0001
0000
0001
1000
0000
0000
0000
0000
0100
0000
0010
0000
,
0100
0010
0001
0001
0010
0001
0100
0010
,
0110
0000
0000
0000
0100
0000
0000
0000
1001
0000
0000
0000
0100
0000
0100
1000
,
0000
0000
0000
1000
0010
0000
0010
0100
0000
0000
0000
0100
0010
0000
0010
1000
,
0000
0000
0000
1000
0001
0000
0001
0010
0000
0000
0000
0000
0010
0000
0010
0000
,
0001
0001
1000
0100
0010
0010
0100
1000
,
1001
0000
0011
0000
1001
0000
1100
1000
,
0010
0000
0010
0000
1000
0010
0100
0000
0000
0000
0010
0000
1000
0000
1000
0000
,
0001
0000
0010
0000
0001
0010
0001
0000
0000
0000
0100
0000
0010
0000
0100
0000
,
0001
0000
1000
0000
0100
1000
0100
0000
0000
0000
0100
0000
1000
0000
0000
0000
,
1000
0010
0110
0000
0100
0001
1001
1000
,
1100
1000
0010
0100
0110
0100
0001
1000
,
1001
1000
1100
1000
1010
0010
0110
0100
,
0001
1000
1001
1000
0100
1000
0110
0010
,
1000
0100
1001
1000
1100
1000
1010
0010
,
0100
0010
0100
0001
0101
0000
2002
0000
,
0000
0000
3003
0000
0100
1000
0010
0100
,
0110
0010
1010
1000
1001
0000
2200
0000
,
0000
0000
0000
0000
0000
0000
0000
0000
3300
0000
0000
0000
1000
0010
0100
0000
,
0000
0100
0000
0010
0000
0010
1000
0001
,
0000
0000
0001
0000
0000
0000
0010
0000
0000
0000
0000
0000
0010
0100
0010
0000
,
0000
0010
0000
0001
0000
0001
1000
0100
,
0000
0100
0000
1000
0000
0000
1000
0010
,
0100
0010
0100
0001
1001
0000
2200
0000
,
0000
3300
0000
0000
;
