#TITLE:River;
#ARTIST:Out of Eden;
#BANNER:River - Out of Eden.png;
#BACKGROUND:River - Out of Eden-bg.png;
#LYRICSPATH:River - Out of Eden.lrc;
#CDTITLE:.\CDTITLES\DP2EDEN.png;
#MUSIC:River - Out of Eden.mp3;
#OFFSET:-2.909;
#SAMPLESTART:48.8;
#SAMPLELENGTH:12;
#BPMS:0=100;
#BGCHANGES:0=River - Out of Eden.AVI=1=1=1=0,999=-=1=0=0=0;

//---------------dance-single - ----------------
#NOTES:
     dance-single:
     :
     Easy:
     1:
     0.172,0.141,0,0,0.402:
0000
0000
0000
0000
0000
0000
0000
0000
0000
0000
0000
0010
0000
0001
0000
0000
,
1000
0000
0000
0000
0000
0000
0000
0000
0000
0000
0000
1000
0000
0001
0000
0000
,
0010
0000
0000
0000
0000
0000
0000
0000
0000
0000
0000
1000
0000
0010
0000
0000
,
0100
0000
0000
0000
0000
0000
0000
0000
0000
0000
0000
1000
0000
0001
0000
0000
,
1000
0000
0000
0000
0000
0000
0000
0000
0000
0000
0000
0001
0000
1000
0000
0000
,
0010
0000
0000
0000
0000
0000
0000
0000
0000
0000
0000
0001
0000
0010
0000
0000
,
1000
0000
0000
0000
0000
0000
0000
0000
0000
0000
0000
0010
0000
1000
0000
0000
,
0010
0000
0000
0000
0000
0000
0000
0000
0000
0000
0000
0010
0000
0001
0000
0000
,
1000
0000
0000
0000
0000
0000
0000
0000
0000
0000
0000
1000
0000
0010
0000
0000
,
1000
0000
0000
0000
0000
0000
0000
0000
0000
0000
0000
0001
0000
0010
0000
0000
,
0100
0000
0000
0000
0000
0000
0000
0000
0000
0000
0000
0001
0000
1000
0000
0000
,
0001
0000
0000
0000
0000
0000
0000
0000
0000
0000
0000
0010
0000
0001
0000
0000
,
1000
0000
0000
0000
0000
0000
0000
0000
0000
0000
0000
0010
0000
1000
0000
0000
,
0001
0000
0000
0000
0000
0000
0000
0000
0000
0000
0000
0001
0000
1000
0000
0000
,
0001
0000
0000
0000
0000
0000
0000
0000
0000
0000
0000
1000
0000
0001
0000
0000
,
1000
0000
0000
0000
0000
0000
0000
0000
0000
0000
0000
0001
0000
1000
0000
0000
,
0010
0000
0000
0000
0000
0000
0000
0000
0000
0000
0000
1000
0000
0001
0000
0000
,
0100
0000
0000
0000
0000
0000
0000
0000
0000
0000
0000
0010
0000
0010
0000
0000
,
0010
0000
0000
0000
0000
0000
0000
0000
0000
0000
0000
1000
0000
1000
0000
0000
,
1000
0000
0000
0000
0000
0000
0000
0000
0000
0000
0000
0001
0000
0001
0000
0000
,
0001
0000
0000
0000
0000
0000
0000
0000
0000
0000
0000
1000
0000
0010
0000
0000
,
1000
0000
0000
0000
0000
0000
0000
0000
0000
0000
0000
0001
0000
0010
0000
0000
,
1000
0000
0000
0000
0000
0000
0000
0000
0000
0000
0000
1000
0000
0010
0000
0000
,
1000
0000
0000
0000
0000
0000
0000
0000
0000
0000
0000
0001
0000
1000
0000
0000
,
0001
0000
0000
0000
0000
0000
0000
0000
0000
0000
0000
0010
0000
0001
0000
0000
,
0100
0000
0000
0000
0000
0000
0000
0000
0000
0000
0000
0010
0000
1000
0000
0000
,
0001
0000
0000
0000
0000
0000
0000
0000
0000
0000
0000
0001
0000
1000
0000
0000
,
0100
0000
0000
0000
0000
0000
0000
0000
0000
0000
0000
1000
0000
0010
0000
0000
,
1000
0000
0000
0000
0000
0000
0000
0000
0000
0000
0000
0010
0000
0001
0000
0000
,
1000
0000
0000
0000
0000
0000
0000
0000
0000
0000
0000
1000
0000
0001
0000
0000
,
0010
0000
0000
0000
0000
0000
0000
0000
0000
0000
0000
0001
0000
1000
0000
0000
,
0001
0000
0000
0000
0000
0000
0000
0000
0000
0000
0000
0010
0000
0001
0000
0000
,
1000
0000
0000
0000
0000
0000
0000
0000
0000
0000
0000
1000
0000
0010
0000
0000
,
1000
0000
0000
0000
0000
0000
0000
0000
0000
0000
0000
0001
0000
0010
0000
0000
,
1000
0000
0000
0000
0000
0000
0000
0000
0000
0000
0000
0010
0000
1000
0000
0000
,
0001
0000
0000
0000
0000
0000
0000
0000
0000
0000
0000
1000
0000
0001
0000
0000
,
0100
0000
0000
0000
0000
0000
0000
0000
0000
0000
0000
0001
0000
0010
0000
0000
,
1000
0000
0000
0000
0000
0000
0000
0000
0000
0000
0000
0010
0000
1000
0000
0000
,
0001
0000
0000
0000
0000
0000
0000
0000
0000
0000
0000
0001
0000
1000
0000
0000
,
0001
0000
0000
0000
0000
0000
0000
0000
0000
0000
0000
0010
0000
0001
0000
0000
,
0100
0000
0000
0000
0000
0000
0000
0000
0000
0000
0000
1000
0000
0010
0000
0000
,
1000
0000
0000
0000
0000
0000
0000
0000
0000
0000
0000
0010
0000
1000
0000
0000
,
0010
0000
0000
0000
0000
0000
0000
0000
0000
0000
0000
1000
0000
0001
0000
0000
,
1000
0000
0000
0000
0000
0000
0000
0000
0000
0000
0000
0010
0000
0010
0000
0000
,
0010
0000
0000
0000
0000
0000
0000
0000
0000
0000
0000
0001
0000
1000
0000
0000
,
0001
0000
0000
0000
0000
0000
0000
0000
0000
0000
0000
0010
0000
0001
0000
0000
,
1000
0000
0000
0000
0000
0000
0000
0000
0000
0000
0000
0001
0000
0010
0000
0000
,
1000
0000
0000
0000
0000
0000
0000
0000
0000
0000
0000
1000
0000
0001
0000
0000
,
1000
0000
0000
0000
0000
0000
0000
0000
0000
0000
0000
0010
0000
1000
0000
0000
,
0001
0000
0000
0000
0000
0000
0000
0000
0000
0000
0000
0001
0000
0001
0000
0000
,
0001
0000
0000
0000
0000
0000
0000
0000
0000
0000
0000
0010
0000
0010
0000
0000
,
0010
0000
0000
0000
0000
0000
0000
0000
0000
0000
0000
0001
0000
0001
0000
0000
,
0001
0000
0000
0000
0000
0000
0000
0000
0000
0000
0000
0010
0000
1000
0000
0000
,
0001
0000
0000
0000
0000
0000
0000
0000
0000
0000
0000
0001
0000
1000
0000
0000
,
0010
0000
0000
0000
0000
0000
0000
0000
0000
0000
0000
1000
0000
0001
0000
0000
,
0010
0000
0000
0000
0000
0000
0000
0000
0000
0000
0000
0010
0000
1000
0000
0000
,
0001
0000
0000
0000
0000
0000
0000
0000
0000
0000
0000
1000
0000
0010
0000
0000
,
1000
0000
0000
0000
0000
0000
0000
0000
0000
0000
0000
0010
0000
1000
0000
0000
,
0001
0000
0000
0000
0000
0000
0000
0000
0000
0000
0000
0001
0000
1000
0000
0000
,
0010
0000
0000
0000
0000
0000
0000
0000
0000
0000
0000
1000
0000
0001
0000
0000
,
1000
0000
0000
0000
;

//---------------dance-single - ----------------
#NOTES:
     dance-single:
     :
     Hard:
     8:
     0.410,0.344,0.416,0,0.610:
0000
0000
0000
0000
0000
0000
0000
0000
0000
0000
0000
0100
0000
0001
0000
1000
,
0010
0000
0001
0000
1010
0000
0000
0000
0000
0000
0000
0001
0000
0010
0000
0000
,
1000
0000
0001
0000
0110
0000
0000
1000
0000
0001
0000
0100
0000
0010
0000
0000
,
1001
0000
0010
0000
0101
0000
0000
0000
0000
0000
0000
0100
0000
0010
0000
0001
,
1000
0000
0001
0000
1010
0000
0000
0000
0000
0000
0000
0100
0000
0010
0000
1000
,
0001
0000
1000
0000
0110
0000
0000
0000
0000
0000
0000
0100
0000
0010
0000
0000
,
0001
0000
0010
0000
1100
0000
0000
1000
0000
0001
0000
0100
0000
0010
0000
0000
,
0010
0000
1000
0000
0011
0000
0000
0000
0000
0000
0000
0100
0000
0001
0000
1000
,
0010
0000
0001
0000
1010
0000
0000
0000
0000
0000
0000
0100
0000
0010
0000
0001
,
1000
0000
0010
0000
1001
0000
0000
0000
0000
0000
0000
0100
0000
0010
0000
0000
,
0001
0000
0010
0000
0101
0000
0000
1000
0000
0001
0000
0100
0000
0010
0000
0000
,
0001
0000
1000
0000
0011
0000
0000
0000
0000
0000
0000
0100
0000
0001
0000
1000
,
0010
0000
0001
0000
1100
0000
0000
0000
0000
0000
0000
0100
0000
1000
0000
0100
,
0010
0000
1000
0000
0101
0000
0000
0000
0000
0000
0000
0100
0000
0010
0000
1000
,
0001
0000
0100
0000
1001
0000
0000
1000
0000
0001
0000
0100
0000
0010
0000
0000
,
1000
0000
0001
0000
1010
0000
0000
0000
0000
0000
0000
0100
0000
0010
0000
1000
,
0001
0000
1000
0000
0011
0000
0000
0000
0000
0000
0000
0100
0000
0010
0000
0001
,
1000
0000
0001
0000
1100
0000
0000
0000
0000
0000
0000
0100
0000
0010
0000
0000
,
0010
0000
0010
0000
0101
0000
0000
1000
0000
0001
0000
0100
0000
0000
0010
0000
,
1000
0000
1000
0000
0100
0000
0010
0000
0010
0000
0000
0100
0000
0010
0000
1000
,
0001
0000
0001
0000
0110
0000
0000
0000
0000
0000
0000
0100
0000
0010
0000
0001
,
1000
0000
0010
0000
1100
0000
0000
0000
0000
0000
0000
0100
0000
0010
0000
0000
,
1001
0000
0010
0000
1001
0000
0000
1000
0000
0001
0000
0100
0000
0010
0000
0000
,
1000
0000
0010
0000
1100
0000
0000
0000
0000
0000
0000
0100
0000
0010
0000
1000
,
0001
0000
1000
0000
0101
0000
0000
0000
0000
0000
0000
0100
0000
0010
0000
1000
,
0010
0000
0001
0000
1100
0000
0000
0000
0000
0000
0000
0100
0000
0010
0000
1000
,
0010
0000
1000
0000
0101
0000
0000
1000
0000
0001
0000
0100
0000
0010
0000
0000
,
0001
0000
1000
0000
0101
0000
0000
0000
0000
0000
0000
0100
0000
0010
0000
0001
,
1000
0000
0010
0000
1100
0000
0000
0000
0000
0000
0000
0100
0000
0010
0000
1000
,
0010
0000
0001
0000
1010
0000
0000
0000
0000
0000
0000
0100
0000
0010
0000
0001
,
1000
0000
0001
0000
0110
0000
0000
1000
0000
0001
0000
0100
0000
0010
0000
0000
,
0001
0000
1000
0000
0101
0000
0000
0000
0000
0000
0000
0100
0000
0010
0000
0001
,
0100
0000
0001
0000
1010
0000
0000
0000
0000
0000
0000
0100
0000
0010
0000
0001
,
1000
0000
0010
0000
1001
0000
0000
0000
0000
0000
0000
0100
0000
0010
0000
1000
,
0001
0000
0010
0000
1100
0000
0000
1000
0000
0001
0000
0100
0000
0010
0000
0000
,
0010
0000
1000
0000
0011
0000
0000
0000
0000
0000
0000
0100
0000
0010
0000
0001
,
1000
0000
0001
0000
1100
0000
0000
0000
0000
0000
0000
0100
0000
0010
0000
0001
,
1000
0000
0010
0000
1100
0000
0000
0000
0000
0000
0000
0100
0000
0010
0000
0000
,
1001
0000
1000
0000
0101
0000
0000
1000
0000
0001
0000
0100
0000
0010
0000
0000
,
0001
0000
1000
0000
0011
0000
0000
0000
0000
0000
0000
0100
0000
0010
0000
0001
,
0100
0000
0001
0000
1100
0000
0000
0000
0000
0000
0000
0100
0000
0010
0000
0001
,
1000
0000
0010
0000
1001
0000
0000
0000
0000
0000
0000
0100
0000
0010
0000
1000
,
0001
0000
1000
0000
0011
0000
0000
1000
0000
0001
0000
0100
0000
0010
0000
0000
,
1000
0000
0001
0000
1010
0000
0000
0000
0000
0000
0000
0100
0000
0010
0000
1000
,
0010
0000
0010
0000
0101
0000
0000
0000
0000
0000
0000
0100
0000
0010
0000
1000
,
0001
0000
1000
0000
0101
0000
0000
0000
0001
0000
0000
0100
0000
0010
0000
0010
,
1000
0000
0001
0000
1100
0000
0000
1000
0000
0001
0000
0100
0000
0010
0000
0000
,
0001
0000
0010
0000
1001
0000
0000
0000
0000
0000
0000
0100
0000
0010
0000
0001
,
1000
0001
1100
0000
0000
0000
0000
0000
,
0010
0000
1000
0000
0011
0000
0000
0000
0000
0000
0000
0100
0000
0010
0000
0000
,
0001
0000
0001
0000
1001
0000
0000
1000
0000
0001
0000
0100
0000
0010
0000
0000
,
0010
0000
0010
0000
0110
0000
0000
0000
0000
0000
0000
0100
0000
0010
0000
1000
,
0001
0000
0001
0000
0011
0000
0000
0000
0000
0000
0000
0100
0000
0010
0000
1000
,
0010
0000
1000
0000
0101
0000
0000
0000
0000
0000
0000
0100
0000
0010
0000
0000
,
0001
0000
1000
0000
0011
0000
0000
1000
0000
0001
0000
0100
0000
0010
0000
0000
,
1000
0000
0001
0000
0110
0000
0000
0000
0000
0000
0000
0100
0000
0010
0000
1000
,
0010
0000
1000
0000
0011
0000
0000
0000
0000
0000
0000
0100
0000
0010
0000
0001
,
1000
0000
0010
0000
1100
0000
0000
0000
0000
0000
0000
0100
0000
0010
0000
0000
,
0010
0000
1000
0000
0101
0000
0000
1000
0000
0001
0000
0100
0000
0010
0000
0000
,
0001
0000
1000
0000
0011
0000
0000
0000
0000
0000
0000
0100
0000
0010
0000
0001
,
1000
0001
1100
0000
0000
0000
0000
0000
;

//---------------dance-single - ----------------
#NOTES:
     dance-single:
     :
     Medium:
     5:
     0.343,0.283,0.402,0,0.396:
0000
0000
0000
0000
0000
0000
0000
0000
0000
0000
0000
0100
0000
1000
0000
0000
,
0010
0000
0001
0000
1010
0000
0000
0000
0000
0000
0000
1000
0000
0001
0000
0000
,
1000
0000
0001
0000
0110
0000
0000
0000
0000
0000
0000
0100
0000
0010
0000
0000
,
1001
0000
0010
0000
0101
0000
0000
0000
0000
0000
0000
0100
0000
0010
0000
0000
,
1000
0000
0001
0000
1010
0000
0000
0000
0000
0000
0000
0100
0000
0010
0000
0000
,
0001
0000
1000
0000
0110
0000
0000
0000
0000
0000
0000
0100
0000
0010
0000
0000
,
0001
0000
0010
0000
1100
0000
0000
0000
0000
0000
0000
0100
0000
0010
0000
0000
,
0010
0000
1000
0000
0011
0000
0000
0000
0000
0000
0000
0100
0000
0001
0000
0000
,
0010
0000
0001
0000
1010
0000
0000
0000
0000
0000
0000
0100
0000
0010
0000
0000
,
1000
0000
0010
0000
1001
0000
0000
0000
0000
0000
0000
0100
0000
0010
0000
0000
,
0001
0000
0010
0000
0101
0000
0000
0000
0000
0000
0000
0100
0000
0010
0000
0000
,
0001
0000
1000
0000
0011
0000
0000
0000
0000
0000
0000
0100
0000
0001
0000
0000
,
0010
0000
0001
0000
1100
0000
0000
0000
0000
0000
0000
0100
0000
1000
0000
0000
,
0010
0000
1000
0000
0101
0000
0000
0000
0000
0000
0000
0100
0000
0010
0000
0000
,
0001
0000
0100
0000
1001
0000
0000
0000
0000
0000
0000
0100
0000
0010
0000
0000
,
1000
0000
0001
0000
1010
0000
0000
0000
0000
0000
0000
0100
0000
0010
0000
0000
,
0001
0000
1000
0000
0011
0000
0000
0000
0000
0000
0000
0100
0000
0010
0000
0000
,
1000
0000
0001
0000
1100
0000
0000
0000
0000
0000
0000
0100
0000
0010
0000
0000
,
0010
0000
0010
0000
0101
0000
0000
0000
0000
0000
0000
0100
0000
0010
0000
0000
,
1000
0000
1000
0000
0110
0000
0000
0000
0000
0000
0000
0100
0000
0010
0000
0000
,
0001
0000
0001
0000
0110
0000
0000
0000
0000
0000
0000
0100
0000
0010
0000
0000
,
1000
0000
0010
0000
1100
0000
0000
0000
0000
0000
0000
0100
0000
0010
0000
0000
,
0001
0000
0010
0000
1001
0000
0000
0000
0000
0000
0000
0100
0000
0010
0000
0000
,
1000
0000
0010
0000
1100
0000
0000
0000
0000
0000
0000
0100
0000
0010
0000
0000
,
0001
0000
1000
0000
0101
0000
0000
0000
0000
0000
0000
0100
0000
0010
0000
0000
,
0010
0000
0001
0000
1100
0000
0000
0000
0000
0000
0000
0100
0000
0010
0000
0000
,
0010
0000
1000
0000
0101
0000
0000
0000
0000
0000
0000
0100
0000
0010
0000
0000
,
0001
0000
1000
0000
0101
0000
0000
0000
0000
0000
0000
0100
0000
0010
0000
0000
,
1000
0000
0010
0000
1100
0000
0000
0000
0000
0000
0000
0100
0000
0010
0000
0000
,
0010
0000
0001
0000
1010
0000
0000
0000
0000
0000
0000
0100
0000
0010
0000
0000
,
1000
0000
0001
0000
0110
0000
0000
0000
0000
0000
0000
0100
0000
0010
0000
0000
,
0001
0000
1000
0000
0101
0000
0000
0000
0000
0000
0000
0100
0000
0010
0000
0000
,
0100
0000
0001
0000
1010
0000
0000
0000
0000
0000
0000
0100
0000
0010
0000
0000
,
1000
0000
0010
0000
1001
0000
0000
0000
0000
0000
0000
0100
0000
0010
0000
0000
,
0001
0000
0010
0000
1100
0000
0000
0000
0000
0000
0000
0100
0000
0010
0000
0000
,
0010
0000
1000
0000
0011
0000
0000
0000
0000
0000
0000
0100
0000
0010
0000
0000
,
1000
0000
0001
0000
1100
0000
0000
0000
0000
0000
0000
0100
0000
0010
0000
0000
,
0001
0000
0010
0000
1100
0000
0000
0000
0000
0000
0000
0100
0000
0010
0000
0000
,
0001
0000
1000
0000
0101
0000
0000
0000
0000
0000
0000
0100
0000
0010
0000
0000
,
0001
0000
1000
0000
0011
0000
0000
0000
0000
0000
0000
0100
0000
0010
0000
0000
,
0100
0000
0001
0000
1100
0000
0000
0000
0000
0000
0000
0100
0000
0010
0000
0000
,
1000
0000
0010
0000
1001
0000
0000
0000
0000
0000
0000
0100
0000
0010
0000
0000
,
0001
0000
1000
0000
0011
0000
0000
0000
0000
0000
0000
0100
0000
0010
0000
0000
,
1000
0000
0001
0000
1010
0000
0000
0000
0000
0000
0000
0100
0000
0010
0000
0000
,
0010
0000
0010
0000
0101
0000
0000
0000
0000
0000
0000
0100
0000
0010
0000
0000
,
0001
0000
1000
0000
0101
0000
0000
0000
0000
0000
0000
0100
0000
0010
0000
0000
,
0010
0000
0001
0000
1100
0000
0000
0000
0000
0000
0000
0100
0000
0010
0000
0000
,
0001
0000
0010
0000
1001
0000
0000
0000
0000
0000
0000
0100
0000
0010
0000
0000
,
1000
0001
1100
0000
0000
0000
0000
0000
,
0010
0000
1000
0000
0011
0000
0000
0000
0000
0000
0000
0100
0000
0010
0000
0000
,
0001
0000
0001
0000
1001
0000
0000
0000
0000
0000
0000
0100
0000
0010
0000
0000
,
0010
0000
0010
0000
0110
0000
0000
0000
0000
0000
0000
0100
0000
0010
0000
0000
,
0001
0000
0001
0000
0011
0000
0000
0000
0000
0000
0000
0100
0000
0010
0000
0000
,
0010
0000
1000
0000
0101
0000
0000
0000
0000
0000
0000
0100
0000
0010
0000
0000
,
0001
0000
1000
0000
0011
0000
0000
0000
0000
0000
0000
0100
0000
0010
0000
0000
,
1000
0000
0001
0000
0110
0000
0000
0000
0000
0000
0000
0100
0000
0010
0000
0000
,
0010
0000
1000
0000
0011
0000
0000
0000
0000
0000
0000
0100
0000
0010
0000
0000
,
1000
0000
0010
0000
1100
0000
0000
0000
0000
0000
0000
0100
0000
0010
0000
0000
,
0010
0000
1000
0000
0101
0000
0000
0000
0000
0000
0000
0100
0000
0010
0000
0000
,
0001
0000
1000
0000
0011
0000
0000
0000
0000
0000
0000
0100
0000
0010
0000
0000
,
1000
0001
0100
0000
0000
0000
0000
0000
;

//---------------dance-single - ----------------
#NOTES:
     dance-single:
     :
     Challenge:
     8:
     0.483,0.527,0.268,0.322,0.362:
0000
0000
1000
0000
0001
0000
0010
0010
,
0001
1000
1001
0000
1000
0000
0010
0010
,
0100
0000
0010
0000
1010
0000
0000
0010
0000
1000
0000
0010
0000
1000
0000
0000
,
0010
0010
0110
0000
0100
0000
0001
0001
,
1000
0001
0011
0010
0010
0000
0001
0000
,
1000
0000
0100
0100
1000
0010
0100
0110
,
0010
0000
0010
0000
1000
0000
1000
0001
0000
0010
0000
0001
0000
0001
0000
0000
,
1000
1000
0100
1000
2020
3030
0220
0330
,
0010
1000
0001
0001
0022
0033
0022
0033
,
1000
1000
0010
0010
0100
0010
1000
2002
,
0000
0000
0000
0000
3003
0000
0000
0100
0000
1000
0000
0010
0000
1000
0000
0000
,
0010
0010
0200
0000
0320
0000
2030
0000
,
3002
0003
0001
0010
0000
0010
0001
0001
,
1000
1000
0100
1000
0010
0010
0100
0010
,
1000
0000
1000
0000
0001
0000
0000
1000
0000
1000
0000
0100
0000
0100
0000
0000
,
2000
0000
0020
3000
0200
0030
0002
0300
,
2000
3003
1000
0010
0000
0010
0100
0100
,
0010
0010
1000
0001
1000
0100
0100
2000
,
0000
0000
3000
0000
1000
0000
0000
0010
0000
0010
0000
0100
0000
0100
0000
0000
,
1001
0000
1000
0100
1000
0000
1000
0100
0000
0000
0000
1000
0000
0010
0000
0000
,
0110
0000
0010
1000
0010
0000
0010
1000
0000
0000
0000
0010
0000
0100
0000
0000
,
0101
0000
0001
0100
0001
0000
0100
0001
0000
0000
0000
0100
0000
0010
0000
0000
,
0110
0000
0010
0100
0010
0000
0100
0010
0000
1000
0000
0100
0000
1000
0000
0000
,
1100
0000
1000
0010
0100
0000
0010
1000
0000
0000
0000
0001
0000
0001
0000
0000
,
0101
0000
0100
0001
0100
0000
0001
0010
0000
0000
0000
0000
0100
0000
0010
0000
,
1001
0000
0100
0010
0100
0000
0001
0100
0000
0000
0000
0001
0000
1000
0000
0000
,
1001
0000
1000
0100
1000
0000
0010
0000
0010
0000
0100
0000
0010
0000
0000
0000
,
2020
3030
2200
3300
2002
3003
0220
0330
,
0020
0000
0000
0000
2030
0000
0002
0000
3000
0003
0001
0000
0010
0000
0010
0000
,
0001
0001
1000
0000
0100
0000
1000
0010
,
0010
0100
0100
0000
0010
0010
1000
1000
,
0001
1000
0100
0100
2000
0000
0002
3003
,
0100
0100
0010
0010
2000
0000
0002
3003
,
0010
0010
0001
0001
1000
1000
0100
1000
,
0010
0000
0010
0000
0100
0000
0000
0010
0000
1000
0000
0001
0000
0001
0000
0000
,
1000
0100
0100
1000
0020
0000
0200
0330
,
0001
0001
1000
0100
2000
0000
0002
3003
,
0100
0100
0010
0010
0100
0001
1000
0200
,
0000
0000
0000
0000
1300
0000
0000
1000
0000
0010
0000
0010
0000
0100
0000
0000
,
0010
0010
1000
1000
,
0001
0000
0001
0010
0000
0010
0001
0001
,
1000
0100
1000
0001
0010
0001
1000
1001
,
0000
0000
1000
0000
0010
0010
0100
0100
,
0001
0000
2000
0000
0002
3000
0020
0003
,
0002
0000
0030
0000
2000
0003
0200
0000
3300
0000
0100
0000
1000
0000
0010
0000
,
0010
0100
0010
1000
0001
0010
0001
0011
,
0000
0000
1001
0000
0001
0100
0100
0010
,
0110
0000
0100
0001
0100
0000
0100
0001
0000
0000
0000
0100
0000
0010
0000
0000
,
1001
0000
1000
0100
1000
0000
1000
0100
0000
0000
0000
1000
0000
0001
0000
0000
,
0011
0000
0010
0001
0010
0000
0001
0010
0000
0000
0000
0001
0000
1000
0000
0000
,
1001
0000
1000
0001
1000
0000
0001
1000
0000
0100
0000
1000
0000
0001
0000
0000
,
0101
0000
0001
1000
0001
0000
1000
0100
0000
0000
0000
0010
0000
0010
0000
0000
,
0011
0000
0001
0010
0001
0000
1000
0010
0000
0000
0000
0000
0001
0000
1000
0000
,
0110
0000
0001
1000
0001
0000
0010
0001
0000
0000
0000
0010
0000
0100
0000
0000
,
0110
0000
0000
0000
0000
0000
0000
0000
0000
0000
0000
0000
0000
0000
0000
0000
0000
0000
0000
0000
0000
0000
0000
0000
0100
0000
0000
0000
0000
0000
0000
0000
0000
0000
0000
0000
0001
0000
0000
0000
0000
0000
0000
0000
0000
0000
0000
0000
0100
0000
0000
0000
0000
0000
0000
0000
0000
0000
0000
0000
0000
0000
0000
0000
0000
0000
0000
0000
0000
0000
0000
0000
1000
0000
0000
0000
0000
0000
0000
0000
0000
0000
0000
0000
0000
0000
0000
0000
0000
0000
0000
0000
0000
0000
0000
0000
1000
0000
0000
0000
0000
0000
0000
0000
0000
0000
0000
0000
0000
0000
0000
0000
0000
0000
0000
0000
0000
0000
0000
0000
0001
0000
0000
0000
0000
0000
0000
0000
0000
0000
0000
0000
0000
0000
0000
0000
0000
0000
0000
0000
0000
0000
0000
0000
0210
0020
0000
0000
0000
0000
0000
0000
0000
0000
0000
0000
0000
0000
0000
0000
0000
0000
0000
0000
0000
0000
0000
0000
0000
0000
0000
0000
0000
0000
0000
0000
0000
0000
0000
0000
0330
0000
0000
0000
0000
0000
0000
0000
0000
0000
0000
0000
,
0110
0000
0010
1000
0010
0000
0010
1000
0000
0000
0000
0010
0000
1000
0000
0000
,
1001
0000
0001
0010
0001
0000
0001
0010
0000
0000
0000
0001
0000
1000
0000
0000
,
1100
0000
0100
1000
0100
0000
1000
0100
0000
0000
0000
1000
0000
0001
0000
0000
,
1001
0000
0001
1000
0001
0000
1000
0001
0000
0010
0000
0001
0000
0010
0000
0000
,
0011
0000
0010
0001
1000
0000
0001
0010
0000
0000
0000
0100
0000
0100
0000
0000
,
1100
0000
1000
0100
1000
0000
0100
1000
0000
0000
0000
0000
0000
0000
0000
0000
;
