#TITLE:Open the Eyes of My Heart;
#ARTIST:Sonicflood;
#BANNER:Open the Eyes of My Heart - Sonic Flood.png;
#BACKGROUND:Open the Eyes of My Heart - Sonic Flood-bg.png;
#LYRICSPATH:Open the Eyes of My Heart - Sonic Flood.lrc;
#CDTITLE:.\CDTITLES\DP2SONIC.png;
#MUSIC:Open the Eyes of My Heart - Sonic Flood.mp3;
#OFFSET:-3.055;
#SAMPLESTART:33.0;
#SAMPLELENGTH:12;
#BPMS:0=117.97;
#BGCHANGES:0.15=Open the Eyes of My Heart - Sonic Flood1.AVI=1=1=1=0,123=Open the Eyes of My Heart - Sonic Flood2.AVI=1=1=1=0,999=-=1=0=0=0;

//---------------dance-single - ----------------
#NOTES:
     dance-single:
     :
     Easy:
     2:
     0.171,0.216,0.027,0.075,0:
0000
0000
0001
1000
,
0001
0000
1000
0001
,
1000
0000
0001
1000
,
0001
0000
0010
0100
,
0010
0000
1000
0001
,
1000
0000
0001
1000
,
0001
0000
1100
0011
,
0000
0001
1000
0001
,
2000
3000
0010
0100
,
0000
1000
0001
1000
,
0000
0010
0100
0010
,
0000
0000
1000
0010
,
0000
0010
0001
0010
,
0000
0000
1000
0100
,
0000
0000
0001
0100
,
0000
0001
0010
1000
,
0002
0003
0010
0001
,
0000
0001
0100
1000
,
0000
0001
0100
0001
,
0000
0000
1000
0001
,
0000
0001
1000
0001
,
0000
0000
0010
1001
,
0000
0110
0000
0000
0001
0000
1000
0000
,
0000
0010
0100
0020
,
0030
1000
0100
0000
,
0000
1000
0001
0000
,
0000
0001
1000
0000
,
0000
0010
0010
0002
,
0003
1000
0001
0010
,
0000
0010
0000
0010
,
2000
0000
3000
0002
,
0000
0000
0000
0000
,
0000
0000
0000
0000
,
0000
0000
0000
0000
,
0000
0003
0000
0010
,
0001
0000
0000
0100
,
0020
0030
0000
1000
,
0001
0000
1000
0010
,
0100
0000
0000
0010
,
1000
0000
0000
0010
,
0001
1000
0000
0010
,
0100
0000
0000
1000
,
0001
0000
0000
0010
,
1000
0001
0000
0010
,
0020
0000
0030
0001
,
0100
1000
0000
1000
,
0010
0000
0000
0010
,
0001
0000
0000
1000
,
0100
0000
0000
0010
,
0001
0000
0000
0100
,
0010
0000
0000
1000
,
0001
0000
1000
0020
,
0000
0030
0000
1000
,
0010
0000
0001
1000
,
0001
0000
0000
1000
,
0100
0000
0000
0001
,
0010
0000
0000
0010
,
0000
0010
0000
0010
,
2000
0000
3000
0010
,
0001
0000
0000
0010
,
1000
0000
0000
0100
,
0010
0000
0001
1000
,
0001
0000
0000
0010
,
1000
0000
0000
0001
,
0010
0000
0000
0010
,
0000
0010
0000
0010
,
2000
0000
3000
0001
,
0010
0000
0000
0010
,
1000
0000
0000
0001
,
0010
0000
0000
0100
,
0010
0000
0000
0000
;

//---------------dance-single - ----------------
#NOTES:
     dance-single:
     :
     Hard:
     6:
     0.290,0.311,0.294,0.198,0:
0000
0000
0101
0010
,
1001
0000
1100
0001
,
1010
0000
0011
1000
,
0101
0000
0011
0100
,
1010
0000
1010
0001
,
1100
0000
1001
0100
,
0011
0000
1100
0011
,
0010
1001
0100
0011
,
2000
0000
3010
0101
,
0010
1001
0001
2200
,
3300
0000
0010
0000
0100
1000
0002
0000
,
0000
0023
0000
0000
,
0030
0000
0010
0000
0001
0010
2000
0000
,
0000
3020
0000
0000
,
0030
1010
0001
1100
,
0010
1001
0010
1100
,
0002
0000
0000
0003
0010
0000
0101
0000
,
0010
1001
0100
1010
,
0000
0000
0001
0000
0100
0010
0002
0000
,
0000
0023
0000
0000
,
0030
0000
0001
0000
1000
0100
0002
0000
,
0000
0003
0020
0000
0000
0030
1001
0000
,
0000
0110
0000
0000
1001
0000
1000
0000
,
0001
0010
0100
0020
,
0000
0030
1000
0000
0100
0000
0001
1000
,
0010
0001
1000
0010
0001
0010
1000
0000
,
0010
0001
1000
0010
,
1000
0010
0010
0002
,
0000
1003
0001
0010
,
1000
0010
1000
0010
,
2000
0000
0000
3002
,
0000
0000
0000
0000
,
0000
0000
0000
0000
,
0000
0000
0000
0000
,
0000
0000
0003
1010
,
0001
1001
0010
0101
,
0020
0000
0030
1100
,
0001
1001
0100
1010
,
0100
0000
1000
0000
0001
1000
0002
0000
,
0000
0000
0023
0000
0000
0000
0000
0030
,
0001
1000
1010
0002
,
0000
0000
0023
0000
0000
0000
0000
0030
,
0001
1100
0000
0000
0000
0000
0011
0000
,
0100
1001
0100
1010
,
0020
0000
0030
0011
,
0100
1001
0010
1001
,
0000
0000
0001
0000
1000
0100
0002
0000
,
0000
0003
0020
0000
0000
0000
0000
0030
,
0100
0000
0001
0000
1000
0100
0002
0000
,
0000
0003
0020
0000
0000
0030
1000
0000
,
0100
0010
0001
1000
,
0001
0010
1000
0020
,
0000
0000
1030
0000
0001
0000
1000
0001
,
0010
0001
1000
0010
0001
0100
1000
0000
,
0001
0000
0000
1000
,
0100
1000
0010
0001
,
0010
1000
0001
0010
,
1000
0010
1000
0010
,
2000
0000
3000
0010
,
0001
1000
0001
0010
,
1000
0000
0010
0000
0001
0000
0100
1000
,
0010
0001
1000
0010
0001
0000
1000
0000
,
0001
0000
0000
0010
,
1000
0010
1000
0001
,
0010
1000
0001
0010
,
1000
0010
1000
0010
,
2000
0000
0000
0000
0000
3000
0010
0000
,
1000
0010
1000
0010
,
1000
0000
0000
0010
,
1000
0010
1000
0010
,
1000
0000
0000
0000
;

//---------------dance-single - ----------------
#NOTES:
     dance-single:
     :
     Medium:
     4:
     0.228,0.264,0.171,0.130,0:
0001
0000
0001
1010
,
0001
0000
1000
0011
,
1000
0000
0001
1010
,
0001
0000
0010
0101
,
0010
0000
1000
0011
,
1000
0000
0001
1100
,
0001
0000
1100
0011
,
0010
1001
0100
0001
,
2000
0000
0000
3000
0010
0000
0101
0000
,
0010
1001
0001
1000
,
0000
0010
0100
0001
,
0000
0000
0020
0000
0000
0000
0000
0030
,
0000
0010
0001
1000
,
0000
0020
0000
0000
,
0030
0000
0001
1100
,
0010
1001
0010
1000
,
0002
0000
0000
0003
0010
0000
0101
0000
,
0010
1001
0100
1000
,
0000
0001
0100
0001
,
0000
0020
0000
0000
,
0030
0001
1000
0001
,
0000
0020
0030
1001
,
0000
0110
0000
0000
0001
0000
1000
0000
,
0000
0010
0100
0020
,
0000
0030
1000
0000
0100
0000
0001
0000
,
0000
1000
0001
1000
,
0000
0001
1000
0010
,
0000
0010
0010
0002
,
0000
0003
1000
0000
0001
0000
0010
0000
,
1000
0010
1000
0010
,
2000
0000
0000
0000
0000
3000
0002
0000
,
0000
0000
0000
0000
,
0000
0000
0000
0000
,
0000
0000
0000
0000
,
0000
0000
0000
0003
0000
0000
1010
0000
,
0001
1001
0010
0100
,
0020
0000
0030
1100
,
0001
1001
0100
0010
,
0100
0000
0000
0010
,
1000
0000
0020
0000
0000
0000
0000
0030
,
0001
1000
0000
0001
,
0100
0000
0020
0000
0000
0000
0000
0030
,
0001
0000
0000
0011
,
0100
1001
0100
0010
,
0020
0000
0000
0030
0000
0000
0011
0000
,
0100
1001
0010
1000
,
0000
0001
1000
0010
,
0001
0000
0020
0000
0000
0000
0000
0030
,
0100
0001
0000
0010
,
0001
0000
0020
0000
0000
0000
0000
0030
,
0100
0010
0001
1000
,
0001
0000
1000
0020
,
0000
0000
0000
0030
0000
0000
1000
0000
,
0010
1000
0001
1000
,
0001
0000
0000
1000
,
0100
1000
0000
0001
,
0010
0000
0000
0010
,
1000
0010
1000
0010
,
2000
0000
3000
0010
,
0001
1000
0000
0010
,
1000
0000
0000
0100
,
0010
1000
0001
1000
,
0001
0000
0000
0010
,
1000
0000
0000
0001
,
0010
1000
0000
0010
,
1000
0010
1000
0010
,
2000
0000
3000
0010
,
1000
0010
1000
0010
,
1000
0000
0000
0010
,
1000
0010
1000
0010
,
1000
0000
0000
0000
;

//---------------dance-single - ----------------
#NOTES:
     dance-single:
     :
     Challenge:
     7:
     0.389,0.409,0.062,0.500,0.027:
0000
0000
0000
0020
,
0000
0002
0030
2000
,
0003
0200
3000
2000
,
0300
0002
3000
0020
,
0003
0200
0030
0020
,
0302
0030
2000
0003
0200
3000
2000
0300
,
0020
3000
0200
0030
0002
0300
1003
0001
,
1000
0001
0000
0100
0001
0200
0000
0020
,
0000
0000
0000
0000
0330
0000
0100
0001
,
1000
0100
0000
0010
0001
0000
0200
0000
,
0000
0000
0000
0000
0301
0000
0000
1000
0000
0000
0100
0000
2000
0000
0000
0000
,
0000
0020
0000
0000
0000
0000
0000
0000
,
3030
0000
0000
0000
0100
0000
0000
0001
0000
0000
1000
0000
0020
0000
0000
0000
,
0000
0200
0000
0000
0000
0000
0330
0000
,
0001
0101
0000
1001
1001
0000
1000
0100
,
1000
0010
0000
0100
0001
2000
0000
0200
,
0000
0000
0000
0000
3300
0000
1000
0001
,
0010
0020
0000
0031
0200
0000
0020
0000
,
0330
0000
0000
0000
1000
0000
0000
0001
0000
0000
2000
0000
0200
0000
3000
0000
,
0000
2000
0000
0000
0000
0000
0000
0000
,
3300
0000
0000
0000
1000
0000
0000
0010
0000
0000
0010
0000
0200
0000
0000
0000
,
0000
0002
0000
0000
0303
0000
1000
0000
,
0000
1100
0000
0100
1000
0000
0010
0100
,
0010
0100
0010
1000
0010
1000
0001
1000
,
0001
1000
0100
1000
0100
1000
0100
0010
,
0001
0100
0010
0100
0001
0010
0100
0010
,
0001
0100
0010
0100
0001
0000
1001
1000
,
0001
1000
0100
1000
0100
1000
0001
1000
,
0001
1000
0001
0010
0001
0010
0001
0010
,
0001
0100
0001
0010
0001
0100
0010
1000
,
0010
0100
0010
1000
0100
0010
0202
0000
,
0000
0000
0000
0000
,
0000
0000
0300
2000
,
0000
0000
0003
0020
,
0000
0000
0000
0000
3030
0000
0100
0001
,
1000
0100
0000
0100
1000
1020
0000
0200
,
0000
0000
0000
0000
0330
0000
0100
0001
,
0001
1000
0000
1000
0200
0000
2000
0000
,
3300
0000
0000
0000
1000
0000
0000
0010
0000
0000
0020
0000
0200
0000
0030
0000
,
0000
0002
0000
0000
0000
0000
0000
0000
,
0303
0000
0000
0000
1000
0000
0000
0010
0000
0000
0010
0000
0100
0000
0000
0000
,
0000
0002
0000
0000
0000
0000
2000
3000
,
0003
2000
3000
1000
0010
0000
0100
0010
,
1000
0001
0000
0001
0100
0010
0000
0200
,
0000
0000
0000
0000
0300
0000
0001
1000
,
0100
0100
0000
1000
0020
0000
0200
0000
,
0330
0000
0000
0000
0100
0000
0000
0001
0000
0000
0002
0000
2000
0000
0000
0000
,
0003
0200
0000
0000
0000
0000
0000
0000
,
3300
0000
0000
0000
1000
0000
0000
0010
0000
0000
0010
0000
0200
0000
0000
0000
,
0000
0002
0000
0000
0300
0000
1003
0000
,
1000
0010
0000
0010
0100
0000
0100
0010
,
0100
0010
0100
0001
0100
0001
0100
0010
,
0100
0010
0100
0010
1000
0010
0100
0010
,
1000
0100
1000
0100
1000
0010
0100
0010
,
1000
0100
0010
0100
0010
0100
0010
0001
,
0100
0010
0100
0001
0100
0001
0100
0010
,
0100
0001
0010
0001
0010
0001
0010
0100
,
0010
0001
0100
0010
1000
0010
0100
0010
,
1000
0100
0010
0001
0100
0001
0002
0000
,
1000
2003
0000
0200
3000
1000
0300
1000
,
0010
0000
0010
0100
0010
0000
0100
0010
,
1000
0001
1000
0100
0010
0100
1000
0001
,
1000
0001
0100
0010
0100
0000
0010
0010
,
0000
0100
0001
1000
0001
0200
0000
0000
,
0000
0010
0010
0000
0301
0000
1000
0000
,
0100
0200
0000
2000
0300
0020
3000
0200
,
0000
0000
0330
0102
,
1000
2000
0003
0020
3000
0200
0030
0002
,
0000
0000
0303
1002
,
2003
0010
0000
0020
3000
0200
0030
0002
,
0000
0303
0000
0000
;
