#TITLE:Only the World;
#ARTIST:Mandisa;
#BANNER:Only the World - Mandisa.png;
#BACKGROUND:Only the World - Mandisa-bg.png;
#LYRICSPATH:Only the World - Mandisa.lrc;
#CDTITLE:.\CDTITLES\DP2MANDI.png;
#MUSIC:Only the World - Mandisa.mp3;
#OFFSET:-3.169;
#SAMPLESTART:24.64;
#SAMPLELENGTH:12;
#BPMS:0=97;
#BGCHANGES:0=Only the World - Mandisa.avi=1=1=1=0,999=-=1=0=0=0;

//---------------dance-single - ----------------
#NOTES:
     dance-single:
     :
     Easy:
     1:
     0.129,0.177,0.093,0.050,0:
0001
0000
0010
0000
,
0001
0000
0010
0000
,
1000
0000
0001
0000
,
0010
0000
0001
0000
,
1000
0000
0001
0000
,
0010
0000
1000
0000
,
0001
0000
0010
0000
,
1000
0000
0100
0000
,
0000
0000
0000
0000
,
1001
0000
0010
0000
,
0001
0000
1000
0000
,
0010
0000
1000
0000
,
0011
0000
1100
0000
,
0010
0000
0001
0000
,
0010
0000
0100
0000
,
1000
0000
0001
0000
,
0010
0000
1000
0000
,
0001
0000
0000
0000
1000
0000
0000
0020
,
0000
0030
1000
0000
,
0001
0000
0100
0000
,
1010
0000
0011
0000
,
1000
0000
0100
0000
,
1000
0000
0010
0000
,
0001
0000
0100
0000
,
0010
0000
0001
0000
,
1000
0000
0100
0000
,
0001
0000
1000
0000
,
0010
0000
0001
0000
,
1000
0000
0010
0000
,
0001
0000
0100
0000
,
1010
0000
0002
0003
,
1000
0000
0001
0000
,
0010
0000
1000
0000
,
0011
0000
1100
0000
,
0010
0000
0100
0000
,
0001
0000
0100
0000
,
1000
0000
0001
0000
,
0010
0000
0110
0000
,
1000
0000
0000
0000
0001
0000
0000
0020
,
0000
0030
1000
0000
,
0001
0000
1000
0000
,
0011
0000
2200
3300
,
0001
0000
1000
0000
,
0010
0000
0001
0000
,
1000
0000
0010
0000
,
0011
0000
1100
0000
,
0010
0000
0100
0000
,
0001
0000
1000
0000
,
0010
0000
0001
0000
,
1000
0000
0001
0000
,
0010
0000
1000
0000
,
0001
0000
0100
0000
,
2000
0000
0000
0000
,
0000
3000
0002
0003
,
0010
0000
1000
0000
,
0010
0000
0000
0000
;

//---------------dance-single - ----------------
#NOTES:
     dance-single:
     :
     Hard:
     6:
     0.375,0.353,0.093,0.121,0.032:
0000
0000
0001
0000
0000
0000
0000
0010
0000
0000
0001
0000
0000
1000
0000
0001
,
0000
0000
0010
0000
0000
1000
0000
0010
0000
0000
0001
0000
0000
0000
0100
0000
,
0001
1000
0001
0010
1000
0001
0010
1000
,
0002
0000
0000
0000
2003
0000
0000
0000
3000
0000
0000
0000
0000
0010
0000
1000
,
0000
0000
0001
0000
0000
0010
0000
0001
0000
0000
0010
0000
0000
0000
1000
0000
,
0010
1000
0001
0010
1000
0001
0010
1000
,
0001
0010
1000
0001
0010
1000
0001
0000
,
1000
0010
0001
2000
0000
3000
0002
0000
,
0003
0020
0000
0000
0000
0030
0000
0000
,
1001
0010
0100
0000
0010
0000
1000
0010
,
0001
1000
0010
0001
1000
0000
0001
1000
,
0010
1000
0001
0010
1000
0001
0100
1000
,
0011
1000
0100
0001
1010
0000
0001
1000
,
0010
0001
1000
0010
0001
0000
1000
0001
,
0010
1000
0001
0010
0100
0000
0001
0010
,
1000
0001
0010
1000
0001
0010
1000
0001
,
0010
0001
1000
0010
,
0001
1000
0010
0001
1000
0010
0100
0020
,
0000
0030
0100
0001
1000
0001
0010
0000
,
0001
1000
0010
1000
0000
0010
0001
0100
,
1010
0001
0100
1000
0011
0000
0100
0001
,
1000
0010
0000
0001
0100
1000
0000
0001
,
1000
0010
0001
0010
1000
0001
1000
0001
,
1000
0001
0010
1000
0100
0001
1000
0001
,
0010
0000
2000
0000
3000
0000
0001
0010
,
1000
0010
0000
0001
0100
0001
0000
1000
,
0001
1000
0000
0010
1000
0001
0000
0001
,
0010
0001
1000
0010
0001
1000
0010
0001
,
1000
0010
0001
0000
0010
0000
2000
3000
,
0001
0010
0002
0000
0000
0000
0003
0000
,
1010
0001
0100
1000
0002
0000
0003
0000
,
1000
0001
0010
1000
0001
0000
1000
0001
,
0010
1000
0001
0010
1000
0001
0100
1000
,
0011
1000
0100
0001
1010
0000
0100
1000
,
0010
1000
0001
0010
0100
0000
0010
1000
,
0001
1000
0010
1000
0100
0000
0001
0010
,
1000
0001
0010
1000
0001
0010
0100
1000
,
0010
0001
1000
0001
0110
0000
0001
0000
,
1000
0001
0010
1000
0001
0100
1000
0020
,
0000
0030
0001
0010
1000
0100
0020
0000
,
0032
0000
0000
0003
1000
0001
0100
1000
,
0101
1000
0010
0001
2200
0000
0000
3300
,
0001
1000
0010
0001
1000
0010
0001
0000
,
0010
0001
1000
0010
0001
1000
0010
0000
,
1000
0010
0001
1000
0010
0001
1000
0100
,
0011
1000
0100
0001
1010
0000
0100
0000
,
0010
1000
0001
1000
0100
0000
0010
1000
,
0001
1000
0010
0001
1000
0000
0001
1000
,
0010
0001
1000
0000
0001
0000
0010
0001
,
1000
0001
0100
1000
0001
0000
0100
1000
,
0010
1000
0001
0010
1000
0000
0010
1000
,
0001
1000
0010
0001
0100
1000
0001
0010
,
2000
0000
0000
0000
,
0000
3000
0002
0003
,
0010
0001
1000
0001
,
0010
0000
0000
0000
;

//---------------dance-single - ----------------
#NOTES:
     dance-single:
     :
     Medium:
     3:
     0.238,0.236,0.093,0.107,0.025:
0000
0000
0001
0000
0000
0000
0000
1000
0000
0000
0010
0000
0000
0000
0000
1000
,
0000
0000
0001
0000
0000
0000
0000
1000
0000
0000
0010
0000
0000
0000
0000
0000
,
0010
1000
0010
0001
,
0010
0000
0000
0000
2000
0000
0000
0000
3000
0000
0000
0000
0000
0010
0000
1000
,
0000
0000
0010
0000
0000
0000
0000
0001
0000
0000
1000
0000
0000
0000
0000
0000
,
0010
0001
1000
0010
,
0001
1000
0010
0001
,
1000
0000
0001
2000
0000
3000
0002
0000
,
0003
0020
0000
0000
0000
0000
0030
0000
,
1001
0100
0010
1000
,
0001
0010
1000
0001
,
0010
0001
1000
0100
,
0011
0100
1010
0001
,
0010
1000
0001
1000
,
0010
0001
0100
0001
,
1000
0010
0001
1000
,
0010
0001
1000
0010
,
0001
0000
0010
0000
1000
0000
0100
0020
,
0000
0030
0100
0000
1000
0000
0010
0000
,
0001
0010
0100
0001
,
1010
0100
0011
0100
,
1000
0001
0100
0001
,
1000
0001
0010
1000
,
0001
0010
0100
1000
,
0010
0000
2000
0000
0000
3000
0001
0000
,
1000
0001
0100
1000
,
0001
0010
1000
0001
,
0010
1000
0001
0010
,
1000
0001
0010
2000
,
0000
3000
0001
0000
0100
0000
0001
0000
,
1010
0000
0000
0000
0100
0000
0000
0000
0002
0000
0000
0000
0000
0003
0000
0000
,
1000
0010
0001
1000
,
0010
0001
1000
0100
,
0011
0100
1010
0100
,
0010
0001
0100
0010
,
0001
0010
0100
0001
,
1000
0010
0001
0100
,
0010
1000
0110
0001
,
1000
0000
0010
0000
0001
0000
1000
0020
,
0000
0000
0030
0000
0001
0000
0000
0000
1000
0000
0000
0000
0020
0000
0000
0030
,
0002
0000
0000
0003
1000
0000
0100
0000
,
0101
0000
0010
0000
2200
0000
0000
3300
,
0001
0010
1000
0001
,
0010
1000
0001
0010
,
1000
0001
0010
1000
,
0011
0100
1010
0100
,
0010
0001
0100
0010
,
0001
0010
1000
0001
,
0010
1000
0001
0010
,
1000
0100
0001
0100
,
0010
0001
1000
0010
,
0001
0010
0100
0001
,
2000
0000
0000
0000
,
0000
0000
0000
0000
0000
0000
3000
0000
0000
0002
0000
0000
0000
0003
0000
0000
,
0010
0001
1000
0001
,
0010
0000
0000
0000
;

//---------------dance-single - ----------------
#NOTES:
     dance-single:
     :
     Challenge:
     8:
     0.501,0.463,0.107,0.143,0.657:
0000
0000
0000
0000
0000
0011
0000
0001
0000
0000
0000
1010
,
0000
0100
0000
0000
0000
0110
0000
0100
0000
0000
0001
1000
,
0010
0010
1000
0100
0010
0100
0100
1000
0010
1000
0100
0020
,
0000
0000
0002
0000
0030
0000
0100
0000
0000
0003
0010
0100
,
0010
0000
0000
1000
0000
0000
0000
0000
0100
0000
0010
0000
0100
0000
0000
1000
0000
0000
0000
0000
0010
0000
1000
0000
,
0100
0010
0100
1000
0010
1000
0001
0100
0010
0100
0001
1000
,
0100
0010
0100
1000
0010
1000
0010
0010
1000
1010
0000
0000
,
1000
0010
0010
0020
0000
0200
0000
0000
,
0000
0000
0330
0000
,
0010
0000
1000
0000
0001
0100
0010
0000
0100
0000
0001
0000
1000
0100
0010
0100
,
0000
1000
0000
0010
0000
0010
0000
1000
0000
0000
0010
0000
0100
0010
0100
0000
,
0100
0000
0100
0000
0001
0100
0001
0000
0010
0000
0001
0000
1000
0001
0100
0010
,
0000
0000
0010
0100
0001
0000
1000
0100
0000
0100
1000
0000
0010
0100
0010
1000
,
0000
0100
0010
0000
0100
0000
1000
0001
0000
0001
0100
0000
0010
0100
0001
1000
,
0100
0000
0010
0100
1000
0000
0010
0000
1000
0000
0010
0000
0100
0010
0100
0010
,
0000
1000
0000
0100
0000
0010
0000
0100
0000
0010
0001
0000
0100
0000
0010
0100
,
0000
0001
1000
0000
0100
0000
0100
1000
0000
1000
0010
0000
0100
0000
0010
0000
,
1000
0000
0001
0000
0100
0000
0100
0001
0000
0001
1000
0000
0100
0000
0010
0000
,
0100
0000
1000
0000
0010
0000
0010
0100
0000
0100
0010
0000
1000
0000
0100
0000
,
1000
0000
0010
0000
0100
0000
0001
0000
0001
0000
1000
0000
0001
0100
0001
0100
,
0000
0001
0100
0000
0010
0100
0010
0100
0000
0100
0001
0000
1000
0100
0010
0100
,
0000
0000
1000
0000
0000
0010
0100
0010
0000
0000
1000
0000
0000
0100
0010
0100
,
0000
0000
0000
0000
0000
0000
1000
0000
0000
0000
0000
0000
0000
0000
0000
0001
0000
0000
0000
0000
0000
0100
0000
0000
0010
0000
0000
0100
0000
0000
0000
0000
0000
0100
0000
0000
0000
0000
0000
0000
0001
0000
0000
0000
0001
0000
0000
0000
,
1000
1000
0100
0110
1000
0010
1000
0100
0010
1001
1000
0001
,
0200
0000
0000
0000
0000
0000
0000
0000
0020
0000
0000
0000
0000
0000
0000
0000
0300
0000
0000
0000
0000
0000
0000
0000
0100
0000
0000
0000
0000
0000
0000
0000
0000
0000
0000
0000
0030
0000
0000
0000
0000
0000
1000
0000
0000
0010
0000
0000
,
0100
0000
0010
0000
0000
0100
0010
0100
0000
0000
1001
0000
0000
0100
0010
1000
,
0000
0000
0000
0000
0000
0000
0100
0000
0000
0000
0000
0000
0000
0000
0000
0100
0000
0000
1000
0000
0000
0010
0000
0000
0000
0000
0000
0000
0000
0000
1010
0000
0000
0000
0000
0000
0000
0000
0000
0000
0010
0000
0000
0000
0100
0000
0000
0000
,
0110
1000
0001
1000
0001
0100
0110
0100
0001
1000
0000
0010
,
0100
0002
2000
0000
3003
0200
0020
0030
,
0310
0100
0001
2002
0000
3003
0100
0010
,
0100
0000
0001
0000
1000
0010
0100
0000
0010
0000
1000
0000
0001
0010
0100
0010
,
0000
0001
0000
0100
0000
0100
0000
0001
0000
0000
0100
0000
0010
0100
0010
0000
,
0010
0000
1000
0000
0001
0010
0001
0000
0100
0000
0001
0000
0001
1000
0010
0100
,
0000
0000
0100
0010
1000
0000
0001
0010
0000
0010
0001
0000
0100
0010
0100
0001
,
0000
0010
0100
0000
0010
0000
0001
1000
0000
1000
0010
0000
0100
0010
1000
0001
,
0010
0000
0100
0010
0001
0000
0100
0000
0001
0000
0100
0000
0010
0100
0010
0100
,
0000
0001
0000
0010
0000
0100
0000
0010
0000
0100
1000
0000
0010
0000
0100
0010
,
0000
1000
0001
0000
0010
0000
0010
0001
0000
0001
0100
0000
0010
0000
0100
0000
,
0001
0000
1000
0000
0010
0000
0010
1000
0000
1000
0001
0000
0010
0000
0100
0000
,
0010
0000
0001
0000
0100
0000
0100
0010
0000
0010
0100
0000
0001
0000
0010
0000
,
0001
0000
0100
0000
0010
0000
1000
0000
1000
0000
0001
0000
1000
0010
1000
0010
,
1000
0000
1000
0010
1000
0010
1000
0001
0100
0010
0100
0010
0000
0100
0001
0000
,
0100
0000
0100
0000
0001
0000
0010
0001
0000
0100
0001
0000
0100
0000
0010
0000
,
0100
0000
0001
0000
1000
0000
0001
0100
0000
0001
1000
0000
0001
0000
0010
0000
,
0100
0000
0010
0000
0001
0000
0100
0000
0010
0000
0010
0000
0100
0001
0100
0001
,
0000
0000
1000
0000
0001
0000
0100
0000
0001
0100
0001
0100
0001
0000
0100
0000
,
0010
0010
0100
0100
0220
0000
0000
0330
,
0001
0000
0001
0000
1000
0000
1000
0000
2002
0000
0000
3003
1000
0010
0000
0100
,
0000
0100
0010
0000
1000
0000
0000
1000
0000
0001
0001
0000
1000
0000
0001
0000
,
0010
0010
0100
0100
0220
0000
0000
0330
,
1000
0000
0000
1000
0000
0000
0001
0000
0000
0001
0000
0000
1000
0000
0000
1000
0000
0000
0001
0000
1000
0000
0100
0000
,
0000
0000
0000
0010
0000
0000
0000
0000
0010
0000
0100
0000
0010
0000
0000
0000
0011
0000
0000
0000
0001
0000
0100
0000
,
0000
0001
1000
0002
0000
0000
0200
0000
0000
0000
0000
0000
,
0000
0000
0000
0000
,
0303
0000
0000
0000
;
