#TITLE:One Choice;
#ARTIST:Altared Life;
#BANNER:One Choice - Altared Life.png;
#BACKGROUND:One Choice - Altared Life-bg.png;
#LYRICSPATH:One Choice - Altared Life.lrc;
#CDTITLE:.\CDTITLES\DP2ALTAR.png;
#MUSIC:One Choice - Altared Life.mp3;
#OFFSET:-3.698;
#SAMPLESTART:95.6;
#SAMPLELENGTH:12;
#BPMS:0=81,34=90;
#STOPS:34=1.143;

//---------------dance-single - ----------------
#NOTES:
     dance-single:
     :
     Easy:
     1:
     0.105,0.125,0,0,0:
0001
0000
0010
0000
,
0100
0000
0010
0000
,
0001
0000
1000
0000
,
0100
0000
0010
0000
,
0001
0000
0100
0000
,
0010
0000
0100
0000
,
1000
0000
0000
0000
,
0000
0000
0000
0000
,
0000
0000
0000
0000
,
0010
0000
0100
0001
,
1000
0000
0010
0000
,
0100
0000
0001
0000
,
1000
0000
0010
0000
,
0001
0000
0100
0000
,
0010
0000
0100
0000
,
0001
0000
1000
0000
,
0100
0000
1000
0000
,
0010
0000
0001
0000
,
0100
0000
0001
0000
,
0010
0000
0001
0000
,
1000
0000
0001
0000
,
0100
0000
1000
0000
,
0010
0000
0100
0000
,
1000
0000
0001
0000
,
1000
0000
0010
0000
,
0100
0000
1000
0000
,
0001
0000
0010
0000
,
1000
0000
0100
0000
,
0001
0000
0010
0000
,
1000
0000
0100
0000
,
1000
0000
0001
0000
,
0010
0000
0100
0000
,
1000
0000
0010
0000
,
1000
0000
0100
0000
,
0001
0000
1000
0000
,
0010
0000
0100
0000
,
1000
0000
0100
0000
,
0001
0010
0100
0000
,
0001
0000
1000
0000
,
0010
0000
0100
0000
,
0001
0000
1000
0000
,
0010
0100
1000
0000
,
0001
0000
0010
0000
,
0001
0100
0001
0010
,
1000
0000
0100
0000
,
0001
0000
1000
0000
,
0010
0100
0001
0000
,
1000
0000
0100
0000
,
0010
0000
1000
0001
,
0100
0000
1000
0000
,
0001
0000
0010
0000
,
0100
0000
1000
0000
,
0001
0000
0001
0000
,
1000
0100
0010
0000
,
1000
0000
0001
0000
,
0010
0000
0100
0000
,
0010
0000
1000
0000
,
0001
0000
0010
0000
,
0100
0000
0001
0000
,
1000
0000
0001
0000
,
0010
0000
0000
0000
;

//---------------dance-single - ----------------
#NOTES:
     dance-single:
     :
     Hard:
     7:
     0.303,0.321,0.036,0.059,0.012:
0000
0001
0010
0100
,
1000
0001
0010
0100
,
1000
0001
0010
1000
,
0001
0010
0100
1000
,
0100
0001
0010
0100
,
1000
0001
0010
0100
,
1000
0001
1000
0000
,
0000
0000
0000
0000
,
0000
0000
0000
0000
,
0010
0000
0010
0000
0100
1000
0010
0000
,
0001
0000
0100
0000
0010
0001
0010
0100
,
1000
0000
0010
0000
0100
0010
0001
1000
,
1001
0100
0110
0100
,
1000
0001
0010
0100
0010
0000
0001
0000
,
1000
0100
0010
0000
0010
0100
1000
0000
,
0010
0100
0001
0000
0001
0100
0010
0000
,
1000
0100
0010
0000
0001
0000
0000
0000
,
0010
0000
0100
0000
0010
0100
1000
0000
,
0002
0003
0100
0000
0010
0100
1000
0000
,
0020
0030
0100
0000
1000
0001
0100
0000
,
0020
0030
0100
0000
1000
0100
0010
0000
,
1001
0000
0010
0100
0010
1000
0001
0000
,
0110
0000
0010
0000
0001
1000
0010
0000
,
1000
0000
0100
0000
0010
0100
1000
0000
,
0001
0000
0010
0000
0001
0010
0100
1000
,
0010
0000
1001
0000
0010
0100
1000
0000
,
0020
0030
0100
0000
1000
0001
0100
0010
,
0001
0000
0100
0000
0010
0100
0001
0000
,
0010
0100
1000
0100
0010
0000
0001
0000
,
0001
0100
0001
0000
1000
0100
1000
0000
,
0010
0100
0010
0000
0001
0000
1000
0000
,
0010
0000
0100
0000
0010
0100
1000
0000
,
0001
0010
0100
0000
0010
1000
0100
0000
,
0010
0100
1000
0100
0010
0001
0100
0010
,
0100
1000
0010
0100
1000
0100
0010
0001
,
0100
1000
0010
0100
1000
0100
0010
0100
,
0001
0100
0010
0100
1000
0100
0010
0100
,
0001
0100
1000
0001
1000
0010
0100
1000
,
0001
1000
0010
0100
0001
1000
0001
0010
,
0100
1000
1000
0100
1000
0001
1000
0010
,
1000
0100
1000
0001
1000
0010
0001
0100
,
0001
1000
0001
0010
0001
0100
0001
0000
,
1000
0000
0100
0000
1001
0010
0100
0000
,
2000
3000
0100
0000
0010
0100
1000
0000
,
0002
0003
0100
0000
0010
1000
0001
0100
,
0020
0030
0100
0000
1000
0001
0100
0000
,
0200
0300
1000
0000
0010
0001
0100
1000
,
0010
0000
1000
0000
0100
0010
0100
0000
,
1000
0010
1000
0100
1000
0010
1000
0100
,
0001
0100
0001
0010
0001
0100
0001
0010
,
0001
0000
1000
0000
0100
0010
0100
0000
,
0001
0000
1000
0000
0001
1000
0010
0100
,
0010
0000
0001
0000
1000
0010
0100
1000
,
0010
0000
0001
0000
0010
0100
1000
0001
,
0020
0000
0030
0100
0000
0100
0000
1000
0000
0001
0010
0000
0100
0000
1000
0000
,
0010
0001
0100
0001
0010
0100
1000
0100
,
0010
0100
0001
0100
0010
0100
1000
0100
,
0010
0000
0001
0000
0010
0100
1000
0100
,
0010
0000
0002
0003
0010
0100
1000
0100
,
0010
0000
0001
0000
0010
0100
1000
0100
,
0010
0000
0000
0000
;

//---------------dance-single - ----------------
#NOTES:
     dance-single:
     :
     Medium:
     3:
     0.194,0.214,0.048,0,0:
0000
0000
0010
0000
,
0001
0100
1000
0000
,
0000
0000
0010
0100
,
0001
0000
0010
0000
,
1000
0100
0010
0001
,
0100
1000
0010
0000
,
0100
0000
0000
0000
,
0000
0000
0000
0000
,
0000
0000
0000
0000
,
0010
1000
0010
0100
,
1000
0010
0001
0010
,
0100
1000
0010
0000
0001
0000
0010
0000
,
0001
1000
0100
0000
,
0010
0000
0100
0000
1000
0001
0010
0000
,
0100
0000
1000
0010
,
0100
1000
0001
1000
,
0010
0100
0010
1000
,
0010
0001
0010
0100
,
0010
0001
0010
1000
,
0100
1000
0001
0010
,
0100
0001
1000
0001
,
0010
0100
0001
0100
,
0010
1000
0001
0100
,
0010
1000
0001
0100
,
0010
1000
0100
0001
,
0010
0100
1000
0001
,
1000
0010
0100
1000
,
0001
0010
0100
1000
,
0010
0001
0010
0100
,
1000
0100
0010
0001
,
0100
1000
0001
0010
,
0001
0000
0100
0000
0010
0100
1000
0000
,
0010
0000
0001
0000
0100
0010
1000
0000
,
1001
0100
0010
0110
,
0010
0000
0001
0000
1000
0000
0010
0100
,
1000
0000
0010
0000
0001
0000
0010
0100
,
1000
0000
0001
0000
0010
0000
0100
0010
,
0001
1001
0010
0110
,
0010
1001
0010
0110
,
0010
0000
1000
0000
0001
0010
0100
0000
,
0010
0000
0001
1000
0100
0000
0010
0000
,
0001
0000
0100
0000
,
0010
0000
0000
0000
0100
0010
0100
0001
,
1000
0000
0001
0000
,
0010
0100
1000
0000
0001
0000
0000
0000
,
0010
0000
0100
0000
0001
1000
0100
0000
,
0010
0000
0000
0000
0001
1000
0010
0000
,
0100
0000
0001
0000
,
1100
0000
0011
0000
,
0010
0100
1000
0000
,
0001
0000
1000
0010
0100
0000
0000
0000
,
1000
0001
0010
0100
,
0100
0001
1000
0000
,
1000
0001
0010
0100
,
0001
0010
1000
0100
,
0001
0000
1000
0000
,
0010
0100
0001
1000
,
0010
0000
0001
0000
0010
0100
1000
0000
,
0001
0000
1000
0000
0010
0100
0001
0000
,
1000
0010
0001
1000
,
0010
0000
0000
0000
;

//---------------dance-single - ----------------
#NOTES:
     dance-single:
     :
     Challenge:
     9:
     0.461,0.608,0.339,0.119,0.369:
1001
0000
0110
0000
,
0101
0000
1001
0000
,
1100
0000
0110
0000
,
1100
0000
1001
0000
,
1010
0000
0101
0000
,
1010
0000
1001
0000
,
0011
0000
0020
0000
,
0000
0000
0200
0000
,
0000
0000
0000
0000
0000
0000
0000
0330
,
1000
0000
0000
1000
0001
0000
0000
0000
1000
0000
0010
0000
1000
0000
0000
0000
,
0001
0000
0000
0001
1000
0000
0000
0000
0100
0000
0010
0000
0100
0000
0000
0000
,
1000
0000
0000
0001
0100
0000
0000
0000
0010
0000
0100
0000
0001
0000
0000
0000
,
1000
0001
0100
0001
0001
1000
0001
0100
,
0010
0000
0000
0000
0010
0000
0000
0010
1000
0000
0001
0000
0100
0000
0000
0000
,
0001
0000
0000
0000
1000
0000
0000
1000
0001
0000
0010
0000
0001
0000
0000
0000
,
1000
0000
0000
0000
0100
0000
0000
0100
0010
0000
0100
0000
1000
0000
0000
0000
,
0001
0100
0010
0010
0100
0001
1000
0100
,
0010
0100
0000
1000
0000
0001
0100
0010
0100
0000
0000
0001
1000
0000
0100
0000
,
0010
0100
0010
0000
0001
0000
0100
0000
0010
0000
0100
0000
0001
0000
1000
0000
,
0100
0100
0000
1000
0000
0010
0100
0000
0010
0000
1000
0000
0001
0000
0001
0000
,
0100
0000
0010
1000
0100
0000
0010
0100
0010
0000
0010
0001
0010
0000
0100
0010
,
0001
0000
0100
0000
0010
0000
1000
0000
0100
0010
0000
0100
0000
1000
0010
0000
,
0100
0000
0010
0000
1000
0000
0001
0000
0100
0010
0000
0100
0000
0001
1000
0000
,
0100
0000
0010
0000
0100
0000
1000
0000
0010
0100
0000
0010
0000
1000
0001
0000
,
0100
0010
1000
0000
0100
0010
0100
0000
1000
0010
0100
0000
0010
1000
0010
0000
,
1000
0000
0010
0000
0100
0000
0010
0000
1000
0001
0000
0001
0000
0100
0010
0000
,
0100
0000
0001
0000
1000
0000
0100
0000
0010
0100
0000
0100
0000
0010
0001
0000
,
0100
0000
0010
0000
0100
0000
0001
0000
1000
0001
0000
0001
0000
0001
1000
0000
,
0010
0100
0010
0000
1000
0100
0010
0000
0100
1000
0010
0100
0010
1000
0100
0010
,
0001
0000
0001
0000
0100
0000
0010
0000
0100
0001
0000
1000
0000
0001
0110
0000
,
0100
0101
0100
1001
0001
1100
1000
0100
,
0010
0100
0000
1000
0000
0010
1000
0100
0010
0000
0100
0000
1000
0000
0001
0000
,
0100
0100
0010
0010
0100
0100
0001
1000
,
1001
1000
0010
0010
0110
0100
0001
1000
,
1001
0001
0010
0010
0011
0001
0001
0001
,
1001
0001
0100
0010
0110
0100
0001
1000
,
1001
1000
1001
0001
0110
0100
0101
0001
,
1001
1000
0100
0100
0110
0100
1000
0001
,
1001
0001
0100
0010
0110
0100
0001
1000
,
1001
0001
0101
0100
0101
0100
0110
0100
,
0110
0010
1010
1000
1100
1000
1010
0010
,
0110
1000
0000
0001
0000
1000
0001
0000
0100
0000
0100
0000
0010
0000
0100
0000
,
0010
1000
0000
0001
0000
0100
0010
0000
0100
0000
0001
0000
1000
0000
0100
0000
,
0010
0100
0000
1000
0000
0001
0100
0000
0001
0000
0100
0000
0010
0000
0100
0000
,
0101
0001
0101
0001
1001
1000
1100
1000
,
0010
0100
0000
0010
0000
1000
0100
0000
0010
0100
0000
1000
0000
0010
0100
0000
,
0010
1000
0000
0100
0000
0001
0100
0000
0100
1000
0000
0100
0000
0010
0100
0000
,
1000
0010
0000
0100
0000
0010
1000
0000
0100
0010
0000
0100
0000
1000
0010
0000
,
0100
0010
1000
0010
0100
0001
1000
0010
0100
0010
1000
0100
0010
0001
0100
0010
,
0100
0001
0000
0010
0000
0100
0010
0000
0001
0100
0000
0010
0000
0100
0001
0000
,
0001
1000
0000
0001
0000
0100
0010
0000
0100
0001
0000
1000
0000
0100
0010
0000
,
0100
1000
0000
0010
0000
0100
0010
0000
1000
0100
0000
0010
0000
0100
1000
0000
,
0001
0100
0010
0100
0001
1000
0100
0010
0100
1000
0010
0100
0010
1000
0100
0010
,
0100
0000
1000
0000
0010
0000
1000
0010
0000
0010
0100
0000
0010
0000
1000
0000
,
0100
0000
0010
0000
0100
0000
1000
0010
0000
0100
0010
0000
1000
0000
0010
0000
,
0100
0000
0010
0000
0100
0000
0010
0100
0000
0100
0010
0000
0100
0000
0011
0000
,
0010
0101
0100
0110
0100
1010
0010
1000
,
0010
0100
0000
0010
0000
1000
0100
0000
0010
0000
0100
0000
1000
0000
0010
0000
,
0220
0330
0202
0303
2002
3003
2200
3300
,
0220
0330
2200
3300
0220
0330
0022
0033
,
2002
3003
0000
0000
0000
0000
0000
0000
;
