#TITLE:Nostalgiatopia;
#ARTIST:Eleventyseven;
#BANNER:Nostalgiatopia - Eleventyseven.png;
#BACKGROUND:Nostalgiatopia - Eleventyseven-bg.png;
#LYRICSPATH:Nostalgiatopia - Eleventyseven.lrc;
#CDTITLE:.\CDTITLES\DP2117.png;
#MUSIC:Nostalgiatopia - Eleventyseven.mp3;
#OFFSET:-2.772;
#SAMPLESTART:45.84;
#SAMPLELENGTH:12;
#BPMS:0=131.02;
#BGCHANGES:-2.45=Nostalgiatopia - Eleventyseven.AVI=0.904=1=1=0,999=-=1=0=0=0;

//---------------dance-single - ----------------
#NOTES:
     dance-single:
     :
     Easy:
     2:
     0.137,0.106,0,0.007,0:
0000
1000
0000
0000
,
0000
0001
0000
0001
,
0000
1000
0000
1000
,
0000
0001
0000
0001
,
0000
1000
0000
1000
,
0000
0001
0000
1000
,
0000
0010
0000
0100
,
0000
1000
0000
0001
,
0000
0001
0000
1000
,
0000
1000
0000
0000
,
0000
0001
0000
1000
,
0000
0010
0000
0100
,
0000
0001
0000
1000
,
0000
0010
0000
0100
,
0000
0000
0000
0001
,
0000
0000
0000
0100
,
0000
0001
0000
1000
,
0000
1000
0000
0001
,
0000
1000
0000
0001
,
0000
0010
0000
0100
,
0000
0001
0000
1000
,
0000
0010
0000
0100
,
0000
0001
0000
1000
,
0000
0010
0000
0100
,
0000
1000
0000
0001
,
0000
0200
0000
0000
,
0000
0000
0000
0000
,
0300
0001
0000
1000
,
0000
0010
0000
0100
,
0000
1000
0000
0100
,
0000
0010
0000
0100
,
0000
0001
0000
0100
,
0000
0010
0000
0100
,
0000
1000
0000
0100
,
0000
0010
0000
0100
,
0000
1000
0000
0100
,
0000
0001
0000
0010
,
0000
1000
0000
0000
,
0000
0010
0000
0000
,
0000
0001
0000
0000
,
0000
1000
0000
0000
,
0000
0001
0000
0000
,
0000
1000
0000
0000
,
0000
0010
0000
0000
,
0000
0001
0000
0000
,
0000
1000
0000
0001
,
0000
0010
0000
0001
,
0000
1000
0000
0001
,
0000
0010
0000
1000
,
0000
0001
0000
1000
,
0000
0010
0000
1000
,
0000
0001
0000
1000
,
0000
0010
0000
0001
,
0000
1000
0000
0001
,
0000
0010
0000
1000
,
0000
0001
0000
1000
,
0000
0010
0000
0001
,
0000
1000
0000
0001
,
0000
0010
0000
0001
,
0000
1000
0000
0001
,
0000
0010
0000
1000
,
0000
0001
0000
1000
,
0000
0010
0000
0001
,
0000
1000
0000
0001
,
0000
0010
0000
1000
,
0000
0001
0000
1000
,
0000
0010
0000
0001
,
0000
1000
0000
0001
,
0000
0010
0000
1000
,
0000
0001
0000
1000
,
0000
0010
0000
0001
,
0000
1000
0000
0001
,
0000
0010
0000
1000
,
0000
0001
0000
1000
,
0000
0010
0000
0001
,
0000
1000
0000
0000
,
0000
0010
0000
1000
,
0000
0001
0000
1000
,
0000
0010
0000
0001
;

//---------------dance-single - ----------------
#NOTES:
     dance-single:
     :
     Hard:
     7:
     0.318,0.371,0.067,0.020,0:
0001
1000
0001
0010
,
0100
0001
1000
0001
,
0010
1000
0001
1000
,
0010
0001
1000
0001
,
0010
1000
0001
1000
,
0100
0001
0010
1000
,
0001
0010
1000
0100
,
0001
0010
1000
0001
0010
1000
0001
0010
,
1000
0001
0010
1000
,
0001
1000
0000
0001
,
1000
0001
0010
1000
,
0001
0010
0000
1000
,
0010
0001
0100
1000
,
0001
0010
1000
0100
,
0000
0000
0000
1000
0001
1000
0001
0000
,
0010
0000
1000
0000
0001
0000
0100
0001
,
1000
0001
0010
1000
,
0001
0000
1000
0000
0010
0000
0000
0001
,
0100
0001
1000
0000
0010
0000
0001
0000
,
0100
0000
0010
0000
1000
0000
0001
0010
,
1000
0001
0010
1000
,
0100
0010
0001
0100
,
1000
0001
0010
1000
,
0101
0000
1000
0100
0001
1000
0100
1000
,
0001
1000
0010
1002
,
0000
0203
0000
0001
,
0000
0001
0000
0301
,
0000
0000
0001
0010
0001
1000
0010
0001
,
0010
1000
0000
0100
,
0001
0000
1000
0000
0001
1000
0100
0000
,
0001
0000
0010
0000
1000
0000
0100
1000
,
0010
0001
1000
0100
,
0001
0010
1000
0100
,
0001
1000
0010
0100
,
0002
0010
0000
1003
,
0001
1000
0001
0100
,
0010
0001
1000
0010
,
0100
0000
1000
0001
1000
0001
1000
0000
,
0010
0000
0000
0001
0000
0000
1000
0000
,
0000
0000
0001
1000
0001
1000
0001
0000
,
1000
0000
0000
0001
0000
0000
0100
0000
,
0000
0000
0001
0000
0000
1000
0000
0000
,
0001
0000
0000
1000
0000
0000
0001
0000
,
0000
0000
0010
0000
0000
0010
0000
0000
,
0010
0000
0000
0010
,
0000
1000
0000
0001
,
1000
0010
1000
0001
,
0010
1000
0000
0110
,
1000
0010
0001
1000
,
0010
0001
0000
1100
,
0001
0010
0100
1000
,
0010
0001
0100
1000
,
0001
0010
1000
0001
,
0000
1100
0011
0001
,
1000
0010
0100
1000
,
0010
0001
0000
1100
,
0001
0010
1000
0001
,
0010
1000
0000
0101
,
1000
0010
1000
0001
,
0010
1000
0100
0001
,
1000
0010
0001
1000
,
0110
0000
1001
0010
0100
0001
1000
0010
,
0001
0010
1000
0001
,
0010
0000
1000
0000
0100
0010
0001
0010
,
1000
0010
0001
1000
,
0010
0001
0100
1000
,
0001
0010
1000
0001
,
0010
1000
0100
0001
,
1000
0000
0010
0000
0001
0000
1000
0001
,
0010
0001
0100
1000
,
0001
0010
1000
0001
,
0010
1000
0100
0001
,
1000
0010
0001
1000
,
0010
0001
0100
1000
,
0001
0010
1000
0001
,
0010
0000
1000
0001
1000
0001
0010
0000
,
0000
0010
0001
1000
,
0010
0000
0001
1000
0100
0001
1000
0000
,
0001
0010
1000
0001
,
0010
0000
0000
0000
;

//---------------dance-single - ----------------
#NOTES:
     dance-single:
     :
     Medium:
     4:
     0.254,0.291,0.013,0.013,0:
0000
1000
0000
0010
,
0100
0001
1000
0001
,
0010
1000
0001
1000
,
0010
0001
1000
0001
,
0010
1000
0001
1000
,
0100
0001
0010
1000
,
0001
0010
1000
0100
,
0001
1000
0010
0001
,
1000
0001
0010
1000
,
0001
1000
0000
0000
,
1000
0001
0010
1000
,
0001
0010
0000
0000
,
0010
0001
0100
1000
,
0001
0010
1000
0100
,
0000
0000
0000
0001
,
0000
1000
0000
0100
,
1000
0001
0010
1000
,
0001
1000
0010
0000
,
0100
1000
0010
0001
,
0100
0010
0000
0000
,
1000
0001
0010
1000
,
0100
0010
0001
0100
,
1000
0001
0010
1000
,
0000
0000
0001
0100
,
0001
1000
0010
0002
,
0000
0003
0200
0000
0000
0000
0000
0000
,
0000
0000
0000
0000
,
0300
0001
0010
1000
,
0001
0010
1000
0100
,
0001
1000
0001
0100
,
0001
0010
0000
0100
,
0010
0001
1000
0100
,
0001
0010
1000
0100
,
0001
0000
0010
0100
,
0001
0010
0001
0100
,
0001
1000
0001
0100
,
0010
0001
1000
0010
,
0100
1000
0000
0001
,
0000
0010
0000
1000
,
0000
0001
0000
0010
,
0000
1000
0000
0100
,
0000
0001
0000
0010
,
0000
1000
0000
0001
,
0000
0010
0000
1000
,
0000
0001
0000
0010
,
0000
1000
0000
0001
,
1000
0010
1000
0001
,
0010
1000
0000
0000
,
1000
0010
0001
1000
,
0010
0001
0000
0000
,
0001
0010
0100
1000
,
0010
0001
0100
1000
,
0001
0010
1000
0001
,
0000
0000
0000
0001
,
1000
0010
0100
1000
,
0010
0001
0000
0000
,
0001
0010
1000
0001
,
0010
1000
0000
0000
,
1000
0010
1000
0001
,
0010
1000
0100
0001
,
1000
0010
0001
1000
,
0110
1001
0100
1000
,
0001
0010
1000
0001
,
0010
1000
0100
0001
,
1000
0010
0001
1000
,
0010
0001
0100
1000
,
0001
0010
1000
0001
,
0010
1000
0100
0001
,
1000
0010
0001
1000
,
0010
0001
0100
1000
,
0001
0010
1000
0001
,
0010
1000
0100
0001
,
1000
0010
0001
1000
,
0010
0001
0100
1000
,
0001
0010
1000
0001
,
0010
1000
0000
0001
,
0000
0010
0001
1000
,
0010
0001
0100
1000
,
0001
0010
1000
0001
,
0010
0000
0000
0000
;

//---------------dance-single - ----------------
#NOTES:
     dance-single:
     :
     Challenge:
     8:
     0.509,0.535,0.282,0.060,0:
0000
0000
0000
0000
,
0001
0000
0010
0000
0001
0010
0001
0000
,
0001
0000
0100
0000
0010
1000
0010
0000
,
1000
0000
0001
0000
0100
0001
0100
0000
,
0001
0000
1000
0000
0100
0010
0100
0000
,
0010
0000
0001
0000
0010
0001
0010
0000
,
0001
0000
1000
0000
0100
0010
0001
0000
,
0010
0001
0010
0001
0010
0001
0010
0001
,
1000
0001
1000
0001
1000
0001
1000
0001
,
1000
0100
1000
0100
1000
0100
1000
0100
,
1000
0010
1000
0010
1000
0010
1000
0010
,
1000
0001
1000
0001
1000
0001
1000
0001
,
1000
0100
0010
0001
0010
0100
0010
0001
,
0100
0010
0100
0001
0010
0100
0010
0001
,
0100
0010
0100
0001
0100
0001
0100
0000
,
0001
1000
0001
1000
0001
1000
0001
1000
,
0100
1000
0100
1000
0100
1000
0100
1000
,
0010
1000
0010
1000
0010
1000
0010
1000
,
0010
0100
0010
0100
0010
0100
0010
0100
,
0001
0100
0001
0100
0001
0100
0001
0100
,
0001
1000
0001
1000
0001
1000
0001
1000
,
0010
1000
0010
1000
0010
0100
0010
1000
,
0100
0010
0100
0010
0001
0100
0010
0100
,
0101
0100
0101
0001
,
1001
1000
1100
1000
,
1010
0010
0110
0100
,
0101
0001
1001
1000
,
1100
0100
0110
0010
,
0011
0010
0110
0100
,
1100
1000
1001
0001
,
0011
0010
0000
0010
0011
0000
0001
0100
,
0001
0000
0100
0010
0100
0000
0001
1000
,
0001
0000
1000
0100
1000
0000
0010
0100
,
0000
0000
0000
0200
0000
0002
0300
2000
,
0000
0000
0000
0000
0000
0000
0000
3003
,
1000
0000
0010
0100
0000
0100
0000
0001
,
0000
1000
0000
0001
0000
0000
0100
0000
,
0001
0001
1000
0000
0100
0100
0010
0000
,
0100
0100
1000
0000
0001
0000
1000
0000
,
0010
0010
0100
0000
0001
0001
1000
0000
,
0001
0001
0010
0000
0001
0000
0100
0000
,
0001
1000
0010
0000
0100
0010
1000
0000
,
0001
1000
0100
0000
1000
0000
0010
0000
,
0100
0010
1000
0000
0001
0100
0001
0000
,
1000
0100
1000
0000
0010
0000
0100
0000
,
0010
1000
0100
1000
0010
1000
0100
0010
,
0001
0100
0010
0100
0001
0010
0100
0010
,
0001
0100
0001
0100
0001
1000
0001
1000
,
0001
0100
0001
0100
0001
1000
0001
1000
,
0001
1000
0010
1000
0001
1000
0010
1000
,
0001
0010
0001
1000
0001
0010
0001
1000
,
0010
0100
0010
0100
0010
1000
0010
1000
,
0001
1000
0001
1000
0001
0010
0001
0010
,
0001
0100
0001
0100
0001
0100
0001
0100
,
0001
1000
0001
1000
0001
1000
0001
1000
,
0100
1000
0100
1000
0100
1000
0100
1000
,
0010
1000
0010
1000
0010
1000
0010
1000
,
1100
0100
1000
0100
1000
0100
1000
0100
,
0110
0100
0010
0100
0010
0100
0010
0100
,
0011
0001
0010
0001
0010
0001
0010
0001
,
0011
0001
1000
0001
0010
0001
0100
0001
,
0101
0000
0100
0000
0101
0001
0001
0000
,
1001
0000
1000
0000
1100
1000
1000
0000
,
1010
0000
0010
0000
0110
0100
0100
0000
,
0101
0000
0001
0000
1001
0001
0001
0000
,
0101
0000
0100
0000
0101
0100
0100
0000
,
0101
0000
0010
0000
0110
0100
0101
0000
,
0101
0000
0001
0000
1001
1000
1100
0000
,
1100
1100
0000
1010
1010
0000
0010
0100
,
0010
0100
0010
0100
0010
0100
0010
0100
,
0001
0100
0001
0100
0001
0100
0001
0100
,
0001
1000
0001
1000
0001
1000
0001
1000
,
0001
1000
0100
1000
0100
1000
0100
1000
,
0010
0000
0010
0100
0000
0100
0000
0001
,
0000
0100
0000
0001
0000
0000
0002
0000
,
2000
0000
0000
3003
,
0010
0010
0100
0000
0001
0001
0100
0000
,
0202
0000
0000
0303
,
1000
0010
0100
0001
,
2002
0000
0000
3003
;
