#TITLE:Missing Pages;
#ARTIST:Seventh Day Slumber;
#BANNER:Missing Pages - Seventh Day Slumber.png;
#BACKGROUND:Missing Pages - Seventh Day Slumber-bg.png;
#LYRICSPATH:Missing Pages - Seventh Day Slumber.lrc;
#CDTITLE:.\CDTITLES\DP27TH.png;
#MUSIC:Missing Pages - Seventh Day Slumber.mp3;
#OFFSET:-3.775;
#SAMPLESTART:21.2;
#SAMPLELENGTH:12;
#BPMS:0=70;
#BGCHANGES:0=Missing Pages - Seventh Day Slumber.AVI=1=1=1=0,999=-=1=0=0=0;

//---------------dance-single - ----------------
#NOTES:
     dance-single:
     :
     Easy:
     2:
     0.163,0.141,0.013,0.027,0:
0000
0010
0001
1000
,
0001
0010
1000
0100
,
1000
0000
0100
0011
0000
0000
1000
0000
,
0010
0001
1000
0010
,
0001
1000
0010
0001
,
1000
0010
0001
1000
,
0010
0000
0001
1100
0000
0000
1000
0000
,
0001
1000
0010
0001
,
1000
0100
0010
1000
,
0001
1000
0010
0001
,
1000
0001
0010
0100
,
1000
0001
0010
1000
,
0001
1000
0010
0001
,
1000
0001
0010
1000
,
0002
0000
0000
0003
1000
0000
0010
0000
,
0001
0100
1000
0010
,
0001
0100
0010
0001
,
1000
0001
0010
1000
,
0001
0010
1000
1000
,
0001
1000
0010
0001
,
1000
0010
0001
1000
,
0010
0001
1000
0010
,
0001
0000
1000
0020
0000
0000
0000
0030
,
1000
0010
0001
0100
,
0010
1000
0010
1000
,
0001
0010
1000
0001
,
0010
0001
1000
0010
,
0001
1000
0010
0100
,
1000
0010
0001
1000
,
0010
1000
0001
1000
,
0020
0000
0000
0030
0001
0000
1000
0000
,
0010
0001
1000
0100
,
0010
0001
1000
0001
,
0010
0001
1000
0001
,
0010
0001
1000
0001
,
0010
1000
0001
1000
,
0010
0100
1000
0001
,
0010
1000
0001
1000
,
0020
0000
0000
0030
1000
0000
0010
0000
,
0001
0100
1000
0010
,
0001
0100
1000
0010
,
0001
0100
1000
0010
,
0001
0100
0000
0000
;

//---------------dance-single - ----------------
#NOTES:
     dance-single:
     :
     Hard:
     7:
     0.319,0.281,0.060,0.033,0.130:
0000
0000
0010
1000
0001
0010
1000
0010
,
0001
0000
0010
0001
1000
0001
0100
0001
,
1000
0000
0100
0011
0000
1001
1000
0000
,
0000
0010
0001
0010
1000
0001
0010
1000
,
0001
0010
1000
0001
0010
1000
0001
0010
,
1000
0000
0010
1000
0001
0010
1000
0001
,
0010
0001
0000
1100
0000
0000
0011
0101
,
1001
0000
1000
0001
0010
1000
0001
0010
,
1100
0000
0000
0001
0100
0000
0001
0000
0010
0000
0001
0000
1000
0000
0010
0000
,
0100
0000
0000
0001
1000
0000
0001
0000
0010
0000
1000
0010
0001
0000
0010
0000
,
1000
0000
0000
1000
0001
0000
1000
0000
0010
0000
0001
0010
0100
0000
0001
0000
,
1000
0000
0000
1000
0001
0000
1000
0000
0010
0000
0001
0000
1000
0000
0100
0000
,
0001
0000
0000
0001
1000
0000
0001
0000
0010
0000
1000
0010
0001
0000
0010
0000
,
1000
0000
0000
1000
0001
0000
1000
0000
0010
0000
0001
0100
1000
0000
0010
0000
,
0002
1000
0010
1003
0100
0001
0010
1000
,
0001
0000
0100
0001
1000
0001
0010
1000
,
0001
0000
1000
0000
0100
0000
1000
0000
0010
0000
1000
0010
0001
0000
0010
0000
,
1000
0000
0000
0000
0001
0000
1000
0001
0010
0000
0001
0000
1000
0000
0010
0000
,
0001
0000
1000
0000
0010
0000
0001
0000
1000
0001
0010
0000
1000
0001
1000
0000
,
0001
0000
0000
0000
1000
0000
0001
1000
0010
0000
1000
0000
0001
0000
0100
0000
,
1000
0000
0001
0000
0010
0000
1000
0010
0001
0000
0010
0000
1000
0010
0001
0000
,
0010
0000
0000
0000
0001
0100
1000
0000
0001
0000
1000
0000
0010
0000
0100
0000
,
1002
0000
0000
0000
1003
0000
1020
0000
0000
1000
0000
0000
1000
0000
0030
0000
,
1000
0000
0000
0000
0010
0000
1000
0000
0001
1000
0010
0000
0100
0000
1000
0000
,
0010
0000
0000
0000
1000
0000
0001
0010
1000
0000
0001
0000
1000
0000
0010
0000
,
0001
0000
0010
0001
1000
0010
0001
1000
,
0010
0000
0000
1000
0001
0000
0010
0000
1000
0000
0001
0000
0010
0100
1000
0000
,
0001
0000
0000
0100
1000
0000
0001
0000
0010
0000
1000
0000
0100
0000
0001
0000
,
1000
0000
0000
0000
0010
0000
1000
0000
0001
0000
1000
0010
1000
0000
0001
0000
,
0010
0000
0000
0001
1000
0000
0010
0000
0001
1000
0010
0000
1000
0000
0001
0000
,
0020
0000
1000
0030
0001
0010
1000
0001
,
0010
0000
0000
1000
0001
0000
0010
0000
1000
0000
0001
0000
0100
0000
0001
0000
,
0010
0000
0000
1000
0001
0000
0010
0000
1000
0100
0010
0000
0001
0010
1000
0000
,
0010
0000
1000
0000
0001
0000
0010
0000
1000
0001
0100
0000
0001
0000
1000
0000
,
0010
0000
0000
1000
0001
0000
0010
0000
1000
0000
0010
0000
0001
0000
1000
0001
,
0010
0000
0000
0001
1000
0000
0010
0000
0001
0000
0100
0000
1000
0000
0001
0000
,
0010
0000
0000
0010
0100
0000
0001
0000
1000
0100
0010
0000
0001
0010
1000
0000
,
0010
0000
0000
0001
1000
0000
0010
0000
0001
0000
0100
0000
1000
0000
0100
0000
,
0020
0000
0000
0000
0000
0030
0000
0000
1000
0000
0001
0000
0010
0000
1000
0000
,
0001
0100
1000
0010
,
0001
0100
1000
0010
,
0001
0100
1000
0010
,
0001
0100
0000
0000
;

//---------------dance-single - ----------------
#NOTES:
     dance-single:
     :
     Medium:
     5:
     0.266,0.225,0.020,0.033,0:
0000
0000
0010
1000
0001
0010
1000
0010
,
0001
0000
0010
0001
1000
0001
0100
0001
,
1000
0000
0100
0011
0000
1001
1000
0000
,
0000
0010
0001
0010
1000
0001
0010
1000
,
0001
0010
1000
0001
0010
1000
0001
0010
,
1000
0000
0010
1000
0001
0010
1000
0001
,
0010
0000
0001
1100
0000
0000
1000
0010
,
0001
0000
1000
0001
0010
1000
0001
0010
,
1000
0000
0100
0001
0010
0001
1000
0010
,
0001
0000
1000
0001
0010
1000
0001
0010
,
1000
0000
0001
1000
0010
0001
0100
0001
,
1000
0000
0001
1000
0010
0001
1000
0100
,
0001
0000
1000
0001
0010
1000
0001
0010
,
1000
0000
0001
1000
0010
0001
1000
0010
,
0002
0000
0000
0003
1000
0001
0010
1000
,
0001
0000
0100
0001
1000
0001
0010
1000
,
0001
1000
0100
1000
0010
1000
0001
0010
,
1000
0000
0001
1000
0010
0001
1000
0010
,
0001
1000
0010
0001
1000
0000
1000
0000
,
0001
0000
1000
0001
0010
1000
0001
0100
,
1000
0001
0010
1000
0001
0010
1000
0001
,
0010
0000
0001
1000
0001
1000
0010
0100
,
0002
0000
1003
0020
0000
0000
0000
0030
,
1000
0000
0010
1000
0001
0010
0100
1000
,
0010
0000
1000
0001
0010
0001
1000
0010
,
0001
0000
0010
0001
1000
0010
0001
1000
,
0010
0000
0001
0010
1000
0001
0010
1000
,
0001
0000
1000
0001
0010
1000
0100
0001
,
1000
0000
0010
1000
0001
0010
1000
0001
,
0010
0000
1000
0010
0001
0010
1000
0001
,
0020
0000
0000
0030
0001
0010
1000
0001
,
0010
0000
0001
0010
1000
0000
0100
0001
,
0010
0000
0001
0000
1000
0010
0001
1000
,
0010
0000
0001
0010
1000
0100
0001
1000
,
0010
0000
0001
0010
1000
0010
0001
1000
,
0010
0000
1000
0010
0001
0100
1000
0001
,
0010
0000
0100
0001
1000
0010
0001
1000
,
0010
0000
1000
0010
0001
0100
1000
0100
,
0020
0000
0000
0030
1000
0001
0010
1000
,
0001
0100
1000
0010
,
0001
0100
1000
0010
,
0001
0100
1000
0010
,
0001
0100
0000
0000
;

//---------------dance-single - ----------------
#NOTES:
     dance-single:
     :
     Challenge:
     7:
     0.329,0.328,0.247,0.227,0.346:
0001
0010
0001
1000
0100
1000
0010
1000
,
1001
0000
0000
0000
0001
0000
0010
0001
0000
1000
0000
0100
0000
0000
1000
0000
,
1100
0000
0000
0000
1010
0000
0010
0000
0000
0010
0100
0000
0101
0000
0000
0000
,
0001
0000
1000
0000
0001
0100
0000
0010
0000
0100
0000
0001
0000
1000
0000
0100
,
0000
1000
0000
0010
0000
0100
0000
0010
0000
0010
0000
0100
0000
0001
0000
0000
,
1001
0000
0000
0000
1000
0100
0000
1000
0000
0010
0000
0100
0000
0000
0100
0000
,
0001
0000
0000
0000
0001
0000
1000
0000
0000
1000
0100
0000
1100
0000
1010
0000
,
0220
0330
0010
0000
0010
0000
0100
0000
0001
0000
1000
0001
0000
1000
0000
1010
,
0000
0000
0000
0000
0010
0000
0100
0000
0001
0000
0001
1000
0000
0100
0000
1100
,
0000
0000
0000
0000
1000
0000
0001
0000
0010
0000
0010
0001
0000
1000
0000
1001
,
0000
0000
0000
0000
0001
0000
0100
0000
0010
0000
0100
0001
0000
1000
0000
1100
,
0000
0000
0000
0000
0100
0000
1000
0000
0010
0000
0100
0010
0000
1000
0000
1001
,
0000
0000
0000
0000
0001
0000
0100
0000
0001
0000
1000
0010
0000
0100
0000
0101
,
0000
0000
0001
1000
0002
0000
1000
0023
,
0000
0000
0000
0000
0002
0000
0033
0000
0100
0000
0010
1000
0000
0001
0000
2000
,
0000
0000
0000
0000
3001
0000
0001
0010
0000
0010
0000
0100
0000
0010
0000
0001
,
0000
1000
0000
0001
0000
1000
0000
0100
0000
0100
0000
1000
0000
0010
0000
2000
,
0000
0000
3000
0000
1000
0001
0000
0100
0000
0100
0000
0010
0000
0000
0100
0000
,
0002
0000
0000
0000
0100
0000
0200
0000
0303
0100
0010
0000
2020
0000
3030
0000
,
1000
0000
0100
0000
1000
0000
1000
0001
0000
0100
0000
0010
0000
0100
0000
0001
,
0000
0001
0000
1000
0000
0100
0000
1000
0000
0001
0000
0100
0000
0001
0000
0000
,
0101
0000
0000
0000
0100
0010
0000
0100
0000
0001
0000
0000
1000
0000
0100
0000
,
1100
0000
0000
0000
1000
0000
1020
0000
0030
0010
0100
0000
0110
0000
0101
0000
,
0220
0000
0330
0000
0001
0000
1000
0000
0100
0000
0100
1000
0000
0001
0000
1001
,
0000
0000
0000
1000
0010
0000
0100
0000
0010
0000
1000
0001
0000
0010
0000
0011
,
0000
0000
0000
0010
0001
0000
1000
0000
0001
0000
0010
0100
0000
0010
0000
1001
,
0000
0000
0000
0001
0100
0000
0001
0000
1000
0000
0001
0010
0000
0100
0000
0110
,
0000
0000
0000
0000
0010
0000
0001
0000
1000
0000
0010
0100
0000
0010
0000
1010
,
0000
0000
0000
0000
1000
0000
0100
0000
1000
0000
0001
0100
0000
0001
0000
1100
,
0000
0000
1000
0010
0020
0000
1000
2000
,
3030
0000
0010
0000
0110
0000
0100
0000
0001
0000
0001
1000
0000
0100
0000
2200
,
0000
3300
1000
0010
1000
0010
0100
0001
,
0202
0000
0303
1000
0010
0100
0010
1000
,
2020
3030
1000
0001
0010
0001
0010
0001
,
2200
3300
1000
0001
0010
0100
1000
0001
,
0202
0303
0100
0010
1000
0010
0100
0010
,
2020
3030
1000
0001
0010
0001
0100
0001
,
0022
0033
0010
0001
1000
0010
0100
0010
,
0220
0000
0000
0000
0000
0000
0330
0000
0001
0000
1000
0001
0000
0100
0000
0202
,
0000
0000
0000
0000
,
0000
0000
0000
0000
,
0303
0000
0000
0000
;
