#TITLE:Made to Love;
#ARTIST:tobyMac;
#BANNER:Made to Love - tobyMac.png;
#BACKGROUND:Made to Love - tobyMac-bg.png;
#LYRICSPATH:;
#CDTITLE:.\CDTITLES\DP2TOBY1.png;
#MUSIC:Made to Love - tobyMac.mp3;
#OFFSET:-1.818;
#SAMPLESTART:33.5;
#SAMPLELENGTH:12;
#BPMS:0=170,356=85;
#BGCHANGES:0=Made to Love - tobyMac.AVI=1=1=1=0,999=-=1=0=0=0;

//---------------dance-single - ----------------
#NOTES:
     dance-single:
     :
     Easy:
     1:
     0.106,0.167,0.043,0.014,0:
0000
0000
0000
0000
,
1000
0000
0000
0000
,
1000
0000
0000
0000
,
0001
0000
0000
0000
,
0001
0000
0000
0000
,
1000
0000
0000
0000
,
1000
0000
0000
0000
,
0001
0000
0000
0000
,
0001
0000
0000
0000
,
0001
0000
0000
0000
,
1000
0000
0000
0000
,
1000
0000
0000
0000
,
0001
0000
0000
0000
,
1000
0000
0000
0000
,
1000
0000
0000
0000
,
0011
0000
0000
0000
,
0100
0000
0000
0000
,
1010
0000
0000
0000
,
0100
0000
0000
0000
,
1001
0000
0000
0000
,
1000
0000
0000
0000
,
0010
0000
0000
0000
,
0001
0000
0000
0000
,
1010
0000
0000
0000
,
0100
0000
0000
0000
,
0011
0000
0000
0000
,
0100
0000
0000
0000
,
1001
0000
0000
0000
,
1000
0000
0000
0000
,
0010
0000
0000
0000
,
0001
0000
0000
0000
,
1000
0000
0000
0000
,
0010
0000
0000
0000
,
0001
0000
0000
0000
,
0100
0000
0000
0000
,
0010
0000
0000
0000
,
1000
0000
0000
0000
,
0001
0000
0000
0000
,
0100
0000
0000
0000
,
1000
0000
0000
0000
,
0010
0000
0000
0000
,
0001
0000
0000
0000
,
1000
0000
0000
0000
,
0010
0000
0000
0000
,
0001
0000
0000
0000
,
1000
0000
0000
0000
,
1000
0000
0000
0000
,
0010
0000
0000
0000
,
1000
0000
0000
0000
,
0001
0000
0000
0000
,
1000
0000
0000
0000
,
0010
0000
0000
0000
,
0100
0000
0000
0000
,
1000
0000
0000
0000
,
0010
0000
0000
0000
,
0002
0000
0000
0000
,
0000
0000
0000
0003
,
0010
0000
0000
0000
,
0100
0000
0000
0000
,
1000
0000
0000
0000
,
0001
0000
0000
0000
,
0010
0000
0000
0000
,
0100
0000
0000
0000
,
0001
0000
0000
0000
,
1000
0000
0000
0000
,
0010
0000
0000
0000
,
1000
0000
0000
0000
,
0001
0000
0000
0000
,
0100
0000
0000
0000
,
1000
0000
0000
0000
,
0001
0000
0000
0000
,
0010
0000
0000
0000
,
0100
0000
0000
0000
,
2000
0000
0000
0000
,
0000
3000
0000
0000
,
0010
0000
0000
0000
,
0100
0000
0000
0000
,
0001
0000
0000
0000
,
1000
0000
0000
0000
,
0010
0000
0000
0000
,
0001
0000
0000
0000
,
1000
0000
0000
0000
,
0100
0000
0000
0000
,
0010
0000
0000
0000
,
1000
0000
0000
0000
,
0001
0000
0000
0000
,
1000
0000
0000
0000
,
0010
0000
0000
0000
,
0001
0000
0000
0000
,
1000
0000
0100
0000
,
0001
0000
0010
0000
,
1000
0000
0100
0000
,
0010
0000
0100
0000
;

//---------------dance-single - ----------------
#NOTES:
     dance-single:
     :
     Hard:
     7:
     0.381,0.469,0.253,0.058,0.007:
0000
0000
0100
1000
,
0010
0001
0100
1000
,
0100
0010
0100
0010
,
0100
1000
0001
0001
,
0010
0000
0010
0000
1000
0000
0001
1000
,
0001
0001
0010
1000
,
0001
0000
0100
0000
1000
0000
0001
0010
,
0100
1000
0010
0001
,
0100
1000
0001
0001
,
1000
0010
0001
1000
,
0001
1000
0001
0000
,
1000
0100
1000
0001
,
0010
0100
0010
0000
,
0010
0001
0010
1000
,
0100
0000
0000
0011
,
0000
0100
1000
0001
,
0100
1000
0001
0100
,
1010
0100
0001
1000
,
0100
0001
0010
1100
,
0010
1100
0010
1100
,
0010
1100
0010
1100
,
0001
0010
1000
0200
,
0000
0300
0001
0100
,
1010
0100
0001
1000
,
0110
0001
1000
0100
,
0011
0100
1000
0010
,
0101
1000
0010
0100
,
1001
0000
0010
0000
,
1100
0010
0001
0100
,
1010
0000
0100
0000
,
0001
0000
0010
0001
,
1100
0010
0001
1000
,
0110
0001
1000
0100
,
0011
1000
0010
0001
,
1100
0010
0001
1000
,
0010
0001
0000
0000
,
0000
1000
0010
1000
,
0011
0000
1000
0001
,
0110
0000
0010
0000
,
1001
0010
0100
1000
,
0010
0000
0001
0000
0010
0000
0100
0000
0000
0010
0000
0000
,
1001
0100
0010
0001
,
1000
0010
0001
1000
,
0000
0001
1000
0010
,
0001
1000
0010
0000
,
1000
0010
0001
0100
,
2000
0000
3100
0000
,
0010
1000
0001
1000
,
0010
0001
1000
0010
,
0001
1000
0100
0001
,
1000
0010
0001
1000
,
0001
1000
0001
1000
,
0001
1000
0001
1000
,
0010
1000
0001
2000
,
0000
3000
0100
0010
,
0002
0000
0000
0000
,
0000
0000
0003
0000
,
0110
0100
1000
0001
,
1100
0010
0001
0010
,
1100
0001
0010
1000
,
0011
1000
0100
0010
,
0101
0000
1000
0000
,
0100
0001
1000
0010
,
0001
0000
0010
0000
,
1000
0010
0001
1000
,
0110
0001
0100
1000
,
0011
1000
0010
0100
,
1001
0100
0010
0001
,
1100
0010
0001
0010
,
0100
0001
0000
0000
,
0001
0010
1000
0001
,
0010
0000
0001
0010
,
0100
0000
0010
0001
,
2000
0000
0000
0000
0000
0000
0000
3000
,
0001
0000
1000
0001
,
0010
0001
1000
0001
,
0100
0001
1000
0001
,
0001
1000
0010
0001
,
1000
0010
0001
1000
,
0010
0000
1000
0010
,
0002
0010
0003
0100
,
1000
0010
0001
1000
,
0100
0001
1000
0001
,
0010
1000
0001
0010
,
1000
0001
0010
1000
,
0001
0000
0100
0001
,
1000
0010
0001
1000
,
0020
0000
0000
0030
,
0002
0000
0000
0000
0000
0003
0000
0000
,
0010
0100
0000
1000
1001
0001
0000
0000
,
0010
0100
0000
0001
1001
1000
0001
0000
,
0010
0100
0000
0001
1001
1000
0000
0000
,
0010
0100
0000
0001
1001
0000
0000
0000
;

//---------------dance-single - ----------------
#NOTES:
     dance-single:
     :
     Medium:
     3:
     0.214,0.301,0.138,0.029,0:
0000
0000
0000
0000
,
1000
0000
0001
0000
,
1000
0000
0010
0000
,
0001
0000
1000
0000
,
0001
0000
0010
0000
,
1000
0000
0001
0000
,
1000
0000
0100
0000
,
0001
0000
1000
0000
,
0001
0000
1000
0000
,
0001
0000
0010
0000
,
1000
0000
0001
0000
,
1000
0000
0100
0000
,
0001
0000
0100
0000
,
1000
0000
0001
0000
,
1000
0000
0100
0000
,
0011
0000
1000
0000
,
0100
0000
0001
0000
,
1010
0000
0001
0000
,
0100
0000
0010
0000
,
1001
0000
0010
0000
,
1000
0000
0001
0000
,
0010
0000
1000
0000
,
0001
0000
0100
0000
,
1010
0000
0001
0000
,
0110
0000
1000
0000
,
0011
0000
1000
0000
,
0101
0000
0010
0000
,
1001
0000
0010
0000
,
1100
0000
0001
0000
,
1010
0000
0100
0000
,
0001
0000
0010
0000
,
1100
0000
0001
0000
,
0110
0000
1000
0000
,
0011
0000
0010
0000
,
1100
0000
0001
0000
,
0110
0000
0100
0000
,
1000
0000
0010
0000
,
0011
0000
1000
0000
,
0110
0000
0010
0000
,
1001
0000
0100
0000
,
0010
0000
0100
0000
,
1001
0000
0010
0000
,
1000
0000
0001
0000
,
0010
0000
1000
0000
,
0001
0000
0010
0000
,
1000
0000
0001
0000
,
2000
0000
0000
0000
0100
3000
0000
0000
,
0010
0000
0001
0000
,
0010
0000
1000
0000
,
0001
0000
0100
0000
,
1000
0000
0001
0000
,
0001
0000
0001
0000
,
0001
0000
0001
0000
,
1000
0000
0001
0000
,
0010
0000
1000
0000
,
0002
0000
0000
0000
,
0000
0000
0000
0003
,
0010
0000
1000
0000
,
0100
0000
0001
0000
,
1000
0000
0010
0000
,
0001
0000
0100
0000
,
0010
0000
1000
0000
,
0100
0000
1000
0000
,
0001
0000
0010
0000
,
1000
0000
0001
0000
,
0010
0000
0100
0000
,
1000
0000
0010
0000
,
0001
0000
0010
0000
,
0100
0000
0001
0000
,
1000
0000
1000
0000
,
0001
0000
1000
0000
,
0010
0000
0001
0000
,
0100
0000
0010
0000
,
2000
0000
0000
0000
,
0000
0000
0000
3000
0000
0000
0000
0000
,
0010
0000
1000
0000
,
0100
0000
1000
0000
,
0001
0000
0010
0000
,
1000
0000
0001
0000
,
0010
0000
1000
0000
,
0001
0000
0010
0000
,
1000
0000
0001
0000
,
0100
0000
1000
0000
,
0010
0000
0001
0000
,
1000
0000
0010
0000
,
0001
0000
0100
0000
,
1000
0000
0001
0000
,
0010
0000
1000
0000
,
0002
0000
0000
0000
0000
0000
0000
0003
,
1000
0001
0100
0010
,
0001
0100
0010
0001
,
1000
0010
0100
1000
,
0010
0010
0100
0000
;

//---------------dance-single - ----------------
#NOTES:
     dance-single:
     :
     Challenge:
     8:
     0.551,0.504,0.290,0.224,0.007:
0000
0000
0000
0000
,
1001
0000
0000
0010
0010
0000
0000
1000
,
1000
0000
0000
0010
0010
0000
1000
0000
,
0001
0000
0000
0100
0100
0000
0000
0001
,
0001
0000
0000
1000
1000
0000
0001
0000
,
0101
0010
0110
0100
,
0101
0001
1001
0001
,
0100
0000
0010
1000
0100
0010
0100
1000
,
0010
0100
0010
1000
0100
0000
0010
0000
,
0001
0100
0010
0100
0001
0010
0100
0010
,
0001
0100
0100
0010
0010
0000
0100
0000
,
0010
1000
0100
0010
0100
1000
0001
1000
,
0001
1000
0100
0010
0100
0000
0010
0000
,
0001
0101
1010
1001
,
0220
0000
0000
0000
0000
0000
0000
0330
,
0110
0000
0001
1000
0001
0100
0010
0100
,
0001
1000
0100
0010
0100
0000
1100
0000
,
0100
1000
0000
1000
0010
0000
0010
0100
,
0010
1000
0100
0010
0100
0000
0011
0000
,
0010
0011
0001
0101
,
0001
1001
0001
0101
,
0100
0010
1000
0100
0000
0100
0010
0000
,
0000
0000
0101
0000
0001
1000
0001
0100
,
0001
0000
0110
0000
0010
0100
0010
0100
,
0010
0000
1001
0000
0100
0010
0100
0010
,
0010
0000
1001
0000
0100
0000
0001
1000
,
0001
0000
0110
0000
0010
0100
0001
1000
,
0002
0000
0100
0000
0100
0000
0010
0010
,
0000
1000
1000
0000
0103
0000
2000
0000
,
0010
0000
0010
0000
0100
0000
0100
0001
,
0000
0001
3100
0000
0001
0100
0010
1000
,
0100
0000
0101
0000
1000
0010
1000
0100
,
0010
0000
0110
0000
0001
0100
0010
0100
,
0001
0000
0101
0000
0010
0100
0010
1000
,
0100
0000
1100
0000
0001
1000
0100
1000
,
1000
0000
0010
0000
0100
0000
0010
0010
,
0000
1000
1000
0000
0001
0000
0100
0000
,
0010
1000
0100
0000
0010
0100
1000
0000
,
0010
0100
0010
0000
1000
0100
0010
0000
,
0010
0001
0001
0100
,
0001
0000
1001
0000
0101
0000
0110
0000
0000
0000
0000
0000
,
0100
0001
1000
0001
0100
0000
0010
0100
,
0010
0100
0001
1000
1000
0000
0001
0000
,
0100
0000
0010
1000
0100
0010
0100
1000
,
0010
1000
0010
0100
0010
0000
1000
0000
,
0002
0000
0100
0000
0100
0000
0010
0010
,
0000
1003
2000
0000
0001
0000
0000
3000
,
0001
0000
1000
0000
0001
0000
1000
0001
,
0100
0000
0010
1000
0100
0000
0010
0000
,
0100
0010
0001
0010
0001
0000
0001
0100
,
0001
1000
0101
0200
,
0001
0000
0002
0300
1000
0000
2000
0003
,
0010
0000
0020
3000
0100
0000
0100
0030
,
0100
0000
0001
0001
0000
1000
1000
0000
,
0002
0000
0100
0003
0200
0000
0010
0300
,
0220
0000
0000
0000
,
0000
0000
0000
0000
0000
0000
0000
0330
,
1001
0000
1000
0000
0010
1000
0010
0100
,
0010
0000
1010
0000
0010
0100
0010
1000
,
0100
0000
0110
0000
0010
0000
0001
0100
,
0001
0000
1001
0000
0001
0100
0010
0100
,
0200
0000
0001
0300
0002
0000
1000
1003
,
0000
2000
0010
3000
0010
0000
0100
0000
,
0010
0000
0020
0000
1030
0000
1000
0001
,
0000
0001
0100
0000
0010
1000
0001
0100
,
0100
0000
0001
0000
0100
0010
1000
0100
,
0010
0000
0010
0000
0001
0100
0010
1000
,
0100
0000
0100
0000
1000
0001
0100
0010
,
0100
0000
0100
0000
0001
1000
0100
2000
,
0000
0000
0020
0000
3030
0000
0100
0001
,
0000
0001
1000
0000
0001
0000
1000
0000
,
0100
0010
0100
0000
1000
0010
0100
0000
,
0010
1000
0100
0000
0010
0001
0100
0010
,
0200
0000
0000
0000
,
0001
0000
0000
0300
0001
1000
0001
0100
,
0010
0000
0010
0000
1000
0000
0001
0100
,
0010
0000
1000
0000
0001
0100
0001
1000
,
0002
0000
1000
0000
1000
0000
0010
0010
,
0000
0100
0100
0000
1000
0003
0110
0000
,
0100
0000
0100
0000
0010
0000
0010
1000
,
0000
1000
0010
0000
0010
1000
0100
0010
,
0010
0000
1001
0000
0100
0010
1000
0100
,
0100
0000
1001
0000
0001
0100
0001
0100
,
0001
0000
0101
0000
1000
0100
1000
0100
,
1000
0000
1010
0000
0010
1000
0010
1000
,
0010
0000
0110
0000
1000
0000
1000
0001
,
0000
0001
0010
0000
0001
0000
0100
0000
,
0001
0010
0001
0000
0200
0000
0000
0000
,
0002
0300
2000
0003
,
0002
0000
0000
3000
0100
0100
0100
0000
,
0020
0000
0003
0000
0100
0100
0002
0000
,
0030
0000
0000
2003
0010
0010
0000
0000
,
3020
0000
0200
0030
0001
0001
0310
0000
;
