#TITLE:Love;
#ARTIST:Day of Fire;
#BANNER:Love - Day of Fire.png;
#BACKGROUND:Love - Day of Fire-bg.png;
#LYRICSPATH:Love - Day of Fire.lrc;
#CDTITLE:.\CDTITLES\DP2DAY.png;
#MUSIC:Love - Day of Fire.mp3;
#OFFSET:-1.814;
#SAMPLESTART:37.26;
#SAMPLELENGTH:12;
#BPMS:0=155;
#BGCHANGES:0.08=Love - Day of Fire.AVI=0.992=1=1=0,999=-=1=0=0=0;

//---------------dance-single - ----------------
#NOTES:
     dance-single:
     :
     Easy:
     2:
     0.095,0.183,0.014,0.020,0:
0000
0000
0000
0000
,
0000
0000
0001
0000
,
0000
0000
1000
0000
,
0000
0000
0001
0000
,
0000
0000
1000
0000
,
0000
0000
0001
0000
,
0000
0000
1000
0000
,
0000
0000
0001
0000
,
0000
0000
1000
0000
,
0000
0000
0001
0000
,
0000
0000
1000
0000
,
0000
0000
0010
0000
,
0000
0000
0001
0000
,
0000
0000
1000
0000
,
0000
0000
0010
0000
,
0000
0000
0100
0000
,
0000
0000
0001
0000
,
0000
0000
0100
0000
,
0000
0000
0010
0000
,
0000
0000
0001
0000
,
0000
0000
1000
0000
,
0000
0000
0100
0000
,
0000
0000
0010
0000
,
0000
0000
0200
0000
,
0000
0300
1000
0000
,
0000
0000
0001
0000
,
0000
0000
0010
0000
,
0000
0000
0100
0000
,
0000
0000
0001
0000
,
0000
0000
1000
0000
,
0000
0000
0010
0000
,
0000
0000
1000
0000
,
0000
0000
0001
0000
,
0000
0000
1000
0000
,
0000
0000
0010
0000
,
0000
0000
0100
0000
,
0000
0000
1000
0000
,
0000
0000
0001
0000
,
0000
0000
0010
0000
,
0000
0000
1000
0000
,
0000
0000
0001
0000
,
0000
0000
1000
0000
,
0000
0000
0010
0000
,
0000
0000
0100
0000
,
0000
0000
1000
0000
,
0000
0000
0010
0000
,
0000
0000
0001
0000
,
0000
0000
0100
0000
,
0000
0000
1000
0000
,
0000
0000
0010
0000
,
0000
0000
0001
0000
,
0000
0000
0200
0000
,
0000
0300
1000
0000
,
0000
0000
0010
0000
,
0000
0000
0001
0000
,
0000
0000
0100
0000
,
0000
0000
1000
0000
,
0000
0000
0001
0000
,
0000
0000
0010
0000
,
0000
0000
0200
0000
,
0000
0300
1000
0000
,
0000
0000
0001
0000
,
0000
0000
0010
0000
,
0000
0000
1000
0000
,
0000
0000
0001
0000
,
0000
0000
0100
0000
,
0000
0000
1000
0000
,
0000
0000
0010
0000
,
0000
0000
0001
0000
,
0000
0000
1000
0000
,
0000
0000
0010
0000
,
0000
0000
0100
0000
,
0000
0000
1000
0000
,
0000
0000
0001
0000
,
0000
0000
0010
0000
,
0000
0000
0100
0000
,
0000
0000
0001
0000
,
0000
0000
1000
0000
,
0000
0000
0010
0000
,
1001
0000
0010
0000
,
1000
0000
0001
0000
,
0110
0000
0001
0000
,
1000
0000
0010
0000
,
0000
0000
1000
0000
,
0000
0000
0001
0000
,
0000
0000
0100
0000
,
0000
0000
0010
0000
,
0000
0000
0010
0000
,
0000
0000
1000
0000
,
0000
0000
0010
0000
;

//---------------dance-single - ----------------
#NOTES:
     dance-single:
     :
     Hard:
     8:
     0.353,0.460,0.048,0.082,0:
0000
0000
0000
0000
,
0010
1000
0001
0100
0010
1000
0001
0000
,
0001
1000
0001
1000
0001
1000
0001
1000
,
0000
0000
0010
0001
1000
0100
0010
0000
,
1000
0010
1000
0010
1000
0010
1000
0000
,
0010
1000
0001
1000
0010
0100
0010
0000
,
0100
0010
1000
0010
0001
0100
1000
0001
,
0010
1000
0001
1000
,
0100
1000
0001
0100
,
0010
0001
1000
0001
,
0100
0001
1000
0100
,
0010
0001
1000
0001
,
0100
0001
1000
0010
,
0001
0100
1000
0010
,
0001
1000
0010
0010
,
0100
0001
0100
1000
,
0001
1000
0001
0010
,
0100
0001
0100
1000
,
0010
1000
0010
1000
,
0001
1000
0001
0010
,
1000
0100
1000
0001
,
0100
0001
0100
0001
,
0010
1000
0010
1000
,
0002
0000
0000
0003
0200
0000
0000
0000
,
0000
1300
1000
0001
,
0010
1000
0001
0010
,
1000
0100
0010
0001
,
2000
0000
0100
3001
,
0100
0010
0001
1000
,
0010
0100
1000
0001
,
0100
0001
0010
1000
,
0001
0010
1000
0001
,
0010
1000
0001
0010
,
0100
0001
1000
0100
,
0010
1000
0010
1000
,
0001
1000
0100
1000
,
0010
0001
1000
0001
,
0010
1000
0001
0010
,
0100
1000
0010
1000
,
0001
0010
1000
0001
,
0010
1000
0001
1000
,
0001
0100
1000
0001
,
0100
0001
0010
1000
,
0001
0010
0100
1000
,
0001
0010
1000
0100
,
0001
1000
0010
0001
,
1000
0010
0001
0100
,
1000
0001
0100
0001
,
0010
0100
1000
0001
,
0100
1000
0010
0001
,
1000
0010
0001
0100
,
2000
0000
3200
0000
,
0000
1300
1000
0010
,
0001
1000
0010
0100
,
1000
0010
0001
1000
,
0010
0001
0100
1000
,
0001
0010
1000
0100
,
0010
1000
0001
1000
,
0100
1000
0010
1000
,
0001
0010
0200
0000
,
0000
1300
1000
0001
,
0010
1000
0001
0010
,
0100
1000
0010
1000
,
0001
0010
1000
0100
,
0010
1000
0001
0010
,
1000
0001
0100
0001
,
0010
0100
1000
0010
,
0001
1000
0010
0001
,
1000
0010
0001
1000
,
0020
0000
0000
0000
0000
0000
0000
0002
,
0000
0000
0033
0000
,
0001
0010
0100
1000
,
0001
0010
1000
0100
,
0020
0000
0000
0000
0000
0000
0000
0002
,
0000
0000
0033
1000
,
0001
0100
0001
1000
,
0010
0001
1000
0010
,
0020
0000
0000
0000
0000
0000
0000
2000
,
0000
0000
3030
0000
,
1001
0000
0110
0000
,
1100
0000
0011
0000
,
1010
0000
0101
0000
,
1010
0100
0010
1000
,
0001
0010
1000
0100
,
0010
1000
0001
0010
,
1000
0001
0100
0010
,
0001
1000
0010
0100
,
1000
0001
0010
0100
,
0001
0010
1000
0100
,
0010
1000
0001
1000
,
0100
1000
0000
0000
;

//---------------dance-single - ----------------
#NOTES:
     dance-single:
     :
     Medium:
     3:
     0.174,0.243,0.027,0.061,0:
0000
0000
0000
0000
,
0010
0000
0100
0000
,
0010
0000
0100
0000
,
1000
0000
0001
0000
,
1000
0000
0001
0000
,
0010
0000
0001
0000
,
0100
0000
0001
0000
,
0010
0000
0001
0000
,
0100
0000
0001
0000
,
0010
0000
1000
0000
,
0100
0000
1000
0000
,
0010
0000
1000
0000
,
0100
0000
1000
0000
,
0001
0000
1000
0000
,
0001
0000
0010
0000
,
0100
0000
0100
0000
,
0001
0000
0001
0000
,
0100
0000
0100
0000
,
0010
0000
0010
0000
,
0001
0000
0001
0000
,
1000
0000
1000
0000
,
0100
0000
0100
0000
,
0010
0000
0010
0000
,
0002
0000
0000
0003
0200
0000
0000
0000
,
0000
0300
1000
0000
,
0010
0000
0001
0000
,
1000
0000
0010
0000
,
2000
0000
0000
0000
0100
3000
0000
0000
,
0100
0000
0001
0000
,
0010
0000
1000
0000
,
0100
0000
0010
0000
,
0001
0000
1000
0000
,
0010
0000
0001
0000
,
0100
0000
1000
0000
,
0010
0000
0010
0000
,
0001
0000
0100
0000
,
0010
0000
1000
0000
,
0010
0000
0001
0000
,
0100
0000
0010
0000
,
0001
0000
1000
0000
,
0010
0000
0001
0000
,
0001
0000
1000
0000
,
0100
0000
0010
0000
,
0001
0000
0100
0000
,
0001
0000
1000
0000
,
0001
0000
0010
0000
,
1000
0000
0001
0000
,
1000
0000
0100
0000
,
0010
0000
1000
0000
,
0100
0000
0010
0000
,
1000
0000
0001
0000
,
2000
0000
0000
3000
0200
0000
0000
0000
,
0000
0300
1000
0000
,
0001
0000
0010
0000
,
1000
0000
0001
0000
,
0010
0000
0100
0000
,
0001
0000
1000
0000
,
0010
0000
0001
0000
,
0100
0000
0010
0000
,
0001
0000
0200
0000
,
0000
0300
1000
0000
,
0010
0000
0001
0000
,
0100
0000
0010
0000
,
0001
0000
1000
0000
,
0010
0000
0001
0000
,
1000
0000
0100
0000
,
0010
0000
1000
0000
,
0001
0000
0010
0000
,
1000
0000
0001
0000
,
0020
0000
0000
0000
,
0000
0000
0000
0030
0000
0000
0000
0000
,
0001
0000
0100
0000
,
0001
0000
1000
0000
,
0020
0000
0000
0000
,
0000
0000
0000
0030
0000
0000
0000
0000
,
1000
0000
0100
0000
,
1000
0000
0001
0000
,
0020
0000
0000
0000
,
0000
0000
0000
0030
0000
0000
0000
0000
,
1001
0000
0010
0000
,
1100
0000
0001
0000
,
0110
0000
0001
0000
,
1010
0000
0010
0000
,
0001
0000
1000
0000
,
0010
0000
0001
0000
,
1000
0000
0100
0000
,
0001
0000
0010
0000
,
1000
0000
0010
0000
,
0001
0000
1000
0000
,
0010
0000
0001
0000
;

//---------------dance-single - ----------------
#NOTES:
     dance-single:
     :
     Challenge:
     9:
     0.510,0.557,0.394,0.211,0:
0000
0000
0000
0000
,
0010
1000
0001
0100
0010
0100
1001
0000
,
1000
0001
0100
0010
0100
0001
0000
0100
,
0000
0010
1000
0000
0001
0100
0110
0000
,
0010
1000
0001
0100
0001
0100
0101
0000
,
1000
0100
0010
0100
1000
0100
1100
0000
,
1000
0010
0100
0010
1000
0010
0000
0000
,
0010
0000
0100
0000
0001
1000
0000
0001
,
0000
0100
0000
0110
0000
0000
0100
0000
,
0001
0000
1000
0000
0001
0100
0000
0010
,
0000
0100
0000
0001
0000
1000
0000
2002
,
0000
0000
0000
3003
0100
0010
0000
0100
,
0000
0010
0000
1000
0000
0100
0000
0010
,
0000
0100
1000
0000
0010
0100
0010
0000
,
1000
0010
0100
0000
0010
1000
0100
0010
,
0100
0000
1000
0000
0010
0100
0000
0010
,
0000
1000
0000
2020
0000
3030
1000
0000
,
0010
0000
0100
0000
0010
1000
0000
0001
,
0000
0100
0000
0010
0000
0100
0000
0202
,
0000
0303
0001
0000
1000
0010
0000
0100
,
0000
0010
0000
1000
0000
0100
0000
0010
,
0000
0010
0100
0000
0010
0001
0100
0000
,
0010
0100
0001
0000
0100
0010
1000
0100
,
1100
1000
1010
0010
,
0110
0100
0101
0001
,
1001
1001
1010
1010
,
1010
1010
1001
1001
,
0100
0100
0110
0110
,
0100
0100
0101
0101
,
1000
1001
1000
1100
,
0010
0110
0010
0011
,
0100
0010
0100
0001
1000
0001
0101
0000
,
0010
0100
0001
1000
0001
0100
0101
0000
,
0100
0010
0100
0001
0100
0010
0110
0000
,
0010
1000
0100
0010
0100
0010
0000
0010
,
0000
0001
0100
0000
0010
1000
0000
0100
,
0000
0010
0000
0100
0000
0100
1000
0000
,
0010
0000
0100
0000
0010
1000
0000
0001
,
0000
0100
0000
0010
0000
0100
0000
2002
,
0000
0000
0000
3003
0001
1000
0000
0100
,
0000
1000
0000
0010
0000
0100
0000
0010
,
0000
0010
1000
0000
0001
0100
0010
0000
,
0100
0001
1000
0000
0100
0010
0100
0000
,
0010
0000
0001
0000
0100
0010
0000
0100
,
0000
0001
0000
2002
0000
0003
0001
3000
,
0001
0000
0100
0000
0010
0100
0000
0001
,
0000
1000
0000
0001
0000
0100
0000
0010
,
0000
0100
0001
0000
1000
0100
0000
0010
,
0000
0010
0000
0100
0000
0100
0000
0010
,
0000
0010
0001
0000
0100
0000
0010
0000
,
0100
0001
0010
0000
0100
0010
0001
0100
,
0110
0010
1001
1000
,
1001
0001
0110
0100
,
0110
0010
1010
1000
,
1100
0100
0110
0010
,
0011
0011
0101
0101
,
1001
1001
0101
0101
,
1010
1010
0110
0110
,
1010
1010
1010
1010
,
0010
1000
0010
0000
1000
0100
1000
0000
,
0100
1000
0100
0000
1000
0001
1000
0000
,
0001
0100
0001
0000
0100
0001
0100
0000
,
0010
0100
0010
0000
0100
0010
0100
0000
,
0010
1000
0100
0000
0010
0001
0100
0000
,
0010
0100
0001
0000
0010
0100
0010
0000
,
0001
0100
0010
0000
1000
0100
0010
0000
,
0100
1000
0010
0000
0100
0010
1000
0000
,
0100
0010
0001
0100
0010
0100
0010
0000
,
0100
0001
1000
0000
1000
0002
0000
1000
,
0000
1000
1000
0000
1000
1000
1000
0000
,
0100
0100
0100
0000
1000
1000
1003
0000
,
0010
0000
0100
0000
0010
1000
0000
0100
,
0000
0010
0001
0000
0001
2000
0000
0001
,
0000
0001
0001
0000
0100
0100
0100
0000
,
0001
0001
0001
0000
0100
0100
3100
0000
,
0010
0100
0010
0001
,
1000
0000
0001
0000
0001
2000
0000
0001
,
0000
0001
0001
0000
0010
0010
0010
0000
,
0001
0001
0001
0000
0100
0100
3100
0000
,
1002
0000
0000
0000
0200
0000
0000
0003
,
0020
0000
0000
0300
2000
0000
0000
0030
,
0002
0000
0000
3000
0200
0000
0000
0303
,
0002
2003
3002
0203
,
0310
0010
1000
1000
,
0001
0000
0100
0010
0100
0001
0000
0001
,
0000
0001
1000
0000
1000
0000
0010
0000
,
0100
0000
0010
1000
0100
0010
0000
0000
,
0020
0000
0001
0000
0002
0030
0100
0000
,
0200
0003
0010
0000
0020
0300
1000
0000
,
2000
0030
0100
0000
0200
3000
0010
0000
,
0020
0300
0001
0000
0002
0030
0100
0000
,
0103
0000
0000
0000
;
