#TITLE:Live Like We're Alive;
#ARTIST:Nevertheless;
#BANNER:Live Like We're Alive - Nevertheless.png;
#BACKGROUND:Live Like We're Alive - Nevertheless-bg.png;
#LYRICSPATH:Live Like We're Alive - Nevertheless.lrc;
#CDTITLE:.\CDTITLES\DP2NEVER.png;
#MUSIC:Live Like We're Alive - Nevertheless.mp3;
#OFFSET:-2.964;
#SAMPLESTART:61.9;
#SAMPLELENGTH:15.8;
#BPMS:0=158.053;
#BGCHANGES:0=Live Like We're Alive - Nevertheless.AVI=1=1=1=0,999=-=1=0=0=0;

//---------------dance-single - ----------------
#NOTES:
     dance-single:
     :
     Easy:
     3:
     0.200,0.221,0.136,0.007,0:
0001
0000
0000
1000
,
0000
0010
0000
0001
,
0000
1000
0000
0010
,
0000
0001
0000
1000
,
0000
0001
0000
0010
,
0000
1000
0000
0001
,
0000
1000
0000
0011
,
0000
0100
0000
1000
,
0000
0010
0000
0001
,
0000
1000
0000
0010
,
0000
0001
0000
1000
,
0000
0001
0000
0010
,
0000
1000
0000
0001
,
0000
0010
0000
1000
,
0000
0001
0000
0010
,
0000
1000
0000
0001
,
0000
0100
0000
1000
,
0000
0001
0000
0010
,
0000
1000
0000
0001
,
0000
1000
0000
0010
,
0000
0001
0000
1000
,
0000
0001
0000
0010
,
0000
1000
0000
0001
,
0000
0010
0000
1000
,
0000
0001
0000
0010
,
0000
1000
0000
0001
,
0000
0010
0000
1000
,
0000
0001
0000
0010
,
0000
1000
0000
0001
,
0000
0010
0000
1000
,
0000
0100
0000
0011
,
0000
0100
0000
1010
,
0000
0001
0000
0110
,
0000
1000
0000
0011
,
0000
1000
0000
0011
,
0000
1000
0000
0011
,
0000
0100
0000
1010
,
0000
0100
0000
1010
,
0000
0001
1000
0000
,
0011
1100
0000
1000
,
0000
0010
0000
0001
,
0000
1000
0000
0010
,
0000
1000
0000
0001
,
0000
1000
0000
0010
,
0000
0001
0000
1000
,
0000
0001
0000
0010
,
0000
1000
0000
0001
,
0000
0100
0000
0010
,
0000
1000
0000
0002
,
0000
0000
0000
0000
,
0000
0000
0000
0003
,
1000
0001
0000
1000
,
0000
0001
0000
0010
,
0000
1000
0000
0001
,
0000
1000
0000
0010
,
0000
0100
0000
1000
,
0000
0001
0000
0010
,
0000
0001
0000
1000
,
0000
0100
0000
0001
,
0000
1000
0000
0010
,
0000
0001
0000
1000
,
0000
0001
0000
0010
,
0000
0001
0000
1000
,
0000
0010
0000
0001
,
0000
0100
0000
0010
,
0000
1000
0000
0001
,
0000
1000
0000
0010
,
0000
0001
0000
1000
,
0000
0001
0000
0010
,
0000
1000
0000
0001
,
0000
1000
0000
0010
,
0000
0100
0000
0001
,
0000
0100
0000
0010
,
0000
0001
0000
1010
,
0000
0001
0000
0110
,
0000
0001
0000
1001
,
0000
0001
0000
0110
,
0000
1000
0000
0011
,
0000
0010
0000
1100
,
0000
0100
0000
0110
,
0000
0001
0000
1000
,
0000
0001
0010
0000
,
0101
1010
0000
1000
,
0000
0001
0000
0010
,
0000
1000
0000
0001
,
0000
1000
0000
0010
,
0000
0001
0000
1000
,
0000
0001
0000
0010
,
0000
1000
0000
0001
,
0000
0010
0000
1000
,
0000
0001
0000
0010
,
0000
1000
0000
0001
,
0000
0010
0000
1000
;

//---------------dance-single - ----------------
#NOTES:
     dance-single:
     :
     Hard:
     8:
     0.460,0.536,0.190,0.054,0:
0000
0000
0000
1000
,
0000
0001
0000
1000
,
0000
0001
0000
1000
,
0001
1000
0001
1000
,
0001
1000
0001
1000
,
0011
1000
0101
1000
,
0011
1000
0101
0011
,
1000
0100
0001
1000
,
0001
0000
0001
0010
0100
1000
0000
0000
,
0010
0001
0010
0000
1000
0001
1000
0010
,
0000
1000
0000
0001
0010
0100
0010
0000
,
1000
0000
0010
0000
0001
0000
1000
0001
,
0010
0000
1000
0001
0010
1000
0002
0000
,
0000
0003
0010
0000
0001
0010
2000
0000
,
0000
3000
0000
0000
1000
0001
0010
0000
,
0001
0000
1000
0000
0001
1000
0001
0000
,
0010
0000
0100
0000
0001
0010
1000
0000
,
0010
0000
0001
0000
1000
0100
0010
0000
,
0001
0000
1000
0010
0001
0010
1000
0000
,
0100
0000
1000
0000
0001
1000
0010
0000
,
1000
0000
0001
0000
0010
0001
1000
0000
,
0010
0000
0001
0000
1000
0001
0010
0000
,
0001
0000
1000
0001
0010
0000
1000
0000
,
0001
0000
0110
0001
0010
0100
1000
0000
,
0100
0000
0001
0100
1000
0001
0010
0000
,
0001
0010
1000
0000
0001
0010
1000
0001
,
0000
1000
0000
0010
0100
0001
0010
1000
,
0010
1000
0001
0000
1000
0001
0010
0000
,
0001
0000
1000
0001
0010
1000
0002
0000
,
0000
0000
0000
0000
0000
0003
1000
0100
,
0010
0001
0101
0000
1000
0100
0011
0010
,
1000
0000
0100
0000
0001
0020
1000
0030
,
0001
1000
0001
0000
1000
0000
0110
0000
,
0001
1000
0100
0011
,
0100
0000
1000
0000
0010
0100
0011
0000
,
0100
1000
0100
0011
,
0100
1000
0100
0000
0001
0000
1010
0000
,
0000
1000
0100
0000
0001
0000
1010
0000
,
0000
0001
0010
1000
0100
0000
0000
0000
,
0011
0000
1100
0000
0001
0000
1000
0010
,
0001
0010
0100
1000
0100
0000
1000
0000
,
1010
0000
1001
0000
0011
0000
1000
0001
,
1000
0000
0001
1000
0001
0000
0000
1000
,
0010
0000
1000
0001
1000
0000
0010
1000
,
0000
0001
0010
1000
0001
0010
1000
0000
,
0010
0001
1000
0010
,
1000
0000
1000
0000
0010
1000
0001
0000
,
0010
0000
0100
0001
0000
0000
0010
0100
,
0000
1000
0100
0002
,
0000
0000
0000
0000
,
0000
0000
0000
0000
0003
0000
1000
0010
,
0001
0100
1000
0010
0001
0100
1000
0010
,
0001
0100
1000
0010
0001
1000
0010
0001
,
0100
1000
0010
0001
0100
1000
0010
0001
,
0100
1000
0010
0001
0100
1000
0002
0000
,
0000
0000
0000
0000
0000
0003
1000
0100
,
0010
1000
0001
0010
1000
0001
0010
0000
,
1000
0001
1000
0000
0001
1000
0001
0000
,
0010
0000
0100
0000
0001
1000
0001
0000
,
0010
0000
0100
0000
0001
1000
0001
0000
,
0010
0000
0100
0000
0001
1000
0001
0000
,
0010
0000
0100
0000
0001
1000
0001
0000
,
0010
0000
0100
0000
0001
1000
0001
0000
,
0010
0000
0100
0000
0001
1000
0001
0000
,
0010
0000
0100
0000
0001
1000
0001
0000
,
0010
0000
0100
0000
0001
1000
0001
0000
,
0010
1000
0000
0100
0010
0000
0001
1000
,
0000
0001
0010
0000
1000
0001
0100
0000
,
0010
1000
0000
0001
1000
0000
0001
0010
,
0000
1000
0001
0000
0010
1000
0001
0000
,
0001
1000
0000
0001
0010
0000
0001
0100
,
0000
0100
0001
0000
1000
0010
0002
0000
,
0000
0000
0000
0003
,
0000
0100
0001
1010
,
1000
0010
0001
0000
1000
0001
0110
0000
,
1000
0001
0100
1001
,
0010
0001
0000
0000
1000
0000
0110
0000
,
0001
1000
0000
0000
0100
0000
0011
0000
,
1000
0010
0000
0000
0001
0000
1100
0000
,
0001
0100
0000
0000
0001
0000
0110
0000
,
1000
0001
0000
0000
0010
0000
1000
0000
,
0000
0001
0000
0000
0010
0000
0000
0000
,
0101
0000
1020
0000
0030
0000
1000
0001
,
0010
0000
0001
0010
1000
0000
0010
1000
,
0001
0000
1000
0010
0001
0000
0010
1000
,
0010
0000
1000
0010
0001
0010
0000
1000
,
0001
0000
0010
0001
0010
0000
1000
0000
,
0001
0010
0000
0010
1000
0000
0010
0000
,
0000
1000
0010
0001
,
0100
0010
0000
0001
,
1000
0001
0100
0010
,
0100
0000
1000
0000
0000
0000
0001
1000
,
0000
0000
0010
0100
0000
0000
1000
0000
;

//---------------dance-single - ----------------
#NOTES:
     dance-single:
     :
     Medium:
     5:
     0.307,0.347,0.136,0.041,0:
0000
0000
0000
1000
,
0000
0001
0000
1000
,
0000
0001
0000
1000
,
0001
1000
0001
1000
,
0001
1000
0001
1000
,
0010
1000
0010
0001
,
0100
1000
0100
0011
,
1000
0100
0000
1000
,
0001
0010
1000
0001
,
0010
1000
0000
0010
,
1000
0001
0100
1000
,
0010
0001
0000
0010
,
0001
1000
0010
0002
,
0003
0010
0001
2000
,
0000
0000
0000
3000
0000
0000
0010
0000
,
0001
1000
0000
0001
,
0010
0100
0001
1000
,
0010
0001
0000
0010
,
0001
1000
0001
1000
,
0100
1000
0000
0010
,
1000
0001
0010
1000
,
0000
0001
0000
0010
,
0000
1000
0010
0001
,
0010
0001
0010
1000
,
0000
0001
1000
0010
,
0001
1000
0010
0001
,
0000
0010
0001
1000
,
0010
0001
1000
0010
,
0001
1000
0010
0002
,
0000
0000
0000
0000
0000
0000
1000
0003
,
0010
0100
1000
0011
,
0000
0100
0001
1010
,
0000
0001
1000
0110
,
0000
1000
0100
0011
,
0000
1000
0100
0011
,
0000
1000
0100
0011
,
0000
0100
0001
1010
,
0000
0100
0001
1010
,
0000
0001
1000
0000
,
0011
1100
0000
1000
,
0001
0010
1000
0001
,
0010
1000
0000
0010
,
0001
1000
0010
0001
,
0000
1000
0000
0010
,
0000
0001
0010
1000
,
0000
0001
0000
0010
,
0000
1000
0010
0001
,
0000
0100
0000
0010
,
0000
1000
0100
0002
,
0000
0000
0000
0000
,
0000
0000
0003
1000
,
0001
1000
0001
1000
,
0001
1000
0001
0010
,
0100
0010
0100
0010
,
0100
0010
0100
0002
,
0000
0000
0000
0000
0000
0003
1000
0000
,
0010
0001
1000
0010
,
1000
0001
1000
0000
0001
1000
0001
0000
,
0010
0000
0100
0000
0001
1000
0001
0000
,
0010
0000
0100
0000
0001
1000
0001
0000
,
0010
0000
0100
0000
0001
1000
0001
0000
,
0010
0000
0100
0000
0001
1000
0001
0000
,
0010
0000
0100
0000
0001
1000
0001
0000
,
0010
0000
0100
0000
0001
1000
0001
0000
,
0010
0000
0100
0000
0001
1000
0001
0000
,
0010
0000
0100
0000
0001
1000
0001
0000
,
0010
0000
0000
0100
0000
0000
0010
0000
,
0000
0001
1000
0000
,
0010
0000
0000
1000
0000
0000
0010
0000
,
0000
1000
0000
0000
0010
0000
0000
0000
,
0001
0000
0000
1000
0000
0000
0010
0000
,
0000
0100
1000
0002
,
0000
0000
0000
0000
,
0003
0100
0001
1010
,
0000
0001
1000
0110
,
0000
0001
0100
1001
,
0000
0001
1000
0110
,
0000
1000
0100
0011
,
0000
0010
0001
1100
,
0000
0100
0001
0110
,
0000
0001
0010
1000
,
0000
0001
0000
0000
0010
0000
0000
0000
,
0101
1010
0000
1000
,
0010
0001
1000
0010
,
0001
1000
0000
0001
,
0010
1000
0001
0010
,
0000
0001
0000
1000
,
0000
0001
1000
0010
,
0000
1000
0000
0001
,
0000
0010
0000
1000
,
0000
0001
0000
0010
,
0000
1000
0000
0001
,
0000
0010
0000
1000
;

//---------------dance-single - ----------------
#NOTES:
     dance-single:
     :
     Challenge:
     8:
     0.472,0.474,0.360,0.190,0:
0000
0000
0000
0000
0000
0000
0001
1000
,
0001
0000
1000
0000
0010
0000
0100
0010
,
0100
0000
0010
0000
0100
0000
0001
0100
,
0001
0000
0100
0000
0010
0000
0100
0010
,
0100
0000
0010
0000
1000
0000
0010
1000
,
0010
0000
1000
0000
0010
0000
1000
0100
,
1000
0000
0100
0000
1000
0000
0010
1000
,
0010
0100
0010
0000
1000
0000
0010
0100
,
0000
0010
0000
0100
0000
0001
0000
1000
,
0001
0000
0100
0000
0010
0000
0100
0001
,
0000
1000
0000
0100
0000
0010
0000
0010
,
0100
0000
0010
0000
0001
0000
1000
0001
,
0000
0100
0000
0010
0000
1000
0000
0100
,
0010
0000
0100
0000
0010
0001
0000
0001
,
0100
0000
0010
0100
0010
1000
0100
0000
,
0010
0000
0100
0000
1000
0000
0001
1000
,
0000
0010
0000
0100
0000
0010
0000
0010
,
1000
0000
0001
0000
0100
0000
0010
0100
,
0000
0001
0000
1000
0000
0100
0000
0010
,
0100
0000
0010
0000
0001
0000
0010
0100
,
0000
0010
0000
0001
0000
0100
0000
0010
,
1000
0000
0100
0000
0010
0100
0000
0100
,
1000
0000
0010
0100
0010
1000
0001
0000
,
0110
0000
0000
1010
0000
0000
1001
0000
,
0000
0101
0000
0000
0110
0000
0001
0000
,
1001
0000
0000
0110
0000
0000
1010
0000
,
0000
0101
0000
0000
1010
0000
0001
0000
,
0101
0000
0000
1001
0000
0000
0100
0010
,
0000
1001
0000
0000
0101
0000
0100
0000
,
0100
0000
0001
0000
1000
0000
0010
1000
,
0001
1000
0001
1000
0001
1000
0101
0000
,
0100
0101
0001
1001
,
1000
1010
0100
0220
,
0300
0130
0000
0220
0000
0030
0020
0000
,
0300
0130
0000
0001
0000
0000
0101
0000
,
0001
1000
0001
1100
,
1000
0001
1000
2020
,
0030
3010
0000
0000
0110
0000
0220
0000
,
0300
0130
0000
0000
0001
0000
0000
0000
,
2000
0000
0002
0000
3003
0000
0100
0010
,
0100
0010
0100
0010
0100
0001
0000
0000
,
2000
0000
0002
3003
1000
0000
0100
0010
,
0100
0010
0100
0010
0100
1000
0000
0000
,
1000
0001
0100
0001
,
0001
1000
0000
1000
0001
0000
0100
0000
,
0010
0000
0100
0000
0001
0000
1000
0100
,
1000
0000
0010
1000
0010
0000
1000
0000
,
0010
0100
0010
1000
,
0100
0000
0010
0000
0100
0000
1000
0001
,
1000
0001
1000
0001
1000
0000
0100
1000
,
0100
1000
0100
1000
0100
0000
1000
0010
,
1000
0010
1000
0010
1000
0000
0010
0100
,
0010
0100
0010
0100
0010
0000
0100
0001
,
0100
0001
0100
0001
0100
0000
0001
1000
,
0001
1000
0001
1000
0001
0000
1000
0001
,
0010
0001
0010
0001
0010
0000
0001
0100
,
0001
0100
0001
0100
0001
0100
0001
0000
,
0001
1000
0001
0100
,
0010
0000
0010
0000
0010
0000
1000
0001
,
0000
0100
0000
0010
0000
0010
0100
0000
,
1001
0000
0001
0000
0100
0000
0010
0100
,
0000
0001
0000
1000
0000
0100
0000
1000
,
0100
0000
1000
0000
0010
0000
1000
0010
,
0000
0100
0000
0010
0000
1000
0000
0001
,
0100
0000
0010
0000
0100
0001
0000
0010
,
0001
0100
0010
1000
,
0110
0000
0000
0010
0000
0000
0011
0000
,
0000
0001
0000
0000
0101
0000
0100
0000
,
0010
0000
0000
1010
0000
0000
1000
0000
,
0000
1001
0000
0000
1000
0000
0100
0000
,
0110
0000
0000
0010
0000
0000
0010
0001
,
0000
0001
0000
0000
0100
0000
1001
0000
,
0001
0000
0001
0100
0100
0000
0110
0000
,
0100
0001
0100
0001
1000
0000
1001
0000
,
0100
0101
0100
0110
,
0100
1100
1000
2020
,
0030
3010
0000
0100
0000
0000
0202
0000
,
0003
0301
0000
1001
0000
0000
0011
0000
,
0001
0011
0001
0101
,
0001
1001
1000
2200
,
0300
3100
0000
0000
0110
0000
0110
0000
,
0000
0101
0000
0000
0101
0000
0000
0000
,
1001
0000
0110
0000
0000
0000
0010
1000
,
0001
0100
0010
0100
0001
0001
0000
0000
,
1000
0000
0001
0000
0100
0000
0010
1000
,
0001
0100
0010
1000
0010
1000
0000
0000
,
0010
0100
0010
2000
,
0000
0002
3000
0000
0200
0000
0000
0000
,
0000
0000
0000
0000
0000
0000
0303
0010
,
1000
0001
0100
0220
,
0000
0030
0002
0000
0300
0000
2000
0000
,
0003
0002
3000
0000
0200
0000
0000
0000
,
0000
0000
0000
0000
,
0303
0000
0000
0000
;
