#TITLE:LifeSong;
#ARTIST:Casting Crowns;
#BANNER:LifeSong - Casting Crowns.png;
#BACKGROUND:LifeSong - Casting Crowns-bg.png;
#LYRICSPATH:LifeSong - Casting Crowns.lrc;
#CDTITLE:.\CDTITLES\DP2CROWN1.png;
#MUSIC:LifeSong - Casting Crowns.mp3;
#OFFSET:-3.785;
#SAMPLESTART:40.4;
#SAMPLELENGTH:12;
#SELECTABLE:YES;
#BPMS:0=56,52=112;
#BGCHANGES:-1=LifeSong - Casting Crowns.AVI=0.94=1=1=0,999=-=1=0=0=0;

//---------------dance-single - ----------------
#NOTES:
     dance-single:
     :
     Easy:
     2:
     0.123,0.163,0.027,0.014,0.010:
0000
0000
0000
0000
,
0010
1000
0000
0000
0000
0000
0000
0000
,
1000
0001
0000
0000
0000
0000
0000
0000
,
0001
1000
0000
0000
0000
0000
0000
0000
,
0010
0100
0000
0000
0000
1000
0002
0000
,
0013
0000
0000
0000
0000
0000
0000
0000
0000
0000
0000
0001
0000
0010
0000
0000
,
0000
1000
0000
0000
0000
0000
0000
0000
0000
0000
0001
0000
0010
0000
0000
0000
,
2000
3000
0001
1000
,
0010
0001
1000
0010
,
0001
1000
0010
0001
,
1000
0010
0001
1000
,
0010
0001
1000
0100
,
0010
1000
0001
1000
,
0010
0000
0001
0000
,
1000
0000
0001
0000
,
0110
0000
1000
0000
,
0001
0000
1000
0000
,
0010
0000
1000
0000
,
0001
0000
1000
0000
,
0110
0000
0001
0000
,
1000
0000
0001
0000
,
0010
0000
1000
0000
,
0001
0000
0010
0000
,
1000
0000
0100
0000
,
0010
0000
0001
0000
,
1000
0000
0001
0000
,
0010
0000
0100
0000
,
1001
0000
0100
0000
,
0010
0000
0001
0000
,
1000
0000
0010
0000
,
0001
0000
0100
0000
,
0010
0000
0100
0000
,
0001
0000
0100
0000
,
0010
0000
0001
0000
,
1000
0000
0010
0000
,
0001
0000
1000
0000
,
0010
0000
0001
0000
,
1000
0000
0001
0000
,
0010
0000
1000
0000
,
0001
0000
1000
0000
,
0010
0000
0010
0000
,
1000
0000
0100
0000
,
0010
0000
1000
0000
,
0001
0000
0001
0000
,
0010
0000
0001
0000
,
1000
0000
0001
0000
,
0010
0000
1000
0000
,
0001
0000
1000
0000
,
0010
0000
1000
0000
,
0001
0000
1000
0000
,
0001
0000
1000
0000
,
0010
0000
0001
0000
,
1000
0000
0010
0000
,
1001
0000
0100
0000
;

//---------------dance-single - ----------------
#NOTES:
     dance-single:
     :
     Hard:
     7:
     0.308,0.343,0.135,0.122,0.071:
0000
0000
0000
0000
,
0011
0000
1100
0000
0000
0001
0000
0010
0000
0000
0000
0000
0000
0000
0000
0000
,
1010
0000
0101
0000
0000
0010
0000
1000
0000
0000
0000
0000
0000
0000
0000
0000
,
1001
0000
0110
0000
0000
1000
0000
0001
0000
0000
0000
0000
0000
0000
0000
0000
,
0011
0000
1010
0000
0000
0001
0000
0010
0000
0000
1000
0000
0002
0000
0000
0000
,
0013
0000
0000
0000
0000
0000
0000
0000
0000
0000
0000
0001
0010
0001
0000
0010
,
1000
0000
0000
0000
0000
0000
0000
0000
0000
0000
0001
1000
0001
0010
0000
0001
,
2010
0000
0000
0000
3000
0000
0010
0000
0001
0000
0010
0001
1000
0000
0001
1000
,
0010
0000
1000
0000
0001
0000
0010
0000
1000
0000
0001
1000
0010
0000
1000
0000
,
0001
0000
1000
0000
0001
0000
1000
0000
0001
0000
1000
0010
0001
0000
0010
0000
,
1000
0000
0100
0000
0010
0000
1000
0000
0001
0000
0010
1000
0100
0000
0010
0000
,
0100
0000
0010
0000
0001
0000
0010
0000
1000
0000
0001
1000
0100
0000
0001
0000
,
0010
0000
0001
0000
1000
0000
0010
0000
0001
0000
0100
0000
1000
0000
0001
1000
,
0020
0000
0000
0000
0000
0030
0000
0000
1002
0000
0020
0000
0000
0000
0033
0000
,
2000
0000
0000
0000
0010
0001
3000
0000
,
0110
0000
0001
0000
1000
0001
0010
0000
,
0001
0000
0100
0000
1000
0010
0001
0000
,
0020
0000
0031
2000
0010
0000
0000
0000
,
3002
0000
0000
0000
1000
0010
0000
0003
,
0110
0000
1000
0000
0001
1000
0010
0000
,
1000
0000
0100
0000
0001
0010
0100
0000
,
0010
0000
0100
0000
1000
0001
0100
0000
,
0001
0000
0100
0000
0010
0001
0100
0000
,
1000
0000
0001
0000
0100
1000
0001
0000
,
0010
0000
1000
0000
0001
1000
0010
0000
,
2000
0000
0000
0000
0000
3000
0000
0000
2001
0000
0010
0000
0001
0000
0000
0000
,
3020
0000
0000
0000
1000
1000
0000
0030
,
1001
0000
0010
0000
0100
1000
0001
0000
,
0010
0000
1000
0000
0001
1000
0010
0001
,
1000
0000
0001
0000
0010
0001
1000
0000
,
0001
0000
0010
0000
0100
1000
0001
1000
,
0010
0000
1000
0000
0100
0001
0010
0000
,
0001
0000
1000
0000
0100
1000
0001
0000
,
0010
0000
1000
0000
0001
0000
0010
0001
,
1000
0000
0001
0000
0010
0001
1000
0000
,
0001
0000
0010
0001
1000
0000
0100
0000
,
0010
0000
0100
1000
0001
0000
0001
0010
,
1000
0000
0010
0000
1001
0000
0100
1000
,
0010
0000
0001
0010
1000
0000
0010
1000
,
0001
0000
0100
0001
1000
0000
0001
0010
,
1000
0100
0010
0001
,
1000
0000
0001
1000
0100
0000
0001
1000
,
0010
0000
0001
0010
1000
0000
0010
1000
,
0001
0000
0100
0000
0001
1000
0100
0000
,
0010
0000
0100
0000
0001
1000
0010
0001
,
1000
0000
0010
0000
0001
0010
0100
0000
,
0010
0000
0001
0000
1000
0100
0010
1000
,
0001
0000
0100
0000
1000
0010
0001
0000
,
0010
0000
0001
0000
1000
0001
0010
1000
,
0001
0000
0100
0000
1000
0001
0010
0000
,
0001
0000
0010
0001
1000
0000
0001
1000
,
2020
0000
0000
3000
0000
0000
0030
0000
1001
0000
0022
0000
0000
0000
0033
0000
,
2020
0000
0000
0000
0000
0000
0030
0000
0001
0000
0010
0000
0000
3000
0000
0000
,
1001
0010
0100
0000
;

//---------------dance-single - ----------------
#NOTES:
     dance-single:
     :
     Medium:
     4:
     0.227,0.307,0.027,0.095,0.044:
0000
0000
0000
0000
,
0010
0000
1000
0000
0000
0001
0000
0010
0000
0000
0000
0000
0000
0000
0000
0000
,
1000
0000
0001
0000
0000
0010
0000
1000
0000
0000
0000
0000
0000
0000
0000
0000
,
0001
0000
1000
0000
0000
0010
0000
0001
0000
0000
0000
0000
0000
0000
0000
0000
,
0010
0000
0100
0000
0000
1000
0000
0001
0000
0000
1000
0000
0002
0000
0000
0000
,
0013
0000
0000
0000
0000
0000
0000
0000
0000
0000
0000
0001
0010
0001
0000
0000
,
1000
0000
0000
0000
0000
0000
0000
0000
0000
0000
0001
1000
0001
0010
0000
0001
,
2000
0000
3000
0010
0001
0010
1000
0001
,
0010
1000
0001
0010
1000
0001
0010
1000
,
0001
1000
0001
1000
0001
1000
0001
0010
,
1000
0100
0010
1000
0001
0010
0100
0010
,
0100
0010
0001
0010
1000
0001
0100
0001
,
0010
0001
1000
0010
0001
0100
1000
0001
,
0020
0000
0000
0030
0002
0000
0000
0003
,
2000
0000
0000
3000
,
0110
0001
1000
0010
,
0001
0100
1000
0001
,
0020
0000
0000
0030
2000
0000
0000
3000
,
0002
0000
0000
0003
,
0110
1000
0001
0010
,
1000
0100
0001
0100
,
0010
0100
1000
0100
,
0001
0100
0010
0100
,
1000
0001
0100
0001
,
0010
1000
0001
0010
,
2000
0000
0000
3000
0002
0000
0000
0003
,
0020
0000
0000
0000
0000
0030
0000
0000
,
1001
0010
0100
0001
,
0010
1000
0001
0010
,
1000
0001
0010
1000
,
0001
0010
0100
0001
,
0010
1000
0100
0010
,
0001
1000
0100
0001
,
0010
1000
0001
0010
,
1000
0001
0010
1000
,
0001
0010
1000
0100
,
0010
0100
0001
0001
,
1000
0010
0001
0100
,
0010
0001
1000
0010
,
0001
0100
1000
0001
,
0010
0100
0010
0001
,
1000
0001
0100
0001
,
0010
0001
1000
0010
,
0001
0100
0001
0100
,
0010
0100
0001
0010
,
1000
0010
0001
0100
,
0010
0001
1000
0010
,
0001
0100
1000
0001
,
0010
0001
1000
0010
,
0001
0100
1000
0010
,
0001
0010
1000
0001
,
0020
0000
0000
0030
0002
0000
0000
0003
,
2000
0000
0000
0000
0000
3000
0000
0000
,
1001
0010
0100
0000
;

//---------------dance-single - ----------------
#NOTES:
     dance-single:
     :
     Challenge:
     7:
     0.393,0.593,0.128,0.270,0.189:
0000
0000
0000
0000
,
0001
1000
0001
1000
0000
1000
0000
0220
0000
0000
0000
0000
0000
0000
0330
0000
,
0001
1000
0100
0010
0000
0100
0000
0220
0000
0000
0000
0000
0000
0000
0330
0000
,
0010
0001
1000
0100
0000
0010
0000
0022
0000
0000
0000
0000
0000
0000
0033
0000
,
0100
0001
1000
0001
0000
0100
0000
0220
0000
0000
0000
0000
0000
0000
0330
0000
,
0100
0000
0100
0100
0001
0000
1000
1000
0001
0000
0100
0000
0010
0000
0100
0000
,
0001
0000
1000
1000
0001
0000
0100
0100
0010
0000
0100
0000
0001
0000
1000
0000
,
0100
0000
0010
0010
0100
0000
1000
1000
0100
0000
1000
0000
0010
0000
0100
0000
,
0100
0000
0010
0010
0100
0000
0001
0001
1000
0000
0100
0000
0010
0000
0100
0000
,
1000
0001
1000
0001
1000
0001
1000
0001
1000
0001
1000
0001
1000
0001
1000
0001
,
1000
0010
1000
0010
1000
0010
1000
0010
1000
0010
1000
0010
1000
0010
1000
0010
,
0100
0010
0100
0010
0100
0010
0100
0010
0100
0010
0100
0010
0100
0010
0100
0010
,
0100
0001
0100
0001
0100
0001
0100
0001
0100
0001
0100
0001
0100
0001
0100
0001
,
0202
0000
0000
0303
2002
0000
0000
3003
,
2200
0000
0000
0000
0000
3300
0020
0200
,
0330
0100
0001
0000
1000
1000
0100
0000
,
0010
0010
0100
0000
1000
1000
0001
0001
,
0202
0000
0000
0303
0220
0000
0000
0330
,
2020
0000
0000
0000
0000
3030
0002
0200
,
0303
0100
0010
0000
0100
0100
0001
0000
,
1000
1000
0100
0000
0010
0010
0100
0000
,
1000
0001
1000
0010
0100
0010
0110
0000
,
0001
0100
0010
0100
0001
1000
1001
0000
,
0100
0010
0100
0001
0010
0001
0011
0000
,
0100
0010
0100
1000
0100
1000
0010
0100
,
0220
0000
0000
0330
0202
0000
0000
0303
,
2002
0000
0000
0000
0000
3003
0020
0130
,
0001
0100
0001
1000
0000
0001
0000
0100
,
0000
0010
0010
0000
0100
0100
0001
0000
,
1000
0001
0100
0010
0000
0100
0000
0001
,
0000
1000
1000
0000
0100
0100
0010
0000
,
0100
1000
0001
1000
0000
0100
0000
0010
,
0000
0010
0001
0000
0100
0100
0010
0000
,
0100
0001
1000
0001
0000
0100
0000
0010
,
0000
0010
1000
0000
0001
1000
0002
0000
,
1003
0000
1000
1000
0010
0000
1000
1000
,
0001
0100
0010
0100
,
0001
0000
1000
1000
0001
0000
1000
1000
,
0100
0010
0100
1000
,
0001
0000
0010
0010
0001
0000
0010
0010
,
0100
0010
0001
1000
,
0100
0000
0010
0010
0100
0000
0010
0010
,
0001
0100
0010
1000
,
0001
0100
0001
0100
0001
0100
0001
0100
,
0001
0100
0001
0100
0001
0100
0001
0100
,
0010
0100
0010
0100
0010
0100
0010
0100
,
0010
0100
0010
0100
0010
0100
0010
0100
,
0010
1000
0010
1000
0010
1000
0010
1000
,
0010
1000
0010
1000
0010
1000
0010
1000
,
0010
1000
0001
1000
0001
1000
0001
1000
,
0001
1000
0001
1000
0001
1000
0001
1000
,
2002
0000
0000
3003
0220
0000
0000
0330
,
0202
0000
0000
0000
0000
0303
0002
2000
,
0000
3003
0000
0000
;
