#TITLE:Let Go;
#ARTIST:Barlow Girls;
#BANNER:Let Go - Barlow Girls.png;
#BACKGROUND:Let Go - Barlow Girls-bg.png;
#LYRICSPATH:Let Go - Barlow Girls.lrc;
#CDTITLE:.\CDTITLES\DP2BARLOW1.png;
#MUSIC:Let Go - Barlow Girls.mp3;
#OFFSET:-2.665;
#SAMPLESTART:36.1;
#SAMPLELENGTH:12;
#BPMS:0=130;

//---------------dance-single - ----------------
#NOTES:
     dance-single:
     :
     Easy:
     2:
     0.153,0.182,0.027,0.007,0.000:
0000
0000
0001
0000
,
0000
0000
0000
1000
0000
0000
0010
0000
,
0000
0000
1000
0001
0000
0000
0000
0000
,
0000
0000
0000
1000
0000
0000
0010
0000
,
0000
0000
0000
0001
0000
0000
1000
0000
,
0000
0000
0000
0010
0000
0000
0001
0000
,
0000
0000
0000
1000
0000
0000
0001
0000
,
0000
0000
0000
0010
0000
0000
1000
0000
,
0000
0000
0000
0001
0000
0000
0010
0000
,
0000
0000
0000
1000
0000
0000
0001
0000
,
0000
0000
0000
0010
0000
0000
0010
0000
,
0000
0000
0000
1000
0000
0000
0001
0000
,
0000
0000
0000
0010
0000
0000
1000
0000
,
0000
0000
0000
0001
0000
0000
1000
0000
,
0000
0000
0000
0010
0000
0000
0001
0000
,
0000
0000
0000
1000
0000
0000
0001
0000
,
0000
0000
0000
0010
0000
0000
1000
0000
,
0000
0000
0000
0001
0000
0000
1000
0000
,
0000
0000
0010
0000
,
1100
0010
0000
0000
,
0001
0010
0000
0000
,
1000
0001
0000
0000
,
0010
1000
0000
0000
,
0001
0010
0000
0000
,
1000
0001
0000
0000
,
0010
1000
0000
0000
,
0001
0100
0000
0000
,
1000
0100
0000
0000
,
0010
1000
0000
0000
,
0001
0001
0000
0000
,
1000
0010
0000
0000
,
0001
1000
0000
0000
,
0010
0000
0000
1000
0000
0000
0000
0000
,
0001
0000
0000
0010
0000
0000
0000
0000
,
1000
0000
0000
0100
0000
0000
0000
0000
,
0001
0000
0000
1000
0000
0000
0000
0000
,
0010
0001
0000
0000
,
1000
0100
0000
0000
,
0001
0100
0000
0000
,
0010
0000
1000
0000
,
0001
0000
0100
0000
,
1000
0000
0000
0001
,
0010
0000
0001
0000
,
1000
0000
0010
0000
,
0001
0000
1000
0000
,
0010
0000
1000
0000
,
0001
0000
0100
0000
,
1010
0001
0000
0000
,
0001
1000
0000
0000
,
0010
1000
0000
0000
,
0001
0100
0000
0000
,
1000
0100
0000
0000
,
0001
1000
0000
0000
,
0010
0100
0000
0000
,
1000
0100
0000
0000
,
0001
1000
0000
0000
,
0010
1000
0000
0000
,
0001
0010
0000
0000
,
1000
0100
0000
0000
,
0010
1000
0000
0000
,
0001
1000
0000
0000
,
0010
0001
0000
0000
,
1000
0200
0000
0000
0000
0000
0300
0000
,
0011
0000
0100
0000
,
1000
0001
0000
0000
,
0010
0001
0000
0000
,
1000
0100
0000
0000
,
0010
1000
0000
0000
,
0001
0100
0000
0000
,
1000
0010
0000
0000
,
0001
0100
0000
0000
,
1010
0001
0000
0000
,
0010
0100
0000
0000
,
0001
1000
0000
0000
,
0010
0001
0000
0000
,
1000
0100
0000
0000
,
0001
0100
0000
0000
,
1000
0100
0000
0000
,
0001
1000
0000
0000
;

//---------------dance-single - ----------------
#NOTES:
     dance-single:
     :
     Hard:
     7:
     0.319,0.289,0.047,0.013,0.000:
0000
0000
0000
0001
0000
0000
0010
0000
,
0000
0000
0000
1000
0000
0000
0010
0000
,
0000
0000
1000
0001
0000
1000
0001
0000
,
0000
0000
0010
1000
0000
0001
0010
0000
,
0000
0000
1000
0001
0000
0010
1000
0000
,
0000
0000
0100
0010
0000
1000
0001
0000
,
0000
0000
0001
1000
0000
0000
0001
0000
,
0000
0000
1000
0010
0000
0001
1000
0000
,
0000
0000
1000
0001
0000
0100
0010
0000
,
0000
0000
0001
1000
0000
0010
0001
0000
,
0000
0000
0001
0100
0000
0000
0010
0000
,
0001
0010
1000
0001
,
1000
0000
0000
0010
0000
0000
1000
0000
,
0010
0000
0000
0001
0000
0000
1000
0000
,
0001
0000
0000
0010
0000
1000
0001
0000
,
0010
0000
0001
1000
0000
0010
0001
0000
,
1000
0000
0001
0010
0000
0001
1000
0000
,
0100
0000
0010
0001
0000
0010
1000
0000
,
0000
0001
0010
0001
,
1100
0010
0001
1000
,
0001
0010
1000
0001
,
1000
0000
0001
0100
0000
0001
1000
0000
,
0010
1000
0001
1000
,
0001
0010
1000
0001
,
1000
0000
0001
0000
0000
0100
1000
0000
,
0010
0000
1000
0000
0000
0100
0010
0000
,
0001
0100
1000
0001
,
1000
0000
0100
0000
0000
0001
1000
0000
,
0010
1000
0001
0110
,
0001
0000
1000
0000
0000
0010
0100
0000
,
1000
0010
0000
1000
,
0001
1000
0000
0100
,
0010
0000
0000
1000
0000
0000
1000
0000
,
0001
0000
0010
0000
0000
0001
1000
0001
,
1000
0000
0101
1010
,
0001
0000
1000
0001
0000
0001
1000
0000
,
0010
0000
0001
1000
0000
0100
0010
0000
,
1000
0100
1000
0010
,
0001
0000
0100
0010
0000
0001
1000
0000
,
0010
0000
1000
0000
,
0001
0000
0100
0001
,
1000
0200
0000
0301
,
0010
0000
0001
0000
,
1000
0000
0010
1000
,
0001
0000
0000
0010
1000
0000
0001
0010
,
0000
0000
1000
0000
,
0001
1000
0100
0001
,
1010
0000
0001
1000
0000
1000
0010
0000
,
0001
0000
1000
0010
0000
0001
1000
0000
,
0010
0000
1000
0001
0000
0100
0010
0000
,
0001
0000
0100
0010
0000
1000
0001
0000
,
1000
0000
0100
0010
0000
1000
0010
0000
,
0001
0000
1000
0001
0000
1000
0001
0000
,
0010
0000
0100
0010
0000
0100
0010
0000
,
1000
0000
0100
0010
0000
1000
0010
0000
,
0001
0000
1000
0010
0000
0001
1000
0000
,
0010
0000
1000
0001
0000
0010
0100
0000
,
0001
0000
0010
1000
0000
0100
0001
0000
,
1000
0000
0100
0010
0000
0001
1000
0000
,
0010
0000
1000
0001
0000
0001
1000
0000
,
0001
0000
1000
0010
0000
0001
1000
0000
,
0010
0000
0001
1000
0000
0010
0100
0000
,
1000
0200
0000
0000
0000
0000
0310
0000
,
0011
0000
1000
0010
0000
0100
1000
0000
,
0000
0000
0001
0010
0000
0001
1000
0000
,
0010
0000
0001
0100
0000
0010
1000
0000
,
0000
0000
0100
0010
0000
1000
0001
0000
,
0010
0000
1000
0100
0000
0010
1000
0000
,
0001
0000
0100
0010
0000
1000
0001
0000
,
1000
0010
0001
1000
,
0001
0000
0100
0010
0000
0001
0100
0000
,
1010
0001
0010
1000
,
0010
0000
0100
0010
0000
0001
0100
0000
,
0001
1000
0001
1000
,
0010
0000
0001
1000
0000
0100
0010
0000
,
1000
0100
0001
1000
,
0001
0000
0100
0010
0000
1000
0001
0000
,
1000
0000
0100
0000
1000
0001
1000
0000
,
0001
0000
1000
0001
0010
0000
0100
0000
;

//---------------dance-single - ----------------
#NOTES:
     dance-single:
     :
     Medium:
     4:
     0.223,0.236,0.040,0.013,0.000:
0000
0000
0000
0001
0000
0000
0010
0000
,
0000
0000
0000
1000
0000
0000
0010
0000
,
0000
0000
1000
0001
0000
1000
0001
0000
,
0000
0000
0000
1000
0000
0000
0010
0000
,
0000
0000
0000
0001
0000
0000
1000
0000
,
0000
0000
0000
0010
0000
0000
0001
0000
,
0000
0000
0000
1000
0000
0000
0001
0000
,
0000
0000
0000
0010
0000
0000
1000
0000
,
0000
0000
0000
0001
0000
0000
0010
0000
,
0000
0000
0000
1000
0000
0000
0001
0000
,
0000
0000
0000
0100
0000
0000
0010
0000
,
0001
0000
1000
0001
,
1000
0000
0000
0010
0000
0000
1000
0000
,
0010
0000
0000
0001
0000
0000
1000
0000
,
0001
0000
0000
0010
0000
1000
0001
0000
,
0000
0000
0000
1000
0000
0010
0001
0000
,
0000
0000
0000
0010
0000
0001
1000
0000
,
0000
0000
0000
0001
0000
0010
1000
0000
,
0000
0000
0010
0001
,
1100
0010
0000
1000
,
0001
0010
0000
0001
,
1000
0001
0000
1000
,
0010
1000
0000
1000
,
0001
0010
0000
0001
,
1000
0001
0000
1000
,
0010
1000
0000
0010
,
0001
0100
0000
0001
,
1000
0100
0000
1000
,
0010
1000
0000
0110
,
0001
0001
0000
0100
,
1000
0010
0000
1000
,
0001
1000
0000
0100
,
0010
0000
0000
1000
0000
0000
1000
0000
,
0001
0000
0000
0010
0000
0000
0001
1000
,
0000
0000
0000
0001
0100
0000
1010
0000
,
0001
1000
0001
0001
,
0010
0000
0001
0000
0000
0100
0000
0000
,
1000
0000
0100
0000
0000
1000
0000
0000
,
0001
0000
0100
0000
0000
0001
0000
0000
,
0010
0000
1000
0000
,
0001
0000
0100
0001
,
1000
0000
0000
0200
0000
0300
0001
0000
,
0010
0000
0001
0000
,
1000
0000
0010
0000
,
0001
0000
1000
0001
,
0010
0000
1000
0000
,
0001
1000
0100
0001
,
1010
0000
0001
0000
0000
1000
0000
0000
,
0001
0000
1000
0000
0000
0001
0000
0000
,
0010
0000
1000
0000
0000
0100
0000
0000
,
0001
0100
0000
0001
,
1000
0000
0100
0000
0000
1000
0000
0000
,
0001
1000
0000
0001
,
0010
0100
0000
0100
,
1000
0000
0100
0000
0000
1000
0000
0000
,
0001
0000
1000
0000
0000
0001
0000
0000
,
0010
0000
1000
0000
0000
0010
0000
0000
,
0001
0000
0010
0000
0000
0100
0000
0000
,
1000
0000
0100
0000
0000
0001
0000
0000
,
0010
1000
0000
1000
,
0001
1000
0000
0001
,
0010
0001
0000
0010
,
1000
0200
0000
0000
0000
0000
0310
0000
,
0011
0000
0000
0000
0100
0000
0000
1000
,
0000
0001
0000
1000
,
0010
0001
0000
0010
,
1000
0100
0000
1000
,
0010
1000
0000
1000
,
0001
0100
0000
0001
,
1000
0010
0000
1000
,
0001
0100
0000
0100
,
1010
0001
0000
1000
,
0010
0100
0000
0100
,
0001
1000
0000
1000
,
0010
0001
0000
0010
,
1000
0100
0000
1000
,
0001
0100
0000
0001
,
1000
0100
0000
1000
,
0001
1000
0000
0100
;

//---------------dance-single - ----------------
#NOTES:
     dance-single:
     :
     Challenge:
     8:
     0.436,0.420,0.220,0.120,0.000:
0000
0000
0000
0001
0000
0001
0010
0000
,
0001
0000
1000
0001
0000
0001
0100
0000
,
0010
0000
1000
0001
0000
0001
0100
0000
,
0010
0000
1000
0100
0000
0010
0100
0000
,
0010
0000
0001
0100
0000
0001
0100
0000
,
0010
0000
1000
0010
0000
1000
0010
0000
,
0100
0000
0010
1000
0000
0010
1000
0000
,
0100
0000
0010
0100
0000
0010
0100
0000
,
0010
0000
0001
0010
0000
0001
0010
0000
,
0001
0000
0100
0001
0000
0001
1000
0000
,
0100
0000
0010
0001
0000
0001
0100
0000
,
0002
1003
0002
1003
,
0020
0130
0020
0130
,
0002
0000
1000
1000
0000
0100
0100
0000
,
1000
0003
0010
0010
0000
0001
0001
0000
,
0100
0010
1000
0010
0100
0000
0100
0000
,
0010
1000
0001
0100
0010
0000
0010
0000
,
1000
0000
1000
0001
0000
0002
0100
0000
,
0013
0000
1000
0001
0100
0010
0100
0000
,
0101
0000
0001
1000
0000
1000
0001
0000
,
0011
0000
0001
0100
0000
0100
0001
0000
,
1010
0000
0010
0100
0000
0100
0010
0000
,
1010
0000
0010
1000
0000
1000
0100
0000
,
1100
0000
0100
0010
0000
0010
0001
0000
,
0011
0000
0001
0100
0000
0001
1000
0000
,
0101
0000
0001
0010
0000
0010
0001
0000
,
0101
0000
0010
0100
0010
0000
1000
0000
,
0010
0010
1000
1000
0001
0001
0100
0100
,
0010
0000
0010
0100
0010
0000
1000
0000
,
0001
0001
1000
1000
0100
0100
0010
0010
,
0100
0010
0001
0100
,
0001
0000
0001
1000
0000
1000
0001
0000
,
0100
0000
0010
0010
0000
0010
1000
0000
,
0001
0000
0010
0100
0000
0100
0001
0000
,
0100
0000
0001
1000
1001
0000
1001
0000
,
0100
0000
0010
0100
0000
0100
0001
0000
,
0100
0000
0010
0010
0000
1000
1000
0000
,
0001
0000
0100
0001
0000
0001
1000
0000
,
0001
0000
0100
0010
0000
0010
0100
0000
,
0002
1003
2000
3001
,
0020
0130
0200
0310
,
1000
0001
1000
0100
0000
0010
0001
0000
,
1000
0010
0100
0010
0000
0010
1000
0000
,
0002
0000
0000
0000
0200
0003
0000
0000
,
0020
0300
0000
0000
2000
0030
0000
0000
,
0002
3000
0000
0100
0000
0203
0010
0300
,
0010
0000
1000
0001
0100
0010
0100
0000
,
0001
0001
1000
1000
0010
0010
0100
0100
,
0110
0010
1000
0010
,
0100
0100
0001
0001
1000
1000
0001
0001
,
0101
0100
0110
0010
,
0010
1000
0001
1000
0001
1000
0001
1000
,
1010
0000
0010
0100
0000
0100
0010
0000
,
1000
0001
0100
0010
0100
0001
0010
0100
,
0011
0010
0001
0100
,
0010
0100
0010
0100
0010
1000
0010
1000
,
0010
0000
0010
0100
0000
0100
0001
0000
,
1000
0001
1000
0001
1000
0010
1000
0010
,
1000
0000
1000
0001
0000
0001
0100
0000
,
0010
0100
0001
1000
0100
0010
0100
1000
,
0100
0000
0100
0010
0000
0010
0001
0000
,
0100
0010
0100
0001
0010
0100
0010
0001
,
0202
0000
0000
0000
0000
0303
0100
0010
,
0000
0001
1000
0000
0001
0100
0000
0010
,
0000
0100
0001
0000
1000
0001
0000
1000
,
0000
1000
0001
0100
0000
0100
0010
0000
,
0100
0000
0001
1000
0001
0100
0010
0100
,
0001
0000
0001
1000
0000
1000
0001
0000
,
0100
0000
0001
0001
0100
0000
0010
0000
,
0100
0000
0100
0001
0000
0001
0100
0000
,
0110
0100
0101
0001
,
1001
1000
1100
0100
,
0110
0010
0110
0010
,
0011
0001
0101
0001
,
1001
0000
1000
0010
0100
0000
0010
0000
,
0110
0010
1010
1000
,
1001
0000
0001
0010
0001
0000
0001
0000
,
0101
0100
0110
0010
,
0110
0100
1001
1001
;
