#TITLE:King;
#ARTIST:Audio Adrenaline;
#BANNER:King - Audio Adrenaline.png;
#BACKGROUND:King - Audio Adrenaline-bg.png;
#CDTITLE:.\CDTITLES\DP2AUDIO.png;
#MUSIC:King - Audio Adrenaline.mp3;
#OFFSET:-1.919;
#SAMPLESTART:47.8;
#SAMPLELENGTH:12;
#BPMS:0=138;
#BGCHANGES:0=King - Audio Adrenaline.AVI=1=1=1=0,999=-=1=0=0=0;

//---------------dance-single - ----------------
#NOTES:
     dance-single:
     :
     Easy:
     2:
     0.174,0.197,0.044,0.044,0.000:
0000
0000
0000
0000
,
0000
1000
0001
0000
,
1000
0000
0001
0000
,
1000
0000
0010
0000
,
0001
0000
0100
0000
,
0010
0000
0100
0000
,
1000
0000
0001
0000
,
0010
0000
0001
0000
,
1000
0000
0001
0000
,
0010
0000
1000
0000
,
0001
0000
1000
0000
,
0010
0000
0100
0000
,
0001
0000
0100
0000
,
1000
0000
0100
0000
,
0001
0000
0100
0000
,
1000
0000
0010
0000
,
0001
0000
0100
0000
,
0010
0000
0100
0000
,
0010
0000
0100
0000
,
1000
0000
0010
0000
,
0001
0000
0100
0000
,
1000
0000
0010
0000
,
0001
0000
0100
0000
,
1010
0000
0000
0100
0000
0000
0011
0000
,
0000
0100
0000
0000
1001
0000
0000
0000
,
0010
0000
0100
0000
,
0001
0000
0010
0000
,
1000
0020
0000
0030
,
0001
0000
1000
0000
,
0001
0020
0000
0030
,
1000
0000
0100
0000
,
0010
0000
1000
0000
,
0001
0000
0100
0000
,
1000
0000
0001
0000
,
0010
0000
0100
0000
,
0001
0200
0000
0300
,
1000
0000
0001
0000
,
0010
0200
0000
0300
,
0001
0000
0001
0000
,
1000
0000
0001
0000
,
0010
0000
0100
0000
,
0001
0000
0010
0000
,
1000
0000
0100
0000
,
0010
0000
0100
0000
,
0001
0000
0100
0000
,
0010
0000
0001
0000
,
1000
0000
0001
0000
,
0010
0000
1000
0000
,
0001
0000
1000
0000
,
0010
0000
0001
0000
,
1000
0000
0001
0000
,
0010
0000
1000
0000
,
0001
0000
0100
0000
,
1000
0000
0001
0000
,
0010
0000
0100
0000
,
1000
0000
0001
0000
,
0010
0000
0100
0000
,
0001
0000
1000
0000
,
0010
0000
0001
0000
,
1000
0000
0001
0000
,
0010
0000
1000
0000
,
0001
0000
1000
0000
,
0010
0000
0001
0000
,
1000
0000
0100
0000
,
0010
0000
0100
0000
,
0001
0000
1000
0000
,
0010
0000
0001
0000
,
1100
0000
0000
0010
0000
0000
0101
0000
,
0000
0010
0000
0000
1001
0000
0000
0000
,
0010
0000
0100
0000
,
0001
0000
0010
0000
,
1000
0020
0000
0030
,
0001
0000
0010
0000
,
1000
0020
0000
0030
,
1000
0000
0100
0000
,
0001
0000
0100
0000
,
1000
0000
0001
0000
,
0010
0000
0000
0000
;

//---------------dance-single - ----------------
#NOTES:
     dance-single:
     :
     Hard:
     6:
     0.361,0.366,0.117,0.073,0.000:
0000
0000
0000
0000
,
0000
0001
0001
1000
,
1000
0001
0001
1000
,
1000
0010
0010
0001
,
0001
0100
0100
0010
,
0010
1000
0100
0001
,
1000
0010
0001
1000
,
0010
1000
0001
0010
,
1000
0100
0001
0100
,
0010
0001
1000
0010
,
0001
0100
1000
0001
,
0010
1000
0100
0010
,
0001
0010
0100
0001
,
1000
0010
0100
1000
,
0001
0010
0100
0001
,
1000
0100
0010
1000
,
0001
1000
0100
2000
,
0010
3001
0100
1000
,
0010
0000
1000
0001
0100
0010
0001
0000
,
1000
0001
0010
1000
,
0001
0000
0010
1000
0100
1000
0000
0001
,
1000
0001
0010
1000
,
0001
1000
0100
0001
,
1010
0000
0000
0101
0000
0000
0011
0000
,
0000
1100
0000
0000
1001
0000
0110
0000
,
1000
0001
0100
1000
,
0001
1000
0010
0100
,
1000
0000
0020
0000
1000
0000
0000
0030
,
0001
0010
1000
0100
,
0001
0000
0020
0000
1000
0000
0000
0030
,
1000
0000
0001
0000
0100
0000
1000
0001
,
0010
0000
0001
0010
1000
0000
0010
0000
,
0001
1000
0010
0000
0100
0010
0001
0000
,
1000
0010
0001
1000
,
0010
0000
0001
0010
0100
0000
0010
0000
,
0001
0201
0000
0301
,
1000
0000
0010
0000
0001
0010
1000
0000
,
0010
0201
0000
0301
,
0001
0000
1000
0000
0001
0000
0010
0100
,
1000
0000
0100
0010
0001
0000
1000
0001
,
0010
0000
0001
1000
0100
0000
1002
0000
,
0000
1000
0003
0001
,
1000
0001
0100
0001
,
0010
1000
0100
0010
,
0001
1000
0100
1000
,
0010
1000
0001
0010
,
1000
0100
0001
1000
,
0010
0001
1000
0010
,
0001
0100
1000
0001
,
0010
1000
0001
0010
,
1000
0100
0001
1000
,
0010
0000
0001
0000
1100
0000
0010
1000
,
0001
1000
0100
0002
,
1000
0000
0010
0003
0010
0000
0100
1000
,
0010
0001
0100
0001
,
1000
0000
0010
0000
0001
0000
0100
1000
,
0010
0000
0001
0010
0100
0000
1000
0000
,
0001
0010
1000
0001
,
0010
0100
0001
0010
,
1000
0000
0100
0000
0001
0000
1000
0001
,
0010
0001
1000
0020
,
0000
0000
1000
0030
1000
0000
0001
1000
,
0010
1000
0001
0010
,
1000
0000
0001
0000
0100
0000
0001
1000
,
0010
1000
0100
0010
,
0001
0000
0100
0001
1000
0000
0001
0000
,
0010
1000
0001
0010
,
1100
0000
0000
0011
0000
0000
0101
0000
,
0000
1010
0000
0000
1001
0000
0110
0000
,
0001
1000
0100
0010
,
0001
1000
0010
0001
,
1000
0020
1000
0030
,
0001
1000
0010
0001
,
1000
0000
0020
0000
1000
0000
0000
0030
,
1000
0000
0001
0000
0100
0000
0010
1000
,
0001
0000
1000
0001
0100
0010
0001
0010
,
0100
1000
0010
1000
0001
0000
0100
0000
,
0010
0001
0000
0000
;

//---------------dance-single - ----------------
#NOTES:
     dance-single:
     :
     Medium:
     5:
     0.317,0.282,0.073,0.044,0.000:
0000
0000
0000
0000
,
0000
0001
0001
1000
,
1000
0001
0001
1000
,
1000
0010
0010
0001
,
0001
0100
0100
0010
,
0010
1000
0100
0001
,
1000
0010
0001
1000
,
0010
1000
0001
0010
,
1000
0100
0001
0100
,
0010
0001
1000
0010
,
0001
0100
1000
0001
,
0010
1000
0100
0010
,
0001
0010
0100
0001
,
1000
0010
0100
1000
,
0001
0010
0100
0001
,
1000
0100
0010
1000
,
0001
1000
0100
1000
,
0010
0001
0100
1000
,
0010
1000
0100
0001
,
1000
0001
0010
1000
,
0001
0010
0100
0001
,
1000
0001
0010
1000
,
0001
1000
0100
0001
,
1010
0000
0000
0101
0000
0000
0011
0000
,
0000
1100
0000
0000
1001
0000
0010
0000
,
0000
0001
0100
1000
,
0001
1000
0010
0100
,
1000
0020
0000
0030
,
0001
0010
1000
0100
,
0001
0020
0000
0030
,
1000
0001
0100
1000
,
0010
0001
1000
0010
,
0001
0010
0100
0001
,
1000
0010
0001
1000
,
0010
0001
0100
0010
,
0001
0200
0000
0300
,
1000
0010
0001
1000
,
0010
0200
0000
0300
,
0001
1000
0001
0010
,
1000
0100
0001
1000
,
0010
0001
0100
1000
,
0001
1000
0010
0001
,
1000
0001
0100
0001
,
0010
1000
0100
0010
,
0001
1000
0100
1000
,
0010
1000
0001
0010
,
1000
0100
0001
1000
,
0010
0001
1000
0010
,
0001
0100
1000
0001
,
0010
1000
0001
0010
,
1000
0100
0001
1000
,
0010
0001
1000
0010
,
0001
1000
0100
0001
,
1000
0010
0001
0100
,
0010
0001
0100
0001
,
1000
0010
0001
0100
,
0010
0001
0100
1000
,
0001
0010
1000
0001
,
0010
0100
0001
0010
,
1000
0100
0001
1000
,
0010
0001
1000
0010
,
0001
0100
1000
0001
,
0000
0010
1000
0000
0001
0000
0010
0000
,
1000
0001
0100
0001
,
0010
1000
0100
0010
,
0001
0100
1000
0001
,
0010
1000
0001
0010
,
1100
0000
0000
0011
0000
0000
0101
0000
,
0000
1010
0000
0000
1001
0000
0100
0000
,
0010
1000
0100
0010
,
0001
1000
0010
0001
,
1000
0020
0000
0030
,
0001
1000
0010
0001
,
1000
0020
0000
0030
,
1000
0001
0100
0010
,
0001
1000
0100
0001
,
1000
0010
0001
0100
,
0010
0001
0000
0000
;

//---------------dance-single - ----------------
#NOTES:
     dance-single:
     :
     Challenge:
     8:
     0.451,0.563,0.131,0.015,0.047:
0000
0000
0000
0000
,
0001
0000
0001
0000
1000
0001
0100
0000
,
0010
0000
0010
0000
0100
0001
1000
0000
,
0100
0000
0100
0000
1000
0010
0100
0000
,
0010
0000
0010
0000
0100
0001
1000
0000
,
0100
0000
0010
0000
0100
0010
0100
0000
,
0010
0000
0001
0000
0010
0001
0010
0000
,
0001
0000
1000
0000
0001
1000
0001
0000
,
1000
0000
0100
0000
1000
0100
1000
0000
,
0010
0000
1000
0000
0010
1000
0010
0000
,
1000
0001
1000
0000
0001
0100
0001
0000
,
1000
0000
0100
0000
0010
0100
0010
0000
,
0001
0010
0001
0000
0100
0001
0100
0000
,
0001
0000
1000
0000
0100
0010
0100
0000
,
0010
0100
1000
0000
0100
1000
0001
0000
,
0100
0000
0100
0000
0001
1000
0001
0000
,
0100
0001
1000
0000
0100
1000
0001
0000
,
1000
0000
0100
0000
0010
0100
1000
0000
,
0100
1000
0010
0000
1000
0010
0100
0000
,
0010
0000
1000
0000
0001
0100
0001
0000
,
1000
0100
1000
0000
0010
1000
0010
0000
,
1000
0000
0100
0000
0010
0001
0010
0000
,
0001
0100
0001
0000
0010
0001
0010
0000
,
0001
0001
0100
0100
0001
0001
1000
1000
,
0001
0001
0100
0100
0010
0010
0100
0100
,
1001
0000
1001
0000
1000
0001
1000
0000
,
0101
0000
0101
0000
0100
0010
0100
0001
,
0001
0001
1000
0000
0100
0100
1000
0000
,
0010
0010
1000
0000
0001
0000
0001
0000
,
0100
0100
0001
0000
1000
1000
0100
0000
,
0010
0010
0100
0000
1000
0000
0001
0000
,
0100
0000
0000
0010
0000
0000
0100
0000
0001
0000
0000
1000
0000
0000
0100
0000
,
0010
0000
0000
0100
0000
0000
1000
0000
0001
0000
0000
0100
0000
0000
0010
0000
,
0100
0000
0001
0000
1000
0001
1000
0000
,
0010
0000
1000
0000
0010
0100
0010
1000
,
0000
2000
0000
0000
3001
0001
1000
0000
,
0001
0000
0100
0000
0010
0000
0010
1000
,
0000
2000
0000
0000
0100
0000
3100
0000
,
1000
0010
0100
0000
0010
1000
0001
0000
,
1000
0000
0000
1000
0000
0000
0100
0000
0010
0000
0000
0010
0000
0000
0001
0000
,
0100
0000
0000
0100
0000
0000
0001
0000
1000
0000
0000
1000
0000
0000
0100
0000
,
0010
0000
0010
0000
0100
1000
0001
0000
,
1000
0100
0100
0000
1000
0010
0010
0000
,
1000
0000
0001
0000
0100
0100
0010
0000
,
0100
0000
0001
0000
1000
0001
1000
0000
,
0100
0000
0010
0000
0100
1000
0001
0000
,
1000
0000
0100
0000
0010
0001
0100
0000
,
0001
0000
1000
0000
0001
0100
0010
0000
,
0100
0000
0001
0000
1000
0001
0100
0000
,
0010
0000
0100
0000
0001
1000
0001
0000
,
1000
0000
0010
0000
1000
0100
0010
0000
,
0010
0100
1000
0001
,
0100
0010
0000
0100
0000
0001
0000
1000
,
0000
0001
0100
0000
0010
0010
0100
0000
,
0001
0000
1000
0000
0001
0001
0100
0000
,
0001
0000
1000
0000
0100
0010
0100
0000
,
0010
0001
0010
0000
0100
0010
0100
0000
,
1000
0000
0010
0000
1000
0010
0100
0000
,
0010
1000
0100
0000
1000
0010
0100
0000
,
0010
0000
1000
0000
0010
0010
1000
0000
,
0010
0000
1000
0000
0100
0100
0010
0000
,
0100
0000
1000
0000
0010
0010
0100
0000
,
0100
0000
0010
0000
1000
1000
0010
0000
,
1000
0000
0100
0000
0010
0010
0001
0000
,
0001
0000
0100
0000
0010
0010
1000
0000
,
1000
0000
0100
0000
0010
0010
0011
0000
,
0001
0001
0101
0000
0100
0100
0110
0000
,
0010
0010
1000
1000
0001
0001
0100
0100
,
0010
0010
0100
0100
0001
0001
1000
0001
,
0101
0000
0101
0000
0110
0110
0110
0000
,
0101
0000
0101
0000
1001
1001
1001
0000
,
1000
0010
1000
0000
0010
0100
0010
0000
,
0100
0000
0000
0000
0100
0000
0000
0000
0001
0000
0000
1000
0000
0000
0001
0000
,
0000
0100
0100
0000
0010
0100
0010
0000
,
1000
0001
1000
0000
0010
0100
0010
0000
,
1000
0000
0000
0001
0000
0000
0100
0000
0010
0000
0000
0100
0000
0000
0001
0000
,
1000
0000
0000
0001
0000
0000
0100
0000
0010
0000
0000
0100
0000
0000
0001
0000
,
0000
1001
0000
0000
0000
0000
0000
0000
;
