#TITLE:I'm For You;
#ARTIST:tobyMac;
#BANNER:I'm For You - tobyMac.png;
#BACKGROUND:I'm For You - tobyMac-bg.png;
#LYRICSPATH:I'm For You - tobyMac.lrc;
#CDTITLE:.\CDTITLES\DP2TOBY1.png;
#MUSIC:I'm For You - tobyMac.mp3;
#OFFSET:-2.987;
#SAMPLESTART:43.7;
#SAMPLELENGTH:12;
#BPMS:0=97;
#BGCHANGES:12=I'm For You - tobyMac.AVI=0.90=1=1=0,999=-=1=0=0=0;

//---------------dance-single - ----------------
#NOTES:
     dance-single:
     :
     Easy:
     1:
     0.116,0.118,0.014,0.014,0:
0000
0000
0000
0010
,
0000
1000
0000
0001
,
0000
1000
0000
0000
,
0001
0000
0010
1000
,
0000
0010
0000
0001
,
0000
0010
0000
1000
,
0000
0001
0000
0010
,
0000
0010
0000
1000
,
0000
0010
0000
0001
,
0000
1000
0000
0010
,
2000
0000
3000
0000
,
0001
0000
1000
0010
,
0000
1000
0000
0001
,
0000
1000
0000
0010
,
0000
0001
0000
1000
,
0000
0001
0000
0010
,
0000
0001
0000
1000
,
0000
0001
0000
0010
,
0000
1000
0000
0001
,
0000
1000
0000
0010
,
0000
0001
0000
1000
,
0000
0001
0000
0010
,
0000
0100
1001
0000
,
0000
0010
0000
0000
1000
0000
0000
0000
,
0100
0000
0011
0000
,
1000
0000
0010
0000
,
0001
0000
1000
0000
,
0010
0000
0001
0000
,
1000
0000
0010
0000
,
0001
0000
0100
0000
,
0020
0000
0000
0030
,
1000
0000
0010
0000
,
0001
0000
1000
0000
,
0010
0000
1000
0000
,
0001
0000
1000
0000
,
0010
0000
0010
0000
,
1000
0000
0001
0000
,
0010
0000
0100
0000
,
1000
0000
0001
0000
,
0010
0000
0100
0000
,
0001
0000
1000
0000
,
0010
0000
0100
0000
,
1000
0000
0001
0000
,
0010
0000
1000
0000
,
0001
0000
0100
0000
,
0010
0000
0001
0000
,
1000
0000
1000
0000
,
0010
0000
0100
0000
,
0001
0000
1000
0000
,
0010
0000
0001
0000
,
1000
0000
0001
0000
,
0010
0000
0001
0000
,
1000
0000
0001
0000
,
0010
0000
1000
0000
,
0001
0000
0010
0000
,
1000
0000
0100
0000
,
0001
0000
1000
0000
,
0010
0000
1000
0000
,
0010
0000
0000
0000
;

//---------------dance-single - ----------------
#NOTES:
     dance-single:
     :
     Hard:
     7:
     0.356,0.338,0.150,0.285,0.071:
0000
0000
0000
0000
0010
0100
1001
0000
,
0010
0000
0001
0000
0100
1000
0000
0000
0010
0000
0100
0000
0010
0001
0000
0000
,
0100
0000
0001
0000
1000
0100
0000
0000
0011
0000
0000
0000
0000
0000
0000
0000
,
0011
0000
0001
0000
1100
0000
0000
0010
0000
0000
0100
0000
0011
0000
0000
0100
,
0000
0000
0001
0000
1100
0000
0000
0010
0000
0000
1000
0000
0011
0000
0000
0100
,
0000
0000
0001
0000
1100
0000
0000
0010
0000
0000
1000
0000
0011
0000
0000
0100
,
0000
0000
0001
0000
1100
0000
0011
0000
0000
1000
0100
0010
0001
0000
0000
0100
,
0000
0000
1000
0000
0001
0000
0000
1000
0000
0000
1000
0000
0011
0000
0000
1000
,
0000
0000
0001
0000
1100
0000
0000
0001
0000
0000
1000
0000
0011
0000
1000
0000
,
0010
0100
1000
0001
0010
1000
0010
0001
,
2000
0000
0000
0000
3000
0000
0001
0010
,
1002
0000
0000
0000
2003
0000
0000
3000
,
0001
0000
0010
1000
0010
1000
0001
1000
,
0020
0000
0000
0000
1030
0000
0001
0000
0200
0000
0000
0000
0000
0000
0000
0300
,
0002
0000
0000
0000
0000
0003
0000
0000
0010
0000
0100
0000
1000
0000
0001
0000
,
0010
1000
0001
1000
0001
0010
0000
1000
,
0010
0001
1000
0010
0001
1000
0001
0010
,
0020
0000
0030
0001
2000
0000
0000
3000
,
0001
1000
0020
0000
,
0030
0000
1000
0000
0001
1000
0010
1000
,
0100
0010
0001
1000
0010
0001
1000
0001
,
0010
0000
0001
0000
1000
0001
0010
0000
,
1000
0100
0001
0010
1001
0000
0000
0000
,
0000
0010
0001
0000
1000
0000
0001
0010
,
0100
0000
0000
0000
1000
0000
0000
0000
0011
0000
0000
0000
0100
0000
0000
1000
,
0000
0000
0001
0000
0100
0000
0000
0010
0000
0000
0001
0000
1000
0000
0000
0010
,
0000
0001
1000
0000
1001
0000
0001
0000
,
0010
0000
1000
0000
0011
0000
0000
0001
0000
0000
0010
0000
0001
0000
0000
1000
,
0000
0000
1001
0000
0100
0000
0000
0010
0000
0000
1000
0000
0001
0000
0000
0000
,
1000
0001
1000
0001
1000
0001
1000
0001
,
0020
0000
0000
0030
,
1000
0000
0001
0100
0010
1000
0001
0100
,
2000
0000
0000
3000
0001
0010
0100
1000
,
0002
0000
0000
0013
2000
0000
0000
3010
,
0002
0000
0000
0003
1000
0100
1000
0010
,
1000
0010
1000
0001
0010
1000
0011
1000
,
0001
0100
0010
1000
0001
1000
0001
1000
,
0020
0000
0000
0031
2000
0000
0000
3010
,
0002
0000
0000
0000
1003
0010
1000
0001
,
0200
0000
0000
0301
1000
0001
0010
0100
,
0020
0000
0000
1030
0001
1000
0001
0010
,
0020
0000
0030
1000
0010
1000
0100
0001
,
0200
0000
0000
0301
0010
0100
1000
0010
,
0020
0000
0030
1000
0010
1000
0010
1000
,
0002
0000
0000
0000
1003
0100
0001
0100
,
2000
0000
0000
0000
0000
0000
0000
3010
,
0002
0000
0000
0000
1003
0010
1000
0010
,
2000
0000
0000
3100
0002
0000
0000
0000
,
0023
0000
0000
0000
1030
0010
0100
1000
,
0020
0000
0000
1030
0002
0000
0000
0000
,
2003
0000
0000
0000
3001
1000
0010
0100
,
0020
0000
0000
1030
0002
0000
0000
1003
,
0020
0000
0000
0000
2030
0000
0000
3100
,
0020
0000
0000
0000
0000
0000
0030
1000
,
0010
0001
1000
0100
0001
0000
1000
0010
,
2001
0000
0000
3100
0020
0000
0000
1030
,
0020
0000
0000
0000
1030
0010
1000
0010
,
0002
0000
0000
1003
0020
0000
0000
1030
,
0002
0000
0003
0000
;

//---------------dance-single - ----------------
#NOTES:
     dance-single:
     :
     Medium:
     3:
     0.173,0.177,0.020,0.014,0:
0000
0000
1000
0110
,
0001
1000
0010
0001
,
0010
1000
0010
0000
,
0001
0000
0010
1000
,
0001
0010
0000
0001
,
1000
0010
0000
1000
,
0010
0001
0000
0010
,
1000
0010
0000
1000
,
0001
0010
0000
0001
,
0010
1000
0000
0010
,
2000
0000
0000
0000
0000
3000
0010
0000
,
0001
0000
1000
0010
,
0001
1000
0000
0001
,
0010
1000
0000
0010
,
1000
0001
0000
1000
,
0010
0001
0000
0010
,
1000
0001
0000
1000
,
0010
0001
0000
0010
,
0001
1000
0000
0001
,
0010
1000
0000
0010
,
0100
0001
0000
1000
,
0010
0001
0000
0010
,
1000
0100
1001
0000
,
0000
0010
0001
0000
1000
0000
0000
0000
,
0100
1000
0011
0000
,
1000
0100
0010
1000
,
0001
0000
1000
0001
,
0010
0000
0001
0010
,
1000
0000
0010
1000
,
0001
0000
0100
0001
,
0020
0000
0000
0030
,
1000
0001
0010
0000
,
0001
0010
1000
0000
,
0010
0001
1000
0000
,
0001
0010
1000
0000
,
0010
1000
0010
0000
,
1000
0010
0001
0000
,
0010
0001
0100
0000
,
1000
0100
0001
0000
,
0010
1000
0100
0000
,
0001
0010
1000
0000
,
0010
0001
0100
0000
,
1000
0010
0001
0000
,
0010
0001
1000
0000
,
0001
1000
0100
0000
,
0010
1000
0001
0000
,
1000
0001
1000
0000
,
0010
1000
0100
0000
,
0001
0010
1000
0000
,
0010
1000
0001
0000
,
1000
0010
0001
0000
,
0010
1000
0001
0000
,
1000
0010
0001
0000
,
0010
0001
1000
0000
,
0001
1000
0010
0000
,
1000
0001
0100
0000
,
0001
0010
1000
0000
,
0010
0100
1000
0000
,
0010
0000
0000
0000
;

//---------------dance-single - ----------------
#NOTES:
     dance-single:
     :
     Challenge:
     7:
     0.373,0.414,0.170,0.109,0.146: // measure 1
0000
0000
0000
0000
0000
0000
0000
0000
0000
0000
0000
0000
0000
0000
0000
1000
,  // measure 2
0000
0000
0100
0000
0001
0000
0000
1000
0000
0000
0010
0000
0001
0000
0000
1000
,  // measure 3
0000
0000
0010
0000
0100
0000
0000
1001
0000
0000
0000
0000
0000
0000
0000
0000
,  // measure 4
0010
0000
0010
0000
0010
1000
0100
0010
,  // measure 5
0001
0000
0001
0000
0001
1000
0001
0000
,  // measure 6
0100
0000
0100
0000
0100
0001
0010
0100
,  // measure 7
1000
0000
0001
0000
1000
0001
0000
1000
0000
0000
0000
0000
1001
0000
0000
0000
,  // measure 8
0010
0000
1000
0000
0010
0000
0000
1000
0010
0000
0100
0000
0010
0000
0000
0000
,  // measure 9
0001
1000
0001
0000
0010
0001
0100
0000
,  // measure 10
1010
1100
0101
0011
,  // measure 11
2002
0000
0000
0000
3003
0000
0000
1000
0001
0000
1000
0000
0100
0000
0000
0000
,  // measure 12
0010
0000
0001
0000
0010
0000
0001
0100
0000
0000
0100
0000
0010
0000
1000
0010
,  // measure 13
0000
0100
0001
0000
1000
0001
0100
0000
,  // measure 14
1000
0000
0010
0000
1000
0000
0010
0100
0000
0000
0100
0000
0001
0000
1000
0001
,  // measure 15
0000
0010
0100
0000
1000
0001
0100
0000
,  // measure 16
1010
1000
1100
0000
0011
0001
0101
0000
,  // measure 17
0010
1000
0100
0001
0010
0100
1000
0000
,  // measure 18
0010
0000
0100
0000
0001
0000
0100
0001
0000
0000
1000
0000
0001
0000
0010
0100
,  // measure 19
2000
0000
0000
0000
3000
0000
0000
0000
0110
0000
1000
0000
0001
0000
0000
0010
,  // measure 20
0000
0000
0001
0000
1000
0000
0000
0010
0000
0000
1000
0000
0100
0000
0000
0010
,  // measure 21
0001
0000
1000
0000
0100
0000
0000
1000
0010
0000
0001
0000
1000
0000
0000
0010
,  // measure 22
0000
0000
0001
0000
1000
0000
0000
0100
0000
0000
0001
0000
1000
0000
0000
0100
,  // measure 23
0000
0000
0010
0000
0001
0100
0000
0110
0000
0000
0000
0000
0000
0000
0000
0000
,  // measure 24
2000
0000
0000
0000
0000
0000
0000
0000
3200
0000
0000
0000
0000
0000
0300
0020
,  // measure 25
0000
0000
0000
0030
,  // measure 26
1000
0001
1000
0000
0010
1000
0001
0000
,  // measure 27
0010
0001
0010
0100
1000
0001
0100
0000
,  // measure 28
1000
0010
1000
0000
0001
0010
0100
0000
,  // measure 29
0010
1000
0010
0100
0001
1000
0100
0000
,  // measure 30
1001
0001
0011
0001
0101
0100
0110
0010
,  // measure 31
2002
0000
0000
3003
,  // measure 32
1000
0000
0010
0000
1000
0000
0100
0010
0000
0000
0010
0000
0001
0000
1000
0000
,  // measure 33
0001
0000
0100
0000
0001
0000
0010
0100
0000
0000
1000
0000
0001
0000
0000
0000
,  // measure 34
1000
0000
0100
0000
1000
0000
0010
0100
0000
0000
0100
0000
0001
0000
1000
0000
,  // measure 35
0001
0010
0001
0100
1000
0100
1000
0010
,  // measure 36
0001
0000
0000
0000
1000
0001
1000
0000
0100
0000
0000
0000
0010
0000
0001
0000
,  // measure 37
0100
0000
0010
1000
0010
0000
0100
0001
0100
0000
0001
0000
1000
0000
0000
0000
,  // measure 38
0010
0000
0100
0000
0010
0000
1000
0010
0000
0000
0100
0000
0001
0000
1000
0100
,  // measure 39
0010
0001
0100
0000
1010
0100
0011
0000
,  // measure 40
1000
0100
1000
0100
1000
0100
1000
0100
,  // measure 41
0010
0000
0001
0000
0010
0000
0001
0000
0100
0000
0001
0000
0100
0000
0001
1000
,  // measure 42
0010
0100
0010
0100
0010
0100
0010
0100
,  // measure 43
1000
0000
0001
0000
1000
0000
0001
0000
1000
0001
0000
1000
0001
0000
0010
0000
,  // measure 44
0100
1000
0100
0001
0100
1000
0100
0001
,  // measure 45
0010
1000
0010
0001
0010
1000
0010
0001
,  // measure 46
0100
0010
1000
0100
0001
0100
1000
0001
,  // measure 47
0100
0010
0100
0010
0100
0010
1001
0000
,  // measure 48
0200
0000
2300
0000
,  // measure 49
3002
0000
0000
0003
,  // measure 50
0020
0000
0032
0000
,  // measure 51
2003
0000
0000
3000
,  // measure 52
0000
1010
0000
0101
,  // measure 53
0000
1100
0000
0011
,  // measure 54
0200
0010
0310
0010
,  // measure 55
0010
0000
1000
0001
0100
0001
0100
0000
0001
1000
0100
1000
0100
0000
0010
0000
,  // measure 56
0001
0000
1000
0000
0001
0000
1000
0100
0000
0010
0001
0000
0100
0000
0000
0000
,  // measure 57
1000
0000
0001
0000
1000
0000
0001
0100
0000
0010
1000
0000
0100
0000
0010
0000
,  // measure 58
0002
0000
0000
0000
,  // measure 59
0003
0000
0000
0000
;
