#TITLE:I Can't Do This;
#ARTIST:Plumb;
#BANNER:I Can't Do This - Plumb.png;
#BACKGROUND:I Can't Do This - Plumb-bg.png;
#LYRICSPATH:I Can't Do This - Plumb.lrc;
#CDTITLE:.\CDTITLES\DP2PLUMB.png;
#MUSIC:I Can't Do This - Plumb.mp3;
#OFFSET:-1.607;
#SAMPLESTART:29.8;
#SAMPLELENGTH:12;
#BPMS:0=85;

//---------------dance-single - ----------------
#NOTES:
     dance-single:
     :
     Easy:
     1:
     0.111,0.139,0.068,0.020,0:
0000
0000
0000
0000
,
0010
1000
0000
0000
,
1000
0001
0000
0000
,
0001
1000
0000
0000
,
0010
0100
0000
0000
,
1000
0001
0000
0000
,
0010
0100
0000
0000
,
1000
0001
0000
0000
,
0001
1000
0000
0000
,
0020
0000
0000
0030
,
1010
0100
0000
0000
,
0001
1000
0000
0000
,
1001
0100
0000
0000
,
0001
1000
0000
0000
,
0011
1000
0000
0000
,
1000
0001
0000
0000
,
1010
0100
0000
0000
,
0010
1000
0000
0000
,
0001
1000
0000
0000
,
1000
0001
0000
0000
,
0010
1000
0000
0000
,
1000
0001
0000
0000
,
0001
1000
0000
0000
,
1000
0001
0000
0000
,
0010
1000
0000
0000
,
1000
0001
0000
0000
,
0010
1000
0000
0000
,
0001
1000
0000
0000
,
0011
0100
0000
0000
,
0001
1000
0000
0000
,
1010
0100
0000
0000
,
1000
0002
0000
0003
,
0011
1000
0000
0000
,
1000
0010
0000
0000
,
1001
0100
0000
0000
,
0010
2000
0000
3000
,
1000
0001
0000
0000
,
0001
1000
0000
0000
,
0010
1000
0000
0000
,
1000
0001
0000
0000
,
0001
1000
0000
0000
,
0010
0100
0000
0000
,
1000
0001
0000
0000
,
0001
0100
0000
0000
,
0010
1000
0000
0000
,
1000
0001
0000
0000
,
0001
1000
0000
0000
,
1000
0001
0000
0000
,
0011
0100
0000
0000
,
0001
1000
0000
0000
,
1010
0100
0000
0000
,
0010
0100
0000
0000
;

//---------------dance-single - ----------------
#NOTES:
     dance-single:
     :
     Hard:
     5:
     0.230,0.226,0.068,0.054,0:
0000
0000
0000
0000
,
0000
1000
0001
0010
,
1000
0000
0001
0000
1000
0001
0000
1000
,
0001
0000
1000
0010
0001
1000
0001
1000
,
0010
0000
0100
0000
0010
1000
0001
0000
,
1000
0000
0001
0000
1000
0100
1000
0100
,
0010
0000
0100
0000
0010
0001
0000
0010
,
1000
0000
0001
0010
1000
0001
1000
0010
,
0001
1000
0001
1000
,
0020
0000
0000
0030
,
1010
0100
0001
1000
,
0001
0010
1000
0000
0001
0000
0100
0000
,
1001
0000
0100
0000
0010
1000
0010
1000
,
0001
0000
2000
0000
0001
0000
0000
3000
,
0011
1000
0100
0001
,
1000
0010
0001
0000
1000
0000
0001
0000
,
1010
0000
0100
0000
0010
1000
0001
1000
,
0010
2000
0010
3000
,
0001
1000
0001
0010
,
1000
0001
1000
0000
,
0010
0000
1000
0000
0010
1000
0000
0001
,
1000
0000
0001
0000
1000
0100
1000
0010
,
0001
1000
0001
0010
,
2000
0000
0001
0000
0000
3000
0001
1000
,
0010
0000
1000
0000
0001
1000
0000
0000
,
1000
0000
0001
0000
1000
0010
0001
1000
,
0010
0001
1000
0001
0010
1000
0000
0000
,
0002
0000
1000
0000
0000
0003
0000
0000
,
0011
0100
1000
0010
,
0001
0010
1000
0000
0001
0000
0100
0000
,
1010
0000
0100
0000
0010
0001
0010
0001
,
1000
0002
0000
0003
,
0011
1000
0100
0001
,
1000
0001
0010
0000
1000
0000
0100
0000
,
1001
0000
0100
0000
0010
1000
0010
1000
,
0010
2000
0000
3000
,
1000
0001
1000
0000
,
0001
1000
0001
0000
,
0010
1000
0010
0000
,
1000
0001
1000
0000
,
0001
1000
0001
1000
,
0010
0100
0010
0000
,
1000
0001
1000
0001
,
0001
0100
0001
0000
,
0010
1000
0010
0001
,
1000
0000
0001
0000
1000
0000
0010
1000
,
0001
0000
1000
0000
0001
0010
0001
0010
,
1000
0010
0001
2000
0000
0000
3000
0000
,
0011
0100
0010
1000
,
0001
0010
1000
0000
0001
0000
0100
0000
,
1010
0000
0100
0000
0100
1000
0100
0001
,
0010
0100
0000
0000
;

//---------------dance-single - ----------------
#NOTES:
     dance-single:
     :
     Medium:
     3:
     0.158,0.174,0.068,0.048,0:
0000
0000
0000
0000
,
0010
1000
0001
0000
,
1000
0001
1000
0000
,
0001
1000
0001
0000
,
0010
0100
0010
0000
,
1000
0001
1000
0000
,
0010
0100
0010
0000
,
1000
0001
1000
0000
,
0001
1000
0001
0000
,
0020
0000
0000
0030
,
1010
0100
0001
0000
,
0001
1000
0001
0000
,
1001
0100
0010
0000
,
0001
0000
2000
0000
0001
0000
0000
3000
,
0011
1000
0100
0000
,
1000
0001
1000
0000
,
1010
0100
0010
0000
,
0010
0000
2000
0000
0010
0000
0000
3000
,
0001
1000
0001
0000
,
1000
0001
1000
0000
,
0010
1000
0010
0000
,
1000
0001
1000
0000
,
0001
1000
0001
0000
,
2000
0001
0000
3000
,
0010
1000
0001
0000
,
1000
0001
1000
0000
,
0010
1000
0010
0000
,
0002
1000
0000
0003
,
0011
0100
1000
0000
,
0001
1000
0001
0000
,
1010
0100
0010
0000
,
1000
0002
0000
0003
,
0011
1000
0100
0000
,
1000
0010
1000
0000
,
1001
0100
0010
0000
,
0010
0000
2000
0000
0000
0000
0000
3000
,
1000
0001
1000
0000
,
0001
1000
0001
0000
,
0010
1000
0010
0000
,
1000
0001
1000
0000
,
0001
1000
0001
0000
,
0010
0100
0010
0000
,
1000
0001
1000
0000
,
0001
0100
0001
0000
,
0010
1000
0010
0000
,
1000
0001
1000
0000
,
0001
1000
0001
0000
,
1000
0001
1000
0000
,
0011
0100
0010
0000
,
0001
1000
0001
0000
,
1010
0100
0100
0000
,
0010
0100
0000
0000
;

//---------------dance-single - ----------------
#NOTES:
     dance-single:
     :
     Challenge:
     9:
     0.400,0.433,0.163,0.082,0.235:
0000
0000
0000
0000
,
0000
0000
0000
0000
0000
0000
0000
0000
0000
0000
0000
0000
0010
0100
0010
0100
,
0010
0000
1000
0000
0001
0010
0100
0000
,
1000
0000
0000
0000
0010
0000
0000
0000
0100
0000
0001
0000
1000
0001
1000
0000
,
1000
0000
0100
0000
0010
0001
1000
0000
,
0010
0000
0000
0000
0100
0000
0000
0000
0001
0100
0001
0000
0101
0000
0000
0000
,
1000
0000
0001
0000
1000
0001
0100
0000
0010
0000
0100
0000
0010
1000
0001
0000
,
0010
0000
0100
0000
1000
0000
0100
0000
0010
0001
0000
1000
0100
0000
0000
0000
,
1000
0000
0001
0000
1000
0010
0100
0000
0001
0000
0100
0000
0001
0010
0100
0000
,
1000
0000
0001
0000
0100
0000
0001
1000
0000
0001
1000
0000
0100
0010
0100
0010
,
0100
1000
0101
0000
0100
0001
1100
0000
,
0010
0001
1000
0000
0101
0000
0000
0000
0010
1000
0001
0000
1100
0000
0000
0000
,
0010
0100
1001
0000
0110
0001
1000
0010
,
0100
0100
0100
0010
0010
0010
1001
0000
,
0010
1000
0110
0000
0010
0001
0110
0000
,
1000
0001
0100
0000
1010
0000
0000
0000
0001
1000
0100
0000
0011
0000
0000
0000
,
1000
0001
0100
1001
0010
1000
0101
0010
,
1000
0000
1000
0000
1000
0000
0001
0000
0001
0000
0001
0000
1000
0100
1000
0100
,
2000
0001
0000
0001
,
0100
0000
0000
0000
0001
0000
0000
0010
0000
0000
0001
0000
3001
0000
0100
0000
,
0010
0000
1000
0000
0100
0000
1000
0000
0010
0100
0001
0000
0100
0010
1000
0000
,
0001
0000
0100
0000
0001
0000
1000
0000
0010
0100
0001
1000
0100
0000
0000
0000
,
0001
0000
1000
0000
0010
0000
1000
0000
0001
0010
0000
0100
1000
0000
0010
0000
,
0100
0000
0001
0000
1000
0000
0010
0000
0100
0000
0001
1000
0100
0010
0100
0010
,
0100
0000
1000
0000
0001
0000
0100
0000
0010
1000
0001
0000
1000
0001
0010
0000
,
0100
0000
1000
0000
0010
0000
1000
0000
0001
0010
0100
1000
0001
0000
0100
0000
,
0010
0000
1000
0000
0001
0000
0010
0000
0001
1000
0100
0000
0010
0001
1000
0010
,
0100
0001
0100
0000
0100
0000
0001
0000
1000
0100
1000
0000
0001
1000
0001
1000
,
0001
0100
1010
0000
0001
0010
1100
0000
,
0010
0001
1000
0000
0010
0100
0001
1000
0100
0000
1001
0000
0110
0000
0000
0000
,
1000
0001
0100
0000
0001
1000
0100
0000
0010
0001
0100
0000
0010
0000
0100
0000
,
0001
0000
0001
0000
0001
0000
1000
1000
0000
0001
0001
0000
1000
0001
0100
0001
,
1000
0010
0101
0000
0010
0001
1100
0000
,
0010
0001
1000
0100
0010
0000
1001
0000
0100
0010
1000
0000
0110
0000
0000
0000
,
0001
1000
0100
1001
0010
0100
0011
1000
,
0100
0000
0100
0000
0100
0000
0010
0010
0000
0100
0100
0000
1000
0010
0100
0001
,
0100
0010
0000
0010
0000
0000
0200
0000
0000
0000
0000
0000
0000
0300
0000
0000
,
0002
0000
2003
0000
,
3200
0010
0320
0001
,
0032
1000
1000
1000
1000
1000
1003
1000
,
0001
0000
0100
0010
0000
1000
0000
0002
,
0010
0000
0000
0010
0003
0100
0000
2000
,
0010
3000
0000
0200
0000
0300
0001
2000
,
0100
0000
3000
0000
0000
0000
0020
0000
0000
0000
0030
0000
0100
0001
1000
0000
,
0100
0000
0100
0000
0100
0001
0100
1000
,
0100
0000
0100
0000
0100
0001
0100
1000
,
0100
0000
0010
0000
0100
0000
0100
0100
0100
0000
0010
0000
0100
0000
0100
0100
,
0100
0000
1000
0001
0100
0000
0010
0010
0010
1000
0001
0100
0010
1000
0001
0010
,
0100
0010
0100
0001
,
0000
1000
1000
0000
0001
1000
0100
0000
,
0010
0100
0010
0001
,
1000
0000
0000
0000
;
