#TITLE:I Am the Way;
#ARTIST:Mark Schultz;
#BANNER:I Am the Way - Mark Schultz.png;
#BACKGROUND:I Am the Way - Mark Schultz-bg.png;
#LYRICSPATH:I Am the Way - Mark Schultz.lrc;
#CDTITLE:.\CDTITLES\DP2MARK.png;
#MUSIC:I Am the Way - Mark Schultz.mp3;
#OFFSET:-2.484;
#SAMPLESTART:48.6;
#SAMPLELENGTH:12;
#BPMS:0=113.07;

//---------------dance-single - ----------------
#NOTES:
     dance-single:
     :
     Easy:
     1:
     0.127,0.114,0,0,0:
0000
0000
0000
0000
,
0000
0000
0000
0001
,
0000
0000
0000
1000
,
0000
1000
0000
0001
,
0000
0001
0000
1000
,
0000
1000
0000
0001
,
0000
0001
0000
1000
,
0000
1000
0000
0001
,
1000
0000
0000
1000
,
0001
0000
0000
0010
,
0100
0000
0000
1000
,
0001
0000
0000
0010
,
0100
0000
0000
1000
,
0001
0000
0000
0010
,
0100
0000
0000
0010
,
0100
0000
0000
0010
,
0100
0000
0000
0001
,
1000
0000
0000
0010
,
0100
0000
0000
0001
,
1000
0000
0000
0010
,
0100
0000
0000
0001
,
1000
0000
0000
0010
,
0100
0000
0000
1000
,
0001
0000
0000
0010
,
0100
0000
0000
0001
,
1000
0000
0000
1000
,
0001
0000
0000
0010
,
0100
0000
0000
0001
,
1000
0000
0000
1000
,
0001
0000
0000
0010
,
0100
0000
0000
0001
,
1000
0000
0000
1000
,
0001
0000
0000
0010
,
0100
0000
0000
0001
,
1000
0000
0000
1000
,
0001
0000
0000
0010
,
0100
0000
0000
0001
,
1000
0000
0000
1000
,
0001
0000
0000
0010
,
0100
0000
0000
0001
,
1000
0000
0000
0010
,
0100
0000
0000
1000
,
0001
0000
0000
0001
,
1000
0000
0000
1000
,
0001
0000
0000
0010
,
0100
0000
0000
1000
,
0001
0000
0000
0001
,
1000
0000
0000
0010
,
0100
0000
0000
1000
,
0001
0000
0000
0010
,
0100
0000
0000
1000
,
0001
0000
0000
0001
,
1000
0000
0000
0010
,
0100
0000
0000
1000
,
0001
0000
0000
0010
,
0100
0000
0000
0001
,
1000
0000
0000
0010
,
0100
0000
0000
1000
,
0001
0000
0000
0001
,
1000
0000
0000
0010
,
0100
0000
0000
1000
,
0001
0000
0000
0000
;

//---------------dance-single - ----------------
#NOTES:
     dance-single:
     :
     Hard:
     7:
     0.352,0.341,0.209,0.052,0:
0000
0000
0000
0101
,
0010
1100
0010
1001
,
0100
1010
0100
0011
,
0100
0000
1010
0000
0000
0101
1100
0000
,
0010
1001
0100
0011
,
0100
1010
0100
0011
,
1000
0101
0010
1100
,
0001
1010
0100
1001
,
1000
0010
0001
0000
0010
0100
1000
0000
,
0001
0010
1000
0001
1000
0001
1000
0000
,
0100
0010
0100
0010
0100
0000
0000
0000
,
0001
0010
1000
0100
0001
0000
0000
0000
,
0100
1000
0010
0001
0100
1000
0010
0000
,
0001
0010
1000
0100
0001
0010
1000
0000
,
0100
1000
0010
0001
0100
0000
0000
0000
,
1000
0010
0001
0010
2000
0000
3000
0000
,
0101
0000
0000
1010
0000
0000
0011
0000
,
0000
0000
1000
0100
0010
0000
0001
0000
,
1100
0000
0000
0011
0000
0000
1001
0000
,
0000
0000
0100
0010
0001
0000
1000
0000
,
0110
0000
0000
1001
0000
0000
0110
0000
,
0000
0001
0010
0000
0100
0000
1000
0000
,
0001
1000
0001
0010
,
0100
0010
0100
0001
,
1000
0001
1000
0010
,
0100
0000
0020
0000
0000
0030
1000
0000
,
0001
1000
0001
0010
,
0100
0010
0100
0001
,
1000
0001
1000
0011
,
0101
0000
1001
0000
0000
0000
0010
1000
,
0100
1000
0010
1000
0100
0000
0001
0010
,
1000
0010
0001
0010
1000
0000
0100
0001
,
0010
0001
0100
0000
0000
0000
1000
0010
,
0001
0010
2000
0000
3000
0001
0010
0001
,
1000
0001
0010
0001
1000
0000
0010
1000
,
0001
1000
0010
1000
0001
0000
0010
0001
,
0100
1000
0010
0000
0000
0000
0001
0010
,
1000
0100
0002
0000
0000
0003
1000
0010
,
0001
0010
1000
0010
0001
0010
1000
0010
,
0100
1000
0010
0000
0100
0000
0001
0010
,
1000
0010
0001
0010
1000
0100
0010
0001
,
0100
0000
0010
0000
0100
0000
1000
0010
,
0001
0010
1000
0010
0001
1000
0001
0000
,
1000
0001
0100
1000
0010
0000
1000
0000
,
0001
1000
0001
0010
,
0100
0010
0100
1000
,
0001
1000
0010
0001
,
2000
0000
0010
3000
0100
0000
0010
0000
,
0100
1000
0001
1000
,
0001
0010
0100
0010
,
0100
1000
0001
1000
,
0002
0000
0100
0003
0010
0000
0001
0010
,
1000
0100
0001
0000
1000
0000
0010
0000
,
0100
0001
0010
1000
,
0001
0010
1000
0100
0001
0000
0010
1000
,
0200
0000
0310
0000
0100
0000
0001
0010
,
1000
0100
0001
0000
1000
0000
0010
0000
,
0100
0001
1000
0000
0001
0000
1000
0000
,
0001
0010
1000
0000
0010
0000
0001
0000
,
1000
0100
0001
0010
,
0100
0010
0001
1000
,
0001
0000
0000
0000
;

//---------------dance-single - ----------------
#NOTES:
     dance-single:
     :
     Medium:
     4:
     0.249,0.272,0.104,0.007,0:
0000
0000
0000
1000
,
0000
0000
0000
0001
,
0000
0010
0000
1000
,
0001
0000
1000
0000
0000
0101
1100
0000
,
0010
0001
0000
1000
,
0001
1000
0000
0001
,
1000
0001
0000
1000
,
0001
1000
0000
0001
,
1000
0001
0000
1000
,
0001
1000
0000
0010
,
0100
0010
0100
0000
,
0001
1000
0001
0000
,
0100
0010
0100
0010
,
0001
1000
0001
1000
,
0100
0010
0100
0000
,
1000
0001
1000
0000
,
0101
0000
0000
1010
0000
0000
0011
0000
,
0000
0000
1000
0100
0010
0000
0001
0000
,
1100
0000
0000
0011
0000
0000
1001
0000
,
0000
0000
0100
0010
0001
0000
1000
0000
,
0110
0000
0000
1001
0000
0000
0110
0000
,
0000
0001
0010
0000
0100
0000
1000
0000
,
0001
1000
0001
0010
,
0100
0010
0100
0001
,
1000
0001
1000
0010
,
0100
0010
0100
1000
,
0001
1000
0001
0010
,
0100
0010
0100
0001
,
1000
0001
1000
0011
,
0101
1001
0000
0010
,
0100
0010
0100
0001
,
1000
0001
1000
0100
,
0010
0100
0000
1000
,
0001
1000
0001
0010
,
1000
0010
1000
0010
,
0001
0010
0001
0010
,
0100
0010
0000
0001
,
1000
0000
0002
0000
0000
0003
1000
0000
,
0001
1000
0001
0010
,
0100
0010
0100
0001
,
1000
0001
1000
0010
,
0100
0010
0100
1000
,
0001
1000
0001
0001
,
1000
0100
0010
1000
,
0001
1000
0001
0010
,
0100
0010
0100
1000
,
0001
1000
0010
0001
,
1000
0010
0100
0010
,
0100
1000
0001
1000
,
0001
0010
0100
0010
,
0100
1000
0001
1000
,
0001
0100
0010
0001
,
1000
0001
1000
0010
,
0100
0001
0010
1000
,
0001
1000
0001
0010
,
0100
0010
0100
0001
,
1000
0001
1000
0010
,
0100
1000
0001
1000
,
0001
1000
0010
0001
,
1000
0100
0001
0010
,
0100
0010
0001
1000
;

//---------------dance-single - ----------------
#NOTES:
     dance-single:
     :
     Challenge:
     7:
     0.355,0.383,0.306,0.186,0.108:
0000
0000
0000
0000
,
0000
0000
0000
0000
,
2000
0001
0000
0001
,
0010
0000
0001
0000
3000
0100
1001
0000
,
0020
0100
0000
0100
,
1000
0100
0000
0100
,
0001
0100
0000
0130
,
1000
0100
0001
0110
,
1000
0010
0100
0001
,
1000
0010
0100
0001
,
1000
0001
0100
0000
1000
0000
0000
0000
,
0001
1000
0100
0000
0001
0000
1000
0000
,
0001
0010
0100
1000
,
0001
0010
0100
1000
,
0001
1000
0010
1000
0100
0000
0000
0000
,
1000
0001
0100
0001
1000
0000
0001
0000
,
0110
0000
0000
1100
0000
0000
0110
0000
,
0000
0000
1001
0000
0000
0010
0000
0000
0100
0000
0000
0000
0001
0000
0000
0000
,
1010
0000
0100
0001
0000
1000
0100
0000
,
0010
0000
0100
0000
0000
1001
0000
0000
0110
0000
0000
0000
1000
0000
0000
0000
,
0101
0000
0000
0110
0000
0000
0101
0000
,
0000
0000
1010
0000
0000
1001
0000
0000
0110
0000
0000
0000
1000
0000
0000
0100
,
0000
0000
0001
0000
0000
0100
0000
0000
1000
0000
0010
0000
0100
0000
0000
0000
,
0001
0000
1000
0000
0000
0000
0110
0000
0000
0000
0000
0000
0001
0000
0000
0010
,
0000
0000
1000
0000
0000
0010
0000
0000
0100
0000
1000
0000
0001
0000
0000
0000
,
2000
0000
0000
0000
3100
0000
0000
0000
0000
0000
0000
0000
0010
0000
0000
0001
,
0000
0000
1000
0000
0000
0010
0000
0000
0100
0000
0001
0000
1000
0000
0000
0000
,
0001
0000
0100
0000
0000
0000
1001
0000
0000
0000
0000
0000
0100
0000
0000
1000
,
0000
0000
0001
0000
0100
0000
0000
0000
0010
0000
0000
0000
0100
0000
0000
0100
,
0000
0110
0000
0001
1000
0000
0200
1000
,
1000
0000
1300
0000
1100
0000
0002
0100
,
0100
0000
0103
0000
0101
0000
0020
0100
,
0100
0100
0130
0010
,
1000
0000
0001
0000
0000
0000
1010
0100
,
0001
1010
0000
0100
0001
1000
0100
0011
,
1000
0010
1001
0000
0110
0000
2020
0000
,
0000
0000
3030
0002
,
1003
0000
0220
0000
0330
0000
1000
0100
,
0010
0100
1000
0100
0001
0100
1000
0010
,
0000
0100
0000
0000
1001
0000
0000
0000
0110
0000
0000
0000
0001
0000
0000
0000
,
1000
0100
0000
0010
1000
0000
0100
0001
,
0000
1000
0000
0000
0110
0000
0000
0000
1001
0000
0000
0000
0110
0000
0000
0000
,
0000
1010
0000
0000
0110
0000
0000
1001
,
0000
0011
0000
0000
1100
0000
0000
0000
0001
0000
0000
1000
0001
0000
0100
0000
,
0000
0001
1000
0000
0100
0000
0000
0000
0010
0000
0000
0010
0000
0000
0010
0000
,
0000
0000
0001
0000
0100
0000
0000
0000
0010
0000
0000
1000
0001
0000
0100
0000
,
0000
0001
1000
0000
0100
0000
0000
0000
2000
0000
0000
0000
3002
0000
0000
0000
,
0203
0000
0000
0000
0300
0000
0000
0000
0010
0000
0000
0010
1000
0000
0100
0000
,
0000
0100
0010
0000
0001
0000
0100
0000
1000
0000
0000
1000
0000
0000
1000
0000
,
0000
0000
0100
0000
0010
0000
0000
0000
0001
0000
0000
1000
0000
0000
0100
0000
,
0010
0000
0000
0000
1001
0000
0000
0000
0010
0000
0000
1000
0100
0000
0010
0000
,
0000
0010
1001
0000
0200
0000
0010
0000
,
0320
0000
2030
0000
3001
0000
0010
0100
,
1000
0001
2000
0010
,
3002
0000
0023
0000
0130
0000
1000
0001
,
0100
0000
0000
0000
1001
0000
0000
0000
0020
0000
0000
0100
0000
0000
0100
0000
,
0100
0000
0000
0100
0030
0000
0100
0000
0002
0000
0000
1000
0000
0000
0100
0000
,
0103
0000
0000
0000
1000
0000
0000
0000
0100
0000
0000
0100
0000
0000
0100
0000
,
0010
0000
0000
0010
0000
0000
0010
0000
2002
0000
0000
0000
0000
0000
0000
0000
,
0000
0000
0003
0000
0001
0000
0000
0001
,
0002
0000
3003
0000
;
