#TITLE:I Am Free;
#ARTIST:Newsboys;
#BANNER:I Am Free - Newsboys.PNG;
#BACKGROUND:I Am Free - Newsboys-bg.PNG;
#LYRICSPATH:I Am Free - Newsboys.lrc;
#CDTITLE:.\CDTITLES\DP2NEWS.png;
#MUSIC:I Am Free - Newsboys.mp3;
#OFFSET:-2.287;
#SAMPLESTART:52.5;
#SAMPLELENGTH:12;
#BPMS:0=136;
#BGCHANGES:0=I Am Free - Newsboys.AVI=1=1=1=0,999=-=1=0=0=0;

//---------------dance-single - ----------------
#NOTES:
     dance-single:
     :
     Easy:
     1:
     0.160,0.166,0.014,0.069,0:
0000
0000
0000
0000
,
0010
0000
1000
0000
,
0010
0000
0001
0000
,
1000
0000
0010
0000
,
0001
0000
1000
0000
,
0010
0000
0001
0000
,
1000
0000
0001
0000
,
1000
0000
0001
0000
,
1000
0000
0010
0000
,
0100
0000
1000
0000
,
0010
0000
0001
0000
,
0100
0000
1000
0000
,
0010
0000
0001
0000
,
0110
0000
1000
0000
,
0010
0000
0001
0000
,
0100
0000
1000
0000
,
0001
0000
0010
0000
,
0110
0000
0010
0000
,
0100
0000
0010
0000
,
0100
0000
0001
0000
,
0010
0000
1000
0000
,
0001
0000
0010
0000
,
0001
0020
0000
0030
,
1000
0000
0001
0000
,
0010
0000
1000
0000
,
0100
0000
0001
0000
,
1000
0000
0010
0000
,
1000
0000
0010
0000
,
0001
0000
1000
0000
,
0010
0000
0001
0000
,
0100
0000
1000
0000
,
0010
0000
0001
0000
,
1000
0000
0010
0000
,
0002
0000
0000
0003
,
1000
0000
0010
0000
,
0002
0000
0000
0003
,
1000
0000
0001
0000
,
0020
0000
0000
0030
,
1000
0000
0001
0000
,
2000
0000
0000
3000
,
0001
0000
1000
0000
,
0010
0000
0001
0000
,
1000
0000
0010
0000
,
1000
0000
0010
0000
,
0001
0000
1000
0000
,
0010
0000
0001
0000
,
1000
0000
0010
0000
,
1000
0000
0001
0000
,
0010
0000
1000
0000
,
0001
0000
0010
0000
,
0001
0000
1000
0000
,
0010
0000
0001
0000
,
0010
0000
1000
0000
,
0001
0000
0010
0000
,
1000
0000
0001
0000
,
0010
0000
1000
0000
,
0001
0000
0010
0000
,
1000
0000
0001
0000
,
0010
0000
1000
0000
,
0001
0000
0010
0000
,
0010
0000
1000
0000
,
0200
0000
0000
0300
,
0010
0000
1000
0000
,
0001
0000
0010
0000
,
0010
0000
1000
0000
,
0200
0000
0000
0300
,
0010
0000
1000
0000
,
0200
0000
0000
0300
,
0010
0000
1000
0000
,
0200
0000
0000
0300
,
1000
0000
0010
0000
,
0002
0000
0000
0003
,
1000
0000
0010
0000
,
0001
0000
1000
0000
,
0001
0000
1000
0000
,
0001
0000
0010
0000
,
1000
0000
0001
0000
,
0010
0000
0001
0000
,
1000
0000
0100
0000
,
0010
0000
0001
0000
,
1000
0000
0001
0000
;

//---------------dance-single - ----------------
#NOTES:
     dance-single:
     :
     Hard:
     7:
     0.386,0.445,0.448,0.069,0:
0000
0000
0000
0011
,
1001
1100
0001
0001
,
1000
0001
1000
0010
,
1100
0001
0010
0100
,
0001
0010
1000
0001
,
0110
1000
0001
0010
,
1000
0100
0001
0010
,
1001
0100
0001
0010
,
1000
0001
0010
1000
,
0101
0010
1100
0001
,
1010
0101
0011
1100
,
0011
0010
1001
0001
,
0110
1100
0011
1100
,
0110
0001
1000
0100
,
0010
1000
0001
0010
,
0101
0001
1000
0010
,
0001
0100
0010
1000
,
0110
0001
0110
1000
,
0100
0001
0110
1000
,
0100
0010
0101
1000
,
0010
0000
0001
0000
1001
0100
0010
1000
,
0001
0100
0011
1000
,
0001
0000
1020
0000
0000
0000
0000
0030
,
1000
0010
0101
1000
,
0010
0000
0001
0000
1010
0100
0001
0010
,
0100
1000
0101
0010
,
1000
0000
0100
0000
0011
0000
1000
0100
,
0001
1000
0010
0000
0100
0010
1000
0000
,
0001
0010
1000
0100
,
0011
1000
0101
1010
,
0100
0001
1000
0001
,
0110
1000
1001
0110
,
1000
0100
0010
1000
,
0002
0000
1000
0000
0010
0000
0000
0003
,
1000
0001
0010
1000
,
0002
0000
1000
0000
0010
0000
0000
0003
,
1000
0010
0001
1000
,
0020
0000
1000
0000
1000
0000
0000
0030
,
1000
0010
0001
0010
,
2000
0000
0001
0000
0010
0000
0000
3000
,
0001
0010
1000
0001
,
0110
1000
0001
0010
,
1100
0001
0010
0100
,
1001
0100
0010
1000
,
0011
0100
1000
0001
,
1010
0100
0001
0010
,
1100
0001
0010
0100
,
1001
0010
0001
1000
,
0110
0001
1000
0010
,
0001
1000
0011
1000
,
0001
0010
1100
0001
,
0010
1000
0011
1000
,
0010
0100
1010
0100
,
0001
1000
0011
0100
,
1000
0010
0101
1000
,
0010
0001
1100
0010
,
0001
1000
0011
0100
,
1000
0010
0101
1000
,
0010
0001
1100
0010
,
0001
1000
0011
1000
,
0010
0001
1000
0001
,
0200
0001
0010
0300
,
0010
0001
1000
0010
,
1001
0100
0010
1000
,
0010
0001
1000
0001
,
0200
0000
0001
0000
0010
0000
0000
0300
,
0010
0001
1000
0010
,
0200
0000
0001
0000
0010
0000
0000
0300
,
0010
0001
1000
0001
,
0200
0000
0001
0000
0010
0000
0000
0300
,
1000
0001
0010
1000
,
0002
0000
1000
0000
0010
0000
0000
0003
,
1000
0001
0010
1000
,
0101
0010
1000
0100
,
1001
0010
1000
0100
,
0011
1000
0010
0001
,
1100
0010
0001
1000
,
0110
1000
0001
0010
,
1001
0010
0100
0001
,
0110
1000
0001
0010
,
1001
0100
0001
0010
;

//---------------dance-single - ----------------
#NOTES:
     dance-single:
     :
     Medium:
     5:
     0.331,0.334,0.234,0.069,0:
0000
0000
0000
0100
,
0011
0100
1000
0001
,
1000
0001
1000
0010
,
1100
0001
0010
0100
,
0001
0010
1000
0001
,
0110
1000
0001
0010
,
1000
0100
0001
0010
,
1001
0100
0001
0010
,
1000
0001
0010
1000
,
0101
0010
1000
0001
,
0010
0100
0001
1000
,
1100
0010
1000
0001
,
0010
0100
0001
1000
,
0110
0001
1000
0100
,
0010
1000
0001
0010
,
0101
0001
1000
0010
,
0001
0100
0010
1000
,
0110
0001
0010
1000
,
0100
0001
0110
1000
,
0100
0010
0001
1000
,
0010
0001
1001
0010
,
0001
0100
0010
1000
,
0001
0000
1020
0000
0000
0000
0000
0030
,
1000
0010
0001
1000
,
0010
0001
1010
0001
,
0100
1000
0001
0010
,
1000
0100
0011
0100
,
1000
0100
0010
1000
,
0001
0010
1000
0100
,
0011
1000
0001
0010
,
0100
0001
1000
0001
,
0110
1000
0001
0010
,
1000
0100
0010
1000
,
0002
0000
0000
0003
,
1000
0001
0010
1000
,
0002
0000
0000
0003
,
1000
0010
0001
1000
,
0020
0000
0000
0030
,
1000
0010
0001
0010
,
2000
0000
0000
3000
,
0001
0010
1000
0001
,
0110
1000
0001
0010
,
1000
0001
0010
0100
,
1001
0100
0010
1000
,
0001
0100
1000
0001
,
1010
0100
0001
0010
,
1100
0001
0010
0100
,
1001
0010
0001
1000
,
0110
0001
1000
0010
,
0001
1000
0010
1000
,
0001
0010
1100
0001
,
0010
1000
0001
1000
,
0010
0100
1010
0100
,
0001
1000
0010
0100
,
1000
0010
0101
1000
,
0010
0001
1000
0010
,
0001
1000
0011
0100
,
1000
0010
0001
1000
,
0010
0001
1100
0010
,
0001
1000
0010
1000
,
0010
0001
1000
0001
,
0200
0000
0000
0300
,
0010
0001
1000
0010
,
1001
0100
0010
1000
,
0010
0001
1000
0001
,
0200
0000
0000
0300
,
0010
0001
1000
0010
,
0200
0000
0000
0300
,
0010
0001
1000
0001
,
0200
0000
0000
0300
,
1000
0001
0010
1000
,
0002
0000
0000
0003
,
1000
0001
0010
1000
,
0101
0010
1000
0100
,
0001
0010
1000
0100
,
0011
1000
0010
0001
,
1000
0010
0001
1000
,
0110
1000
0001
0010
,
1001
0010
0100
0001
,
0110
1000
0001
0010
,
1001
0100
0001
0010
;

//---------------dance-single - ----------------
#NOTES:
     dance-single:
     :
     Challenge:
     7:
     0.428,0.416,0.283,0.069,0.007:
0000
0000
0000
0000
,
0000
0000
0000
0000
,
0000
0000
0000
0000
,
0000
0000
0000
0000
,
0000
0000
0000
0000
,
1001
0000
0010
0100
0001
0000
0010
0100
,
0001
0000
0010
0100
0001
0000
1000
0000
,
0110
0000
1000
0100
0001
0000
1000
0100
,
0001
0000
1000
0100
0001
0000
0100
0000
,
2001
0000
0010
0000
3010
0000
0100
0001
,
0000
1100
0000
0010
0100
1000
0001
0000
,
1002
0000
0100
0000
0103
0000
0010
1000
,
0000
0100
0001
0100
1000
0001
0100
0000
,
0020
0000
0100
0000
0130
0000
1000
0001
,
0000
0110
0000
1000
0001
1000
0100
0000
,
1001
1100
0011
0101
,
0010
1000
0100
0000
0010
0001
0100
0000
,
1000
0000
0010
0100
0000
0010
0000
1000
,
0000
0001
0000
0010
0100
0000
1000
0000
,
0001
0000
1000
0001
0000
0010
0000
0100
,
0000
1000
0000
0001
0100
0000
0000
0000
,
1000
0000
0010
0100
0000
0010
0000
1000
,
0000
0001
1000
0100
0010
0000
0100
0000
,
1000
0000
0001
0100
0000
0010
0000
1000
,
0000
0010
0100
0001
1000
0000
0000
0000
,
0001
1000
0010
1001
,
0010
1000
0100
0000
0010
0000
1001
0000
,
0010
1100
0010
0101
,
1000
0010
0100
0000
0001
0010
0100
0000
,
0020
0000
0100
0130
,
1000
0001
0110
1001
,
0200
0000
0000
0000
0010
0000
0310
1000
,
0000
0100
0001
0000
0110
0000
0110
0000
,
1000
0001
0100
0000
0010
1000
0100
0000
,
0010
0000
1001
0000
0100
0010
0001
0000
,
1000
0001
0100
0000
0010
1000
0100
0000
,
0010
0000
1001
0000
0100
0010
1000
0000
,
0001
0100
0010
0000
1000
0100
0001
0000
,
0100
0000
1001
0000
0010
0001
1000
0000
,
0001
0100
0010
0000
1000
0100
0001
0000
,
0100
0000
1001
0000
0010
1000
0001
0000
,
0100
0010
0100
0000
0010
1000
0001
1000
,
0100
0000
0010
0000
0001
0100
1000
0000
,
0100
0010
0100
0000
0010
1000
0001
1000
,
0100
0010
1100
0101
,
1000
0000
0001
0100
0010
0000
0001
0100
,
0010
1000
0000
0001
1000
0100
0001
0000
,
1100
0000
0010
0000
1001
0000
0100
0010
,
0000
1010
0000
0101
0000
1000
0100
0000
,
0001
0001
0100
0100
,
1000
1000
0100
0100
,
0010
0010
1000
1000
,
0001
0001
1000
1000
,
0100
1000
0100
0000
0010
1000
0010
0000
,
1000
0001
1000
0000
0010
0100
0010
0000
,
0100
0001
0100
0000
0001
1000
0001
0000
,
0010
0001
0010
0000
1000
0100
1000
0001
,
0100
0000
0200
0000
0010
0010
0310
0000
,
1000
0000
0001
1000
0000
0100
0001
0100
,
0000
1000
0001
0010
0000
0010
0001
1000
,
0100
1000
0001
0000
1001
0000
0110
0000
,
2000
0000
0001
0001
0000
0100
3100
0000
,
0001
0000
0000
0000
1000
0000
0000
0000
0001
0000
0100
0010
0100
0010
0100
0000
,
0002
0100
1000
0103
,
0010
0001
1000
0001
1001
0000
0000
0000
,
0100
1000
0001
0000
0100
0010
1000
0000
,
0001
1100
0001
1100
,
0010
0001
1000
0000
0010
0100
0001
0000
,
1000
0101
1000
0101
,
0010
1000
0100
0000
0010
1000
0100
0000
,
0010
0001
1000
0000
0010
0000
0101
0000
,
0010
0001
1000
0000
0010
0001
1000
0000
,
0010
0100
0001
0000
1010
0000
0101
0000
,
0010
1000
0001
1000
0010
1000
0001
0100
,
0000
0100
0000
0001
1000
0001
0100
0000
,
0010
0001
1000
0001
0010
0001
1000
0010
,
0000
0010
0000
1001
0000
1001
0100
0000
,
0110
0000
1000
0000
0001
1000
0001
1000
,
0100
1000
0001
0000
,
0200
0000
0020
0000
,
0000
0030
0000
0000
0300
0000
0000
0000
;
