#TITLE:How Can I Keep...;
#ARTIST:Chris Tomlin;
#BANNER:How Can I Keep... - Chris Tomlin.png;
#BACKGROUND:How Can I Keep... - Chris Tomlin-bg.png;
#LYRICSPATH:How Can I Keep... - Chris Tomlin.lrc;
#CDTITLE:.\CDTITLES\DP2CHRIS.png;
#MUSIC:How Can I Keep... - Chris Tomlin.mp3;
#OFFSET:-2.798;
#SAMPLESTART:49.1;
#SAMPLELENGTH:12;
#BPMS:0=138.64;
#BGCHANGES:1.1=How Can I Keep... - Chris Tomlin.AVI=1=1=1=0,999=-=1=0=0=0;

//---------------dance-single - ----------------
#NOTES:
     dance-single:
     :
     Easy:
     1:
     0.134,0.168,0.035,0.042,0.007:
0000
0000
0000
0000
,
0001
0000
0000
0000
,
1000
0000
0000
0000
,
0110
0000
0001
0000
,
1000
0000
0000
0000
,
0001
0000
1000
0000
,
0010
0000
0000
0000
,
1000
0000
0001
0000
,
0010
0000
0000
0000
,
0001
0000
1000
0000
,
0010
0000
0000
0000
,
1000
0000
0010
0000
,
0001
0000
0000
0000
,
1000
0000
0100
0000
,
0001
0000
0000
0000
,
0010
0000
0001
0000
,
1000
0000
0000
0000
,
0001
0000
0010
0000
,
1000
0000
0000
0000
,
0010
0000
1000
0000
,
0001
0000
0000
0000
,
1000
0000
0010
0000
,
0001
0000
0000
0000
,
0010
0000
0001
0000
,
1000
0000
0000
0000
,
0001
0000
0010
0000
,
1000
0000
0000
0000
,
0001
0000
1000
0000
,
0020
0000
0000
0030
,
1000
0000
0011
0000
,
0100
0000
1000
0000
,
0001
0000
1000
0000
,
0010
0000
0001
0000
,
1000
0000
0000
0000
,
0010
0000
1000
0000
,
0001
0000
0000
0000
0000
0000
0010
0000
0000
0000
1000
0000
,
0020
0000
0000
0030
,
0001
0000
0110
0000
,
1000
0000
0010
0000
,
0002
0000
0000
0003
,
0010
0000
0000
0000
,
1000
0000
0001
0000
,
0010
0000
0000
0000
,
2000
0000
0000
3000
,
0010
0000
1000
0000
,
0001
0000
0000
0000
,
0010
0000
0001
0000
,
1000
0000
0000
0000
,
0010
0000
1000
0000
,
0001
0000
0000
0000
,
0010
0000
0001
0000
,
1000
0000
0000
0000
,
0010
0000
0001
0000
,
1000
0000
0000
0000
,
0010
0000
1000
0000
,
0001
0000
0000
0000
,
0010
0000
0001
0000
,
1000
0000
0000
0000
,
0001
0000
1000
0000
,
0010
0000
0000
0000
,
0001
0000
0010
0000
,
1000
0000
0000
0000
,
0010
0000
0001
0000
,
1000
0000
0001
0000
,
0020
0000
0000
0030
,
0001
0000
1100
0000
,
0010
0000
0000
0000
,
1000
0000
0001
0000
,
0010
0000
0000
0000
,
0001
0000
1000
0000
,
0010
0000
0000
0000
,
1000
0000
0000
0000
0000
0000
0001
0000
0000
0000
1000
0000
,
0020
0000
0000
0030
,
0001
0000
0110
0000
,
1000
0000
0000
0000
,
0001
0000
0010
0000
,
1000
0000
0000
0000
,
0010
0000
1000
0000
,
0001
0000
0000
0000
,
0010
0000
0001
0000
;

//---------------dance-single - ----------------
#NOTES:
     dance-single:
     :
     Hard:
     6:
     0.268,0.308,0.028,0.042,0.366:
0000
0000
0000
0000
0000
0000
1000
0000
0001
0000
0010
0000
,
0100
0000
0000
0000
0001
0000
0010
0000
0100
0000
1000
0000
,
0001
0000
0000
0000
0010
0000
1000
0000
0010
0000
0100
0000
,
0001
0000
0000
0000
0010
0000
1000
0000
0001
0000
1000
0000
,
0001
0000
0000
0000
0010
0000
0100
0000
1000
0000
0010
0000
,
0001
0000
0000
0000
0010
0000
1000
0000
0001
0000
1000
0000
,
0010
0000
0000
0000
0001
0000
0010
0000
1000
0000
0001
0000
,
1000
0000
0000
0000
0010
0000
0001
0000
0010
0000
0100
0000
,
0010
0000
0000
0000
1000
0000
0010
0000
1000
0000
0010
0000
,
0001
0000
0000
0000
0010
0000
1000
0000
0001
0000
1000
0000
,
0010
0000
0000
0000
1000
0000
0001
0000
0010
0000
0100
0000
,
1000
0000
0010
0000
,
0001
0000
0000
0000
0000
0000
0010
0000
1000
0000
0001
0000
,
1000
0000
0100
0000
,
0001
0000
0000
0000
0000
0000
1000
0000
0000
0000
0001
0000
,
0010
0000
0001
0000
,
1000
0000
0010
0000
,
0001
0000
0010
0000
,
1000
0000
0000
0000
0000
0000
0001
0000
1000
0000
0001
0000
,
0010
0000
1000
0000
,
0001
0000
0000
0000
0000
0000
0010
0000
0001
0000
0010
0000
,
1000
0000
0010
0000
,
0001
0000
1000
0000
,
0010
0000
0001
0000
,
1000
0000
0010
0000
,
0001
0000
0010
0000
,
1000
0000
0100
0000
,
0001
0000
1000
0000
0001
0000
1000
0000
0000
0000
0100
0000
,
0020
0000
0000
0030
,
1000
0000
0011
0000
,
0100
0000
0000
0000
0000
0000
1000
0000
0001
0000
1000
0000
,
0001
0000
0000
0000
0000
0000
1000
0000
0001
0000
1000
0000
,
0010
0000
0000
0000
0000
0000
0001
0000
0010
0000
1000
0000
,
0001
0000
0000
0000
0000
0000
0001
0000
1000
0000
0001
0000
,
0010
0000
0000
0000
0001
0000
1000
0000
0000
0000
0000
0000
,
0001
0000
1000
0000
0100
0000
0010
0000
0000
0000
1000
0000
,
0020
0000
0000
0030
,
0001
0000
0000
0000
0100
0000
0010
0000
0000
0000
0000
0000
,
1000
0000
0000
0000
0000
0000
0001
0000
0010
0000
1000
0000
,
1002
0000
0000
0000
0000
0000
0000
0000
1003
0000
0001
0000
,
0010
0000
0000
0000
0000
0000
0001
0000
0010
0000
0001
0000
,
1000
0000
0001
0000
,
0010
0000
0000
0000
0000
0000
0001
0000
0100
0000
0010
0000
,
2000
0000
0000
0000
0000
0000
3000
0000
0001
0000
1000
0000
,
0010
0000
0000
0000
0000
0000
1000
0000
0100
0000
0010
0000
,
0001
0000
0000
0000
0000
0000
1000
0000
0001
0000
1000
0000
,
0010
0000
0000
0000
0000
0000
0001
0000
0010
0000
0100
0000
,
1000
0000
0001
0000
,
0010
0000
0000
0000
0000
0000
1000
0000
0001
0000
1000
0000
,
0001
0000
1000
0000
,
0010
0000
0000
0000
0000
0000
0001
0000
1000
0000
0001
0000
,
1000
0000
0001
0000
,
0010
0000
0001
0000
,
1000
0000
0001
0000
,
0010
0000
0000
0000
0000
0000
1000
0000
0100
0000
0010
0000
,
0001
0000
1000
0000
,
0010
0000
0000
0000
0000
0000
0001
0000
1000
0000
0001
0000
,
1000
0000
0010
0000
,
0001
0000
0000
0000
0000
0000
1000
0000
0000
0000
0001
0000
,
0010
0000
1000
0000
,
0001
0000
0010
0000
,
1000
0000
0001
0000
,
0010
0000
0000
0000
0000
0000
0001
0000
1000
0000
0001
0000
,
1000
0000
0100
0000
0010
0000
0001
0000
0000
0000
1000
0000
,
0020
0000
0030
0000
,
0001
0000
1100
0000
,
0010
0000
0000
0000
0000
0000
0001
0000
1000
0000
0001
0000
,
1000
0000
0000
0000
0000
0000
1000
0000
0001
0000
1000
0000
,
0010
0000
0000
0000
0000
0000
1000
0000
0001
0000
1000
0000
,
0001
0000
0000
0000
0000
0000
1000
0000
0001
0000
1000
0000
,
0010
0000
0001
0000
,
1000
0000
0001
0000
1000
0000
0001
0000
0000
0000
1000
0000
,
0020
0000
0030
0000
,
0001
0000
0110
0000
,
1000
0000
0000
0000
0000
0000
0010
0000
1000
0000
0010
0000
,
0001
0000
0000
0000
0000
0000
0010
0000
0001
0000
0010
0000
,
1000
0000
0000
0000
0000
0000
0001
0000
1000
0000
0001
0000
,
0010
0000
1000
0000
,
0001
0000
0000
0000
0000
0000
1000
0000
0001
0000
1000
0000
,
0010
0000
0001
0000
;

//---------------dance-single - ----------------
#NOTES:
     dance-single:
     :
     Medium:
     3:
     0.175,0.196,0.035,0.042,0.035:
0000
0000
0001
0000
,
0001
0000
1000
0000
,
1000
0000
0001
0000
,
0110
0000
0000
0000
1000
0000
0001
0000
0000
0000
0000
0000
,
1000
0000
0000
0000
0010
0000
0100
0000
0000
0000
0000
0000
,
0001
0000
0000
0000
0010
0000
1000
0000
0000
0000
0000
0000
,
0010
0000
0000
0000
0001
0000
0010
0000
0000
0000
0000
0000
,
1000
0000
0000
0000
0010
0000
0001
0000
0000
0000
0000
0000
,
0010
0000
0000
0000
1000
0000
0010
0000
0000
0000
0000
0000
,
0001
0000
0000
0000
0010
0000
1000
0000
0000
0000
0000
0000
,
0010
0000
0000
0000
1000
0000
0001
0000
0000
0000
0000
0000
,
1000
0000
0010
0000
,
0001
0000
0010
0000
,
1000
0000
0100
0000
,
0001
0000
1000
0000
,
0010
0000
0001
0000
,
1000
0000
0010
0000
,
0001
0000
0010
0000
,
1000
0000
0001
0000
,
0010
0000
1000
0000
,
0001
0000
0010
0000
,
1000
0000
0010
0000
,
0001
0000
1000
0000
,
0010
0000
0001
0000
,
1000
0000
0010
0000
,
0001
0000
0010
0000
,
1000
0000
0100
0000
,
0001
0000
1000
0000
,
0020
0000
0000
0030
,
1000
0000
0011
0000
,
0100
0000
1000
0000
,
0001
0000
1000
0000
,
0010
0000
0001
0000
,
1000
0000
0001
0000
,
0010
0000
1000
0000
,
0001
0000
0000
0000
0000
0000
0010
0000
0000
0000
1000
0000
,
0020
0000
0000
0030
,
0001
0000
0110
0000
,
1000
0000
0010
0000
,
0002
0000
0000
0003
,
0010
0000
0001
0000
,
1000
0000
0001
0000
,
0010
0000
0001
0000
,
2000
0000
0000
3000
,
0010
0000
1000
0000
,
0001
0000
1000
0000
,
0010
0000
0001
0000
,
1000
0000
0001
0000
,
0010
0000
1000
0000
,
0001
0000
1000
0000
,
0010
0000
0001
0000
,
1000
0000
0001
0000
,
0010
0000
0001
0000
,
1000
0000
0001
0000
,
0010
0000
1000
0000
,
0001
0000
1000
0000
,
0010
0000
0001
0000
,
1000
0000
0010
0000
,
0001
0000
1000
0000
,
0010
0000
1000
0000
,
0001
0000
0010
0000
,
1000
0000
0001
0000
,
0010
0000
0001
0000
,
1000
0000
0001
0000
,
0020
0000
0000
0030
,
0001
0000
1100
0000
,
0010
0000
0001
0000
,
1000
0000
0001
0000
,
0010
0000
1000
0000
,
0001
0000
1000
0000
,
0010
0000
0001
0000
,
1000
0000
0000
0000
0000
0000
0001
0000
0000
0000
1000
0000
,
0020
0000
0000
0030
,
0001
0000
0110
0000
,
1000
0000
0010
0000
,
0001
0000
0010
0000
,
1000
0000
0001
0000
,
0010
0000
1000
0000
,
0001
0000
1000
0000
,
0010
0000
0001
0000
;

//---------------dance-single - ----------------
#NOTES:
     dance-single:
     :
     Challenge:
     7:
     0.317,0.366,0.113,0.296,0.412:
0000
0000
0000
0000
,
0000
0000
0000
0000
,
0000
0000
0000
0000
,
1000
0000
0000
0000
1000
0000
0001
0000
0000
0000
0001
0000
,
1000
0000
0000
0000
1000
0000
0100
0000
0010
0000
0100
0000
,
1000
0000
0000
0000
1000
0000
0010
0000
0001
0000
0010
0000
,
1000
0000
0110
0000
,
0001
0000
0000
0000
0001
0000
0100
0000
0000
0000
0100
0000
,
0001
0000
0000
0000
0001
0000
0010
0000
0100
0000
1000
0000
,
0001
0000
0000
0000
0001
0000
0100
0000
1000
0000
0100
0000
,
0001
0000
0110
0000
,
0020
0000
2030
0000
,
3001
0000
0000
0000
0000
0000
1000
0000
0000
0000
0001
0000
,
0020
0000
0100
0000
,
0130
0000
0000
0000
0000
0000
0000
0000
0000
0000
1000
0000
,
0002
0000
0203
0000
,
2300
0000
3200
0000
,
0302
0000
0000
0000
,
0003
0000
0000
0000
0000
0000
1000
0000
0001
0000
1000
0000
,
0200
0000
2300
0000
,
3001
0000
0000
0000
0000
0000
1000
0000
0000
0000
0001
0000
,
0200
0000
0010
0000
,
0310
0000
0000
0000
0000
0000
0000
0000
1000
0000
0001
0000
,
0200
0000
0302
0000
,
0023
0000
2030
0000
,
3020
0000
0000
0000
,
0130
0000
0100
0000
0100
0000
0100
0000
1000
0000
0001
0000
,
0100
0000
0010
0000
0100
0000
0001
0000
0000
0000
0001
0000
,
1000
0000
0000
0000
1000
0000
0001
0000
0000
0000
0001
0000
,
0020
0000
1000
0000
,
0031
0000
0000
0000
0000
0000
0010
0000
0010
0000
0010
0000
,
1000
0000
0000
0000
0001
0000
0000
0000
1000
0000
0001
0000
,
0100
0000
1001
0000
,
1000
0000
0000
0000
1000
0000
0000
0000
0001
0000
1000
0000
,
0010
0000
0110
0000
,
0100
0000
0010
0000
0100
0000
1000
0000
0000
0000
1000
0000
,
0001
0000
0000
0000
0001
0000
1000
0000
0000
0000
1000
0000
,
0200
0000
0001
0000
,
1300
0000
0000
0000
0000
0000
0100
0000
0100
0000
0100
0000
,
0010
0000
0000
0000
0000
0000
1000
0000
0001
0000
1000
0000
,
0100
0000
0000
0000
0000
0000
0010
0000
0001
0000
1000
0000
,
0001
0000
0000
0000
0001
0000
1000
0000
0000
0000
1000
0000
,
0010
0000
0000
0000
0000
0000
0110
0000
1000
0000
0001
0000
,
0100
0000
0000
0000
0100
0000
0001
0000
0100
0000
0001
0000
,
1000
0000
0000
0000
0100
0000
1000
0000
0100
0000
1000
0000
,
0010
0000
0000
0000
0010
0000
0100
0000
0001
0000
1000
0000
,
0002
0000
0003
0000
,
1000
0000
0000
0000
1000
0000
0100
0000
0000
0000
0100
0000
,
0010
0000
0000
0000
0000
0000
0001
0000
1000
0000
0001
0000
,
0200
0000
0320
0000
,
2030
0000
0000
0000
0000
0000
3000
0000
0001
0000
0001
0000
,
0002
0000
0023
0000
,
2030
0000
3020
0000
,
0130
0000
0000
0000
0100
0000
0100
0000
0000
0000
1000
0000
,
0001
0000
0000
0000
0001
0000
1000
0000
0010
0000
1000
0000
,
0001
0000
0000
0000
0001
0000
0100
0000
0000
0000
0100
0000
,
0010
0000
0000
0000
0000
0000
1000
0000
0001
0000
1000
0000
,
0020
0000
2030
0000
,
3002
0000
0000
0000
0000
0000
0003
0000
0000
0000
1000
0000
,
2000
0000
3200
0000
,
0320
0000
0032
0000
,
0103
0000
0000
0000
0010
0000
0010
0000
0000
0000
0100
0000
,
0100
0000
0010
0000
1000
0000
0001
0000
1000
0000
0001
0000
,
0010
0000
0010
0000
0010
0000
0010
0000
0000
0000
0100
0000
,
1000
0000
1001
0000
,
0201
0000
0000
0000
0010
0000
0310
0000
0000
0000
0000
0000
,
1200
0000
0000
0000
0010
0000
0310
0000
0000
0000
0000
0000
,
1000
0000
0000
0000
1000
0000
0001
0000
0010
0000
0001
0000
,
0100
0000
0000
0000
0100
0000
0010
0000
1000
0000
0100
0000
,
0001
0000
0000
0000
0100
0000
0000
0000
0010
0000
1000
0000
,
0001
0000
0000
0000
0000
0000
1001
0000
1001
0000
1001
0000
,
0100
0000
0100
0000
0100
0000
0100
0000
0000
0000
0010
0000
,
0001
0000
1001
0000
,
1020
0000
0000
0000
0100
0000
0130
0000
0000
0000
0000
0000
,
0021
0000
0000
0000
0100
0000
0130
0000
0000
0000
0000
0000
,
2002
0000
0000
0000
0000
0000
3003
0000
1000
0000
0001
0000
,
2000
0000
0000
0000
0000
0000
3000
0000
0010
0000
0100
0000
,
0001
0000
0000
0000
0001
0000
0010
0000
0000
0000
0010
0000
,
0100
0000
1000
0000
0001
0000
0001
0000
1000
0000
0010
0000
,
0220
0000
0000
0000
,
0330
0000
0000
0000
;
