#TITLE:Hide;
#ARTIST:Joy Williams;
#BANNER:Hide - Joy Williams.png;
#BACKGROUND:Hide - Joy Williams-bg.png;
#LYRICSPATH:Hide - Joy Williams.lrc;
#CDTITLE:.\CDTITLES\DP2JOY.png;
#MUSIC:Hide - Joy Williams.mp3;
#OFFSET:-3.112;
#SAMPLESTART:37.46;
#SAMPLELENGTH:12;
#BPMS:0=87;
#BGCHANGES:0=Hide - Joy Williams.AVI=1=1=1=0,999=-=1=0=0=0;

//---------------dance-single - ----------------
#NOTES:
     dance-single:
     :
     Easy:
     1:
     0.105,0.104,0.008,0.045,0:
0000
0000
0000
0000
,
0000
1000
0000
0001
,
0000
0010
0000
0100
,
0000
1000
0000
0001
,
0000
1000
0000
0001
,
0000
0010
0000
0100
,
0000
0010
0000
0100
,
0000
1000
0000
0001
,
0000
0010
0000
0100
,
0000
0001
0000
0010
,
0000
1000
0000
0100
,
0000
0000
0010
0000
0000
0000
1000
0002
,
0000
0000
0000
0003
0000
0000
0100
0000
,
1001
0010
0000
0100
,
0000
1000
0000
0010
,
2000
0000
0000
3001
,
0000
0010
0000
0100
,
0000
1000
0000
0010
,
0000
0001
0000
1000
,
0002
0000
0000
0000
0000
0003
0100
2000
,
0000
0000
0000
0000
0000
3000
0010
0000
,
0000
0001
0000
1000
,
0000
0010
0000
0100
,
0000
1000
0000
0010
,
0000
0001
0000
1000
,
0000
0010
0000
0100
,
0000
0001
0000
0010
,
0000
1000
0000
0100
,
0000
0001
0000
1000
,
0000
0010
0000
1000
,
0000
0001
0000
0010
,
0000
1000
0000
0100
,
0000
0010
0000
0001
,
0000
1000
0000
0001
,
2000
0000
0000
0000
,
0000
3001
0000
0010
,
2000
0000
0000
0000
0000
3000
0100
0000
,
0000
0010
0000
0001
,
0000
1000
0000
0100
,
0000
0001
0000
1000
,
0000
0010
0000
0001
,
0000
1000
0000
0010
,
0000
0001
0000
0100
,
0000
1000
0000
0001
,
0000
0010
0000
0100
,
0000
0001
0000
0100
;

//---------------dance-single - ----------------
#NOTES:
     dance-single:
     :
     Hard:
     6:
     0.285,0.261,0.030,0.076,0.136:
0000
0000
0000
0000
0001
0010
1000
0000
,
0011
0000
0000
0001
1000
0000
0000
0000
0010
0000
0000
1000
0001
0000
0000
0000
,
0100
0000
0000
1000
0010
0000
0000
0000
1000
0000
0000
0010
0100
0000
0000
0000
,
0001
0000
0000
0010
1000
0000
0000
0000
0010
0000
0000
0001
1000
0000
0000
0000
,
0010
0000
0000
0001
1000
0000
0000
0000
0100
0000
0000
1000
0001
0000
0000
0000
,
1000
0000
0000
0100
0010
0000
0000
0000
1000
0000
0000
0010
0100
0000
0000
0000
,
0001
0000
0000
1000
0010
0000
0000
0000
1000
0000
0000
0010
0100
0000
0000
0000
,
0001
0000
0000
0010
1000
0000
0000
0000
0010
0000
0000
1000
0001
0000
0000
0000
,
1000
0000
0000
0100
0010
0000
0000
0000
1000
0000
0000
0001
0100
0000
0000
0000
,
0010
0000
0000
1000
0001
0000
0000
1000
0000
0000
0000
0100
0010
0000
0000
0000
,
0001
0000
0000
0001
1000
0000
0000
0001
0000
0000
0000
0010
0100
0000
0000
0000
,
1000
0000
0000
0001
0010
0000
0000
0010
0000
0000
0000
0001
1000
0000
0002
0000
,
0000
0000
0000
0003
1000
0001
0100
0001
,
1001
0000
0010
0000
1000
0001
0100
0000
,
0001
0010
1000
0000
0001
1000
0010
0100
,
2001
0010
0001
3001
,
0100
1000
0010
0000
1001
0000
0100
0000
,
0001
0010
1000
0000
0001
1000
0010
0000
,
2000
0000
0000
0000
0010
0000
0000
3000
0001
0000
0010
0000
1000
0000
0010
0000
,
0002
0000
1000
0000
0010
0003
0100
2000
,
0001
0000
0010
0000
0000
3000
0010
0000
,
1000
0000
0010
0000
0001
0000
0000
0010
0000
0000
1000
0000
1000
0000
0000
0000
,
0100
0000
0001
0000
0010
0000
0000
0001
0000
0000
1000
0000
0100
0000
0000
0000
,
0001
0000
0010
0000
1000
0000
0000
0001
0000
0000
1000
0000
0010
0000
0000
0000
,
1000
0000
0010
0000
0001
0000
0000
0010
0000
0000
0001
0000
1000
0000
0000
0000
,
0001
0000
1000
0000
0010
0000
0000
1000
0000
0000
0001
0000
0100
0000
0010
0000
,
1000
0000
0010
0000
0001
0000
0000
1000
0000
0000
0001
0000
0010
0000
0000
0000
,
0001
0000
0010
0000
1000
0000
0000
0001
0000
0000
1000
0000
0100
0000
0000
0000
,
1000
0000
0010
0000
0001
0000
0000
0010
0000
0000
0001
0000
1000
0000
0000
0000
,
0001
0000
1000
0000
0010
0000
0000
0001
0000
0000
0010
0000
1000
0000
0000
0000
,
0010
0000
1000
0000
0001
0000
0000
1000
0000
0000
0001
0000
0010
0000
0000
0000
,
0001
0000
0010
0000
1000
0000
0000
0001
0000
0000
1000
0000
0100
0000
0000
0000
,
1000
0001
0010
2000
0000
3000
0001
2000
,
0010
0000
0001
3000
0010
1000
0001
0010
,
2000
0001
0000
0001
,
0000
0000
3001
0000
0100
0001
0010
0001
,
2000
0000
0001
0000
0000
3000
0100
0000
,
1000
0000
0010
0000
1000
0010
0001
1000
,
0010
0001
1000
0000
0001
0010
0100
0000
,
0100
0000
0001
0000
0010
0001
1000
0010
,
0002
0000
0000
0000
0100
0000
0000
0000
0000
0003
0000
0000
0010
0000
0000
0000
,
0001
0010
1000
0000
0001
0000
0010
0000
,
1000
0000
0001
0000
1000
0001
0100
0000
,
0001
0000
1000
0001
0010
0000
0001
0000
,
1000
0010
0001
0100
,
1000
0001
0010
0100
,
1000
0000
0000
0000
;

//---------------dance-single - ----------------
#NOTES:
     dance-single:
     :
     Medium:
     3:
     0.199,0.192,0.023,0.076,0:
0000
0000
0001
1000
,
0011
1000
0010
0001
,
0100
0010
1000
0100
,
0001
1000
0010
0001
,
0010
1000
0100
0001
,
1000
0010
1000
0100
,
0001
0000
0010
1000
0000
0000
0100
0000
,
0001
0000
1000
0010
0000
0000
0001
0000
,
1000
0010
1000
0100
,
0010
0000
0001
1000
0000
0000
0010
0000
,
0001
0000
1000
0001
0000
0000
0100
0000
,
1000
0000
0010
0000
0010
0000
1000
0002
,
0000
0000
0000
0003
0000
0000
0100
0000
,
1001
0010
1000
0100
,
0001
1000
0001
0010
,
2001
0000
0001
3001
,
0100
0010
0001
0100
,
0001
1000
0001
0010
,
2000
0000
0000
3000
0001
0000
1000
0000
,
0002
0000
1000
0000
0000
0003
0100
2000
,
0001
0000
0000
0000
0000
3000
0010
0000
,
1000
0001
0010
1000
,
0100
0010
0001
0100
,
0001
1000
0000
0010
,
1000
0001
0010
1000
,
0001
0010
1000
0100
,
1000
0001
1000
0010
,
0001
1000
0001
0100
,
1000
0001
0010
1000
,
0001
0010
0001
1000
,
0010
0000
0001
1000
0000
0000
0010
0000
,
0001
0000
1000
0001
0000
0000
0100
0000
,
1000
0000
0010
2000
0000
3000
0001
2000
,
0000
0000
0001
3000
1000
0000
0001
0000
,
2000
0001
0000
0001
,
0000
3001
0100
0010
,
2000
0000
0001
0000
0000
3000
0100
0000
,
1000
0010
1000
0001
,
0010
1000
0001
0100
,
0100
0001
0010
1000
,
0002
0000
0003
0010
,
0001
1000
0001
0010
,
1000
0001
1000
0100
,
0001
1000
0010
0001
,
1000
0010
0001
0100
,
1000
0001
0010
0100
,
1000
0000
0000
0000
;

//---------------dance-single - ----------------
#NOTES:
     dance-single:
     :
     Challenge:
     7:
     0.350,0.312,0.061,0.129,0.182:
0000
0000
0000
0000
,
0001
0000
0000
0001
2000
0000
0000
0000
3001
0000
0000
0001
0100
0000
0000
0000
,
0010
0000
0000
0010
2000
0000
0000
0000
3100
0000
0000
0100
0010
0000
0000
0000
,
0001
0000
0000
0001
0020
0000
0000
0000
0130
0000
0000
1000
0010
0000
0100
0000
,
0001
0000
0000
0010
0000
0000
0200
0000
0000
0000
0000
0000
0300
0000
0000
0000
,
1000
0000
0000
1000
0001
0000
0000
0001
0200
0000
0000
0000
0310
0000
0000
0000
,
0100
0000
0000
0100
0001
0000
0000
0001
2000
0000
0000
0000
3100
0000
0000
0000
,
0010
0000
0000
0010
0100
0000
0000
1000
0001
0000
0000
0100
0010
0000
0000
0000
,
0100
0000
0001
0000
1000
0000
0000
0100
0000
0000
0000
0010
0100
0000
0000
0000
,
0002
0000
0000
1000
0000
0000
0100
0000
0000
0000
0000
0000
1003
0000
0000
0000
,
2000
0000
0000
0001
0000
0000
0010
0000
0000
0000
0000
0000
3001
0000
0000
0000
,
0100
0000
0000
0100
0000
0000
0100
0000
1000
0000
0000
1000
0001
0000
0000
0001
,
0200
0000
0300
0110
,
1000
0010
0010
0100
0100
0001
0001
1000
,
0100
0000
0010
0000
1001
0000
0110
0001
,
1000
0100
0100
0010
0010
0001
1000
0010
,
0100
0000
0000
0000
0001
0000
1000
0001
0000
0001
1000
0000
0100
0000
0000
0000
,
0010
0001
0020
0000
0130
1000
0020
0000
,
0130
0001
2000
0000
3001
0000
0110
0000
,
1000
0000
0001
0000
0010
0000
0100
0000
0100
0000
1000
0000
0001
1000
0001
0000
,
0100
0000
0000
0000
0100
0000
0000
0010
1000
0000
0010
0000
0100
0000
0001
0000
,
1000
0000
0010
0000
1000
0000
0001
0000
0010
0000
0100
0000
1000
0001
0000
0000
,
0100
0000
0001
0100
0000
0000
0001
1000
0000
0000
0001
0100
0000
0000
0010
0000
,
1000
0100
0001
0000
1000
0100
0001
0000
,
1000
0000
0010
0000
0100
0000
0000
0100
0000
0000
0001
0000
0010
0000
0000
0100
,
1000
0000
0000
0001
0000
0000
0100
0000
0000
0000
1000
0000
0001
0000
0000
0000
,
0010
0001
1000
0000
0001
0000
0000
0000
1000
0000
0001
0000
0100
0000
0000
0000
,
0010
1000
0010
0000
0100
0000
0001
0000
0010
0001
0010
0000
0100
0000
1000
0000
,
0100
0000
0000
0001
0010
0000
0000
0010
0100
0000
0000
1000
0001
0000
0000
0000
,
0010
0100
1000
0000
0010
0100
0101
0000
,
2000
0000
0010
0000
3010
0001
0100
0001
,
1000
0000
0000
0100
0000
0000
0010
0000
0000
0000
0100
0000
1001
0000
0000
0000
,
0010
0000
0000
0001
0000
0000
0100
0000
0001
0000
0000
0001
1000
0000
0010
0000
,
0100
0000
0100
0000
0100
0000
0010
0100
0000
0000
1000
0000
0001
0000
0010
0100
,
1000
0001
0100
0001
1000
0100
0010
0001
,
0100
0100
0010
0000
0100
0100
0010
1000
,
0001
0010
0001
1000
0100
0001
0100
1000
,
0001
0100
0010
1000
0001
0010
0100
0001
,
1000
0100
0100
0010
0010
0100
0100
1000
,
0001
0000
0000
0001
0100
0000
0000
0100
0001
0000
0000
1000
0100
0000
0010
0000
,
0001
0100
1000
0100
0000
0010
1001
0010
,
0200
0001
0001
0001
0301
1000
0001
0010
,
0200
1000
1000
1000
1300
0001
1000
0010
,
0100
0001
0010
0100
0100
1000
0010
0100
,
0001
0000
1000
0010
1000
0000
0001
0100
0001
0000
1000
0000
0100
0000
0010
0000
,
0220
0000
0000
0330
;
