#TITLE:Here I Am;
#ARTIST:Michael W. Smith;
#BANNER:Here I Am - Michael W. Smith.png;
#BACKGROUND:Here I Am - Michael W. Smith-bg.png;
#LYRICSPATH:Here I Am - Michael W. Smith.lrc;
#CDTITLE:.\CDTITLES\DP2MIKE.png;
#MUSIC:Here I Am - Michael W. Smith.mp3;
#OFFSET:-1.608;
#SAMPLESTART:47.5;
#SAMPLELENGTH:12;
#BPMS:0=99.12;
#BGCHANGES:-0.12=Here I Am - Michael W. Smith.AVI=0.995=1=1=0,999=-=1=0=0=0;

//---------------dance-single - ----------------
#NOTES:
     dance-single:
     :
     Easy:
     2:
     0.169,0.163,0.034,0.048,0:
0000
0000
0000
0000
,
0000
1000
0001
0000
,
0000
0000
1000
0000
0001
0000
0000
0010
,
0000
1000
0001
0010
,
0000
0000
1000
0000
0010
0000
0000
1000
,
0000
0000
0001
0000
0010
0000
0000
0001
,
0000
0000
1000
0000
0010
0000
0000
0001
,
0000
1000
0001
0000
,
0010
0000
0001
0000
1000
0000
0000
0010
,
0000
0000
0001
0000
0010
0000
0000
1000
,
0000
0000
0001
0000
1000
0000
0000
0010
,
0000
0000
0001
0000
0010
0000
0000
0001
,
0000
0000
1000
0000
0010
0000
0000
1000
,
0000
0000
0001
0000
0010
0000
0000
0001
,
0000
0000
1000
0000
0010
0000
0000
1000
,
0000
0000
0001
0000
0010
0000
0000
0001
,
0000
0000
1000
0000
0001
0000
0000
0010
,
0000
0000
1000
0000
0010
0000
0000
0001
,
0000
1000
0001
0000
,
1100
0010
0002
0000
,
0000
0000
0003
0000
0010
0000
0000
0001
,
0000
0000
1000
0000
0010
0000
0000
1000
,
0000
0001
0010
0000
,
1010
0001
0200
0000
,
0000
0000
0300
0000
0001
0000
0000
1000
,
0000
0000
0001
0000
0010
0000
0000
0001
,
0000
1000
0020
0000
,
0000
0000
0000
0030
0000
0000
0000
0000
,
1000
0000
0010
0000
0001
0000
0000
1000
,
0000
0000
0001
0000
0010
0000
0000
0001
,
0000
0000
1000
0000
0010
0000
0000
1000
,
0000
0000
0001
0000
0010
0000
0000
1000
,
0000
0010
1000
0000
,
1000
0000
0001
0000
0010
0000
0000
1000
,
0000
0000
0001
0000
0010
0000
0000
0001
,
0000
0000
1000
0000
0010
0000
0000
1000
,
0000
0000
0001
0000
0010
0000
0000
1000
,
0000
0000
0010
0000
1000
0000
0000
0100
,
0000
0000
0001
0000
0010
0000
0000
1000
,
0000
0000
0001
0000
0010
0000
0000
0001
,
0000
1000
0010
0000
,
0000
0000
0001
0000
0010
0000
0000
0001
,
0000
0000
1000
0000
0010
0000
0000
1000
,
0000
0000
0010
0000
1000
0000
0000
0001
,
0000
0000
0010
0000
0010
0000
0000
0001
,
0000
0000
1000
0000
0010
0000
0000
1000
,
0000
0000
0001
0000
0010
0000
0000
0001
,
0000
1000
0010
0000
,
1100
0001
0020
0000
,
0000
0000
0030
0000
0001
0000
0000
0010
,
0000
0000
1000
0000
0010
0000
0000
0001
,
0000
1000
0010
0000
,
1001
0010
0200
0000
,
0000
0000
0300
0000
1000
0000
0000
0001
,
0000
0000
0010
0000
0001
0000
0000
0100
,
0000
0010
2000
3000
,
0101
0010
2000
0000
,
0000
0000
3000
0000
0010
0000
0000
0001
,
0000
0000
1000
0000
0001
0000
0000
0010
,
0000
1000
0010
0000
;

//---------------dance-single - ----------------
#NOTES:
     dance-single:
     :
     Hard:
     5:
     0.266,0.265,0.048,0.048,0:
0000
0000
0000
0000
,
0001
0000
1000
0000
0001
0000
0000
0010
,
0000
0000
1000
0000
0001
0000
0000
0010
,
0000
0000
1000
0000
0001
0000
0010
1000
,
0001
0000
1000
0000
0010
0001
0000
1000
,
0000
0000
0001
1000
0010
1000
0000
0001
,
0000
0000
1000
0000
0010
0000
0000
0001
,
0000
0000
1000
0010
0001
1000
0001
0000
,
0010
0000
0001
0010
1000
0000
0001
0010
,
0000
0000
0001
0000
0010
1000
0001
1000
,
0000
0000
0001
0000
1000
0000
0000
0010
,
0000
1000
0001
1000
0010
0000
0000
0001
,
0000
0000
1000
0001
0010
0000
0000
1000
,
0000
0010
0001
0000
0010
0000
1000
0001
,
0000
0000
1000
0001
0010
0000
0000
1000
,
0000
0100
0001
0000
0010
0000
1000
0001
,
0000
0000
1000
0010
0001
0000
1000
0010
,
0001
0000
1000
0000
0010
0000
0000
0001
,
0000
0000
1000
0010
0001
0000
0000
0000
,
1100
0010
0002
0000
,
0000
0000
0003
0000
0010
1000
0001
1000
,
0001
0000
0010
1000
0010
0000
0001
0000
,
1000
0000
0011
0000
1000
0010
0001
0000
,
1010
0001
0200
0000
,
0000
0000
0300
0000
1000
0001
0010
0000
,
1000
0000
0010
0001
0010
0000
1000
0001
,
0000
0100
1000
0000
0020
0000
0000
0000
,
0000
0000
0000
0030
,
0010
1000
0001
0010
0001
0000
1010
0000
,
0000
0000
0001
1000
0010
1000
0001
0000
,
0000
0000
1000
0000
0010
1000
0001
1000
,
0000
0000
0001
1000
0010
0001
0000
1000
,
0000
0000
0010
0000
1000
0000
0001
0010
,
1000
0000
0001
0000
0010
1000
0001
0000
,
1000
0010
0001
0000
0010
0000
1000
0001
,
1000
0010
1000
0000
0010
0000
0001
1000
,
0000
0010
0001
0000
0010
0000
0001
1000
,
0000
0001
0010
0000
1000
0010
0001
0100
,
0000
1000
0001
0000
0010
0000
0001
1000
,
0000
0010
0001
0000
0010
1000
0001
0000
,
0010
0000
1000
0010
0001
0000
0000
0000
,
0000
1000
0001
0000
0010
1000
0000
0001
,
0000
0010
1000
0000
0010
0000
0000
1000
,
0000
0001
0010
0000
1000
0000
0010
0001
,
0000
1000
0010
1000
0010
0000
1000
0001
,
0000
0010
1000
0000
0010
0000
0001
1000
,
0000
0010
1000
0001
0010
0000
1000
0001
,
0000
0010
1000
0000
0010
0000
0000
0000
,
1100
0001
0020
0000
,
0000
0000
0030
0000
0100
0001
1000
0010
,
0000
0001
1000
0001
0010
0000
1000
0001
,
0000
0100
1000
0000
0010
0000
0100
0010
,
1001
0010
0200
0000
,
0000
0000
0300
0000
0001
1000
0010
0001
,
0000
1000
0010
0000
0001
0000
1000
0100
,
0000
0001
0010
0000
2000
0000
0000
3000
,
0101
0010
2000
0000
,
0000
0000
3000
0000
0001
0010
1000
0000
,
0001
0010
1000
0000
0001
1000
0010
0000
,
0000
1000
0010
0000
;

//---------------dance-single - ----------------
#NOTES:
     dance-single:
     :
     Medium:
     4:
     0.220,0.224,0.034,0.048,0:
0000
0000
0000
0000
,
0000
0000
1000
0000
0001
0000
0000
0010
,
0000
0000
1000
0000
0001
0000
0000
0010
,
0000
1000
0001
0010
,
0001
0000
1000
0000
0010
0001
0000
1000
,
0000
0000
0001
0000
0010
1000
0000
0001
,
0000
0000
1000
0000
0010
0000
0000
0001
,
0000
0000
1000
0000
0001
1000
0000
0000
,
0010
0000
0001
0000
1000
0001
0000
0010
,
0000
0000
0001
0000
0010
0000
0001
1000
,
0000
0000
0001
0000
1000
0000
0000
0010
,
0000
1000
0001
0000
0010
0000
0000
0001
,
0000
0000
1000
0000
0010
0000
0000
1000
,
0000
0010
0001
0000
0010
0000
0000
0001
,
0000
0000
1000
0000
0010
0000
0000
1000
,
0000
0100
0001
0000
0010
0000
0000
0001
,
0000
0000
1000
0000
0001
0000
1000
0010
,
0000
0000
1000
0000
0010
0000
0000
0001
,
0000
1000
0001
0000
,
1100
0010
0002
0000
,
0000
0000
0003
0000
0010
1000
0000
0001
,
0000
0010
1000
0000
0010
0000
0001
1000
,
0000
0010
0001
0000
0010
0000
0000
0000
,
1010
0001
0200
0000
,
0000
0300
0000
1000
0001
0000
0010
1000
,
0000
0010
0001
0000
0010
0000
0000
0001
,
0000
0100
1000
0000
0020
0000
0000
0000
,
0000
0000
0000
0030
,
1000
0001
0010
0000
0001
0000
0000
1000
,
0000
0000
0001
0000
0010
0000
1000
0001
,
0000
0000
1000
0000
0010
0000
0001
1000
,
0000
0000
0001
0000
0010
0000
0001
1000
,
0000
0010
1000
0001
,
1000
0000
0001
0000
0010
0001
0000
1000
,
0000
0010
0001
0000
0010
0000
1000
0001
,
0000
0010
1000
0000
0010
0000
0001
1000
,
0000
0000
0001
0000
0010
0000
0001
1000
,
0000
0000
0010
0000
1000
0001
0000
0100
,
0000
0000
0001
0000
0010
0001
0000
1000
,
0000
0010
0001
0000
0010
0000
0000
0001
,
0000
0010
1000
0000
0010
0000
0000
0000
,
0000
1000
0001
0000
0010
0000
0000
0001
,
0000
0010
1000
0000
0010
0000
0000
1000
,
0000
0000
0010
0000
1000
0010
0000
0001
,
0000
1000
0010
0000
0010
1000
0000
0001
,
0000
0000
1000
0000
0010
0001
0000
1000
,
0010
0000
0001
0000
0010
0000
0000
0001
,
0000
1000
0010
0000
,
1100
0001
0020
0000
,
0000
0000
0030
0000
0001
0000
1000
0010
,
0000
0001
1000
0000
0010
0000
1000
0001
,
0000
0100
1000
0000
0010
0000
0100
0000
,
1001
0010
0200
0000
,
0000
0000
0300
0000
1000
0000
0010
0001
,
0000
0000
0010
0000
0001
1000
0000
0100
,
0000
0001
0010
0000
2000
0000
0000
3000
,
0101
0010
2000
0000
,
0000
0000
3000
0000
0010
0000
1000
0001
,
0000
0010
1000
0000
0001
0000
1000
0010
,
0000
1000
0010
0000
;

//---------------dance-single - ----------------
#NOTES:
     dance-single:
     :
     Challenge:
     6:
     0.314,0.384,0.157,0.171,0.024: // measure 1
0000
0000
0000
0000
,  // measure 2
0000
0000
0000
0000
,  // measure 3
0000
0000
0000
0000
,  // measure 4
0000
0000
1000
0001
,  // measure 5
1000
0000
0001
0000
0100
0001
0000
1000
,  // measure 6
0000
0100
2001
3000
,  // measure 7
1002
0003
0010
0100
,  // measure 8
0010
0100
0001
1000
,  // measure 9
0001
0000
1000
0000
0010
1000
0000
0001
,  // measure 10
0000
0010
1001
0100
,  // measure 11
1001
0100
0020
0030
,  // measure 12
0200
0000
0300
0000
0001
1000
0010
0100
,  // measure 13
0000
0000
1001
0000
0010
0000
1000
0100
,  // measure 14
0000
0001
0100
0000
2000
0000
0000
0000
,  // measure 15
0002
0000
3003
0000
1000
0000
0010
0100
,  // measure 16
0001
1000
0100
0000
1000
0001
0100
0010
,  // measure 17
0000
0000
1001
0000
0010
0100
0001
0000
,  // measure 18
0010
0100
1000
0000
0002
0000
0003
2000
,  // measure 19
0000
3000
0002
0000
0200
0000
0000
0000
,  // measure 20
0000
0000
0303
0000
0010
1000
0100
0010
,  // measure 21
0000
0100
0100
1000
0001
0100
0010
1000
,  // measure 22
0000
0001
0001
0000
0100
0000
0010
1000
,  // measure 23
0000
0001
0010
0001
1000
0100
1100
0010
,  // measure 24
0001
1000
0101
0000
0010
0100
0001
0010
,  // measure 25
0000
0100
0100
1000
0001
0100
0010
1000
,  // measure 26
0001
0010
0100
0000
1001
0000
0010
1000
,  // measure 27
0000
0010
1000
0001
0200
0000
0010
0000
,  // measure 28
0010
0310
2002
0000
,  // measure 29
0000
0000
0000
0000
3003
0000
0000
0000
0010
0000
0000
1000
0000
0000
0001
0000
,  // measure 30
0000
0000
0000
0000
0110
0000
0000
0000
0001
0000
0000
1000
0000
0000
0100
0000
,  // measure 31
0000
0000
0000
0000
1001
0000
0000
0000
0020
0000
0000
0001
0000
0000
0100
0000
,  // measure 32
0000
0000
0000
0000
0130
0000
0000
0000
2000
0000
0000
0001
0000
0000
0001
0000
,  // measure 33
0000
3001
0100
0010
,  // measure 34
0010
0000
1000
0001
1000
0100
0000
0011
,  // measure 35
0000
1000
1000
0000
0010
0100
0001
1000
,  // measure 36
0000
0100
0010
0001
0200
0000
0300
0100
,  // measure 37
0000
1000
0001
0000
0010
0001
0010
0001
,  // measure 38
0100
1000
0100
0000
0001
0010
0000
1100
,  // measure 39
0000
0001
0001
0000
0100
0010
1000
0100
,  // measure 40
0000
0010
0001
1000
0020
0000
0030
0010
,  // measure 41
0100
0000
0001
0000
2000
0000
0000
0010
,  // measure 42
0000
0000
3100
0000
0010
0001
1000
0000
,  // measure 43
0010
0100
0001
1000
0000
0100
1000
0100
,  // measure 44
0000
1001
0020
0100
,  // measure 45
0001
0000
0130
0000
1000
0001
0010
0200
,  // measure 46
0000
0000
0300
0000
1000
0010
0100
0001
,  // measure 47
1000
0100
0000
0010
0002
0000
0003
0010
,  // measure 48
0100
1000
0002
0000
2000
0000
0000
0000
,  // measure 49
0000
0000
0000
0000
3003
0000
0000
0000
0010
0000
0000
1000
0001
0000
1000
0000
,  // measure 50
0000
0001
1000
0100
0010
0001
0010
0100
,  // measure 51
0000
1000
1000
0000
0010
0000
0100
0001
,  // measure 52
0000
1000
0100
1000
0001
0010
0011
0100
,  // measure 53
1000
0000
0001
0000
1010
0000
0000
0000
0100
0000
0000
0001
1000
0000
0001
0000
,  // measure 54
0000
1000
0001
0010
0100
1000
0100
0010
,  // measure 55
0001
0000
1000
0000
0010
0000
1000
0000
0001
0000
0000
0100
0010
0000
0100
0000
,  // measure 56
0000
0010
0100
0001
2000
0000
3000
0000
,  // measure 57
1001
0000
0110
0000
0001
0010
0011
1000
,  // measure 58
0010
0100
0101
0000
1000
0010
1010
0001
,  // measure 59
0010
0100
1100
0000
0002
0000
0000
0000
,  // measure 60
0003
0000
0000
0000
;
