#TITLE:Happy;
#ARTIST:Ayiesha Woods;
#BANNER:Happy - Ayiesha Woods.png;
#BACKGROUND:Happy - Ayiesha Woods-bg.png;
#LYRICSPATH:Happy - Ayiesha Woods.lrc;
#CDTITLE:.\CDTITLES\DP2AYIE.png;
#MUSIC:Happy - Ayiesha Woods.mp3;
#OFFSET:-0.924;
#SAMPLESTART:41.7;
#SAMPLELENGTH:12;
#BPMS:0=120;

//---------------dance-single - ----------------
#NOTES:
     dance-single:
     :
     Easy:
     2:
     0.157,0.220,0.055,0.014,0:
0000
0000
0000
0000
,
0000
0000
1000
0000
,
0001
0000
1000
0000
,
0001
0000
1000
0000
,
0100
0000
0010
0000
,
0100
0000
0001
0000
,
0001
0000
0010
0000
,
0010
0000
1000
0000
,
1000
0000
0010
0000
,
0010
0000
0001
0000
,
1000
0000
0010
0000
,
0010
0000
1000
0001
,
0110
0000
0010
0000
,
1000
0000
0001
0000
,
1000
0000
0010
0000
,
0001
0000
1000
0001
,
0110
0000
0010
0000
,
0001
0000
1000
0000
,
0001
0010
0002
0000
,
0003
0010
1000
0001
,
0110
0000
0010
0000
,
1000
0000
0001
1000
,
0110
0000
0010
0000
,
0001
0000
1000
0000
,
0001
0000
0010
0000
,
1000
0000
0001
0000
,
1000
0000
0010
0000
,
0001
0000
1000
0000
,
0010
0000
0001
0000
,
0100
0000
0010
0000
,
0001
0000
1000
0000
,
0010
0000
0001
1000
,
0110
0000
0010
0000
,
1000
0000
0001
0000
,
0010
0000
1000
0000
,
0001
0000
0010
0001
,
1100
0000
1000
0000
,
0010
0000
0001
0000
,
1000
0001
0020
0030
,
0000
0001
1000
0001
,
0110
0000
0010
0000
,
1000
0000
0001
0000
,
1000
0000
0010
0000
,
0001
0000
1000
0001
,
0110
0000
0010
0000
,
1000
0000
0001
0000
,
1000
0000
0010
0000
,
0001
0000
1000
0000
,
0001
0000
0010
0000
,
1000
0000
0001
0000
,
1000
0000
0010
0000
,
0001
0000
1000
0000
,
0010
0000
0001
0000
,
0100
0000
1000
0000
,
0010
0000
0001
0000
,
0100
0000
0010
0000
,
0001
0000
1000
0000
,
0100
0000
0010
0000
,
1000
0000
0001
0000
,
1000
0000
0010
0000
,
0001
0000
1000
0000
,
0001
0000
0010
0000
,
0100
0000
0001
0000
,
1000
0000
0010
0000
,
0010
0000
1000
0000
,
0001
0000
0010
0000
,
1000
0000
0001
0000
,
1000
0000
0010
0000
,
0001
0000
1000
0000
,
0100
0000
0010
0000
,
1000
0000
0001
0000
,
1000
0000
0010
0000
;

//---------------dance-single - ----------------
#NOTES:
     dance-single:
     :
     Hard:
     7:
     0.396,0.496,0.226,0.096,0:
0000
0000
0000
0000
,
1000
0010
0100
0010
1000
0000
0001
0000
,
1000
0010
0100
0010
1000
0000
0010
0000
,
0001
2000
3001
0010
,
0100
0000
1000
0000
0001
0010
0100
1000
,
0001
0000
1000
0010
0001
0010
0100
0000
,
0001
0000
1000
0001
0010
1000
0100
0000
,
0010
0001
0000
0101
1000
0000
0001
0000
,
1000
0000
0001
1000
0010
0001
0100
0000
,
0010
0000
0100
1000
0001
1000
0001
0000
,
1000
0000
0001
1000
0010
1000
0100
0000
,
0001
0010
0001
0100
0001
1100
0011
0000
,
0010
0100
1000
0000
0020
0000
0000
0031
,
1000
0000
0001
0000
1000
0000
0001
0010
,
1000
0000
0100
0000
0020
0000
0030
1000
,
0001
0000
0010
0100
1010
0000
0101
0000
,
1000
0010
1000
0000
0020
0000
1030
0000
,
0100
0001
0010
0000
1000
0000
0010
0100
,
1001
0000
0110
0000
1001
0002
1003
0000
,
1000
0011
0001
0010
1100
0000
0011
0000
,
1100
0000
0011
0000
0010
1000
0001
0010
,
1000
0001
0010
1000
0101
0000
1010
0000
,
0101
1010
0101
0001
,
1000
0010
1000
0000
0001
1000
0010
0000
,
0001
0000
1000
0001
0010
1000
0001
0000
,
1000
0000
0100
1000
0001
1000
0010
0000
,
1000
0000
0001
0100
0010
0000
0001
1000
,
0001
1000
0001
0010
1000
0010
0001
1000
,
0010
0001
1000
0010
0001
0100
1000
0001
,
0100
1000
0001
1000
0010
0100
0010
0100
,
0001
1000
0010
0001
1000
0010
0001
1000
,
0010
0100
1000
0000
0011
0000
1100
0001
,
0010
0000
0001
0000
0020
0000
1030
0100
,
1000
0000
0010
0000
0001
0000
1000
0001
,
0010
0000
0001
0000
1000
0000
0010
1000
,
0001
0000
1000
0001
0110
0000
1001
0010
,
0100
0000
0001
0010
2000
0000
0001
3000
,
0010
0000
1000
0010
0001
0000
0010
0100
,
1000
0010
0001
1000
0020
0000
0000
1030
,
0010
0001
0000
0000
1010
0000
0101
0000
,
1010
0000
0101
0000
1010
0000
0101
1000
,
0010
0000
0100
0000
0001
0000
0010
0100
,
1000
0000
0001
0000
0010
0000
1000
0100
,
0010
0001
0010
1000
0100
1000
0011
0000
,
1100
0000
0011
0000
1100
0000
0011
0100
,
1000
0000
0010
0000
0001
0000
0010
0100
,
1000
0000
0001
1000
0010
0000
1000
0010
,
0001
1000
0010
0000
1000
0000
1000
0000
,
1000
1000
1000
0010
,
0100
1000
0000
0000
0001
0000
0010
0000
,
1000
0000
0100
0000
0020
0000
0000
0030
,
0001
0010
1000
1000
,
1000
1000
1000
0100
,
0010
0001
0000
0000
0010
0000
1000
0000
,
0010
0100
0002
1000
,
1000
1000
1000
1000
,
1000
1003
0010
0001
,
0100
0001
0010
0000
,
1000
0010
0001
0010
,
1000
0000
0001
0020
0000
0000
0000
0030
,
0001
0010
1000
0010
,
0001
1000
0010
0000
,
0100
1000
0001
0010
,
1000
0001
0020
0030
,
0010
0001
1000
0010
,
0001
1000
0010
0001
,
1000
0010
0001
0010
,
1000
0000
0001
0020
0000
0000
0030
0000
,
0001
0010
1000
0001
,
0100
0001
0010
1000
,
1000
0010
0001
0010
,
1000
0001
0100
0020
,
0000
0000
0030
0000
;

//---------------dance-single - ----------------
#NOTES:
     dance-single:
     :
     Medium:
     5:
     0.296,0.347,0.205,0.075,0:
0000
0000
0000
0000
,
0001
0000
1000
0001
,
1000
0001
1000
0020
,
0031
0000
1000
0000
,
0100
0000
0010
1000
,
0001
1000
0001
0000
,
0001
0000
0010
0100
,
0010
0100
1000
0000
,
1000
0000
0010
0100
,
0010
0100
0001
0000
,
1000
0000
0010
0100
,
0010
0100
1100
0011
,
0100
0000
1000
0000
0020
0000
0000
0030
,
1000
0001
1000
0001
,
1000
0000
0100
0000
0020
0000
0000
0030
,
0001
0010
1010
0101
,
0010
0000
1000
0000
0020
0000
0000
0030
,
0001
0010
1000
0010
,
1001
0110
0002
0000
,
0003
0010
1100
0011
,
1100
0011
0010
0001
,
1000
0010
0101
1010
,
0101
1010
0100
0001
,
1000
0010
1000
0000
0001
0000
0010
0000
,
0001
1000
0010
0001
,
1000
0100
0001
0010
,
1000
0001
0010
1000
,
0001
1000
0001
0010
1000
0000
0001
0000
,
0010
1000
0001
1000
,
0100
0000
0001
0000
0010
0100
0010
0100
,
0001
0010
1000
0001
,
0010
1000
0011
1100
,
0010
0000
0001
0000
0020
0000
0000
0030
,
1000
0010
0001
1000
,
0010
0000
0001
0000
1000
0000
0010
1000
,
0001
1000
0110
1001
,
0100
0000
0001
0000
2000
0000
3000
0001
,
0010
1000
0001
0010
,
1000
0000
0001
0000
0020
0000
0030
1000
,
0010
0001
0000
0000
1010
0000
0101
0000
,
1010
0000
0101
0000
1010
0000
0101
1000
,
0010
0100
0001
0010
,
1000
0001
0010
0000
,
0001
0010
0000
0000
1100
0000
0011
0000
,
1100
0000
0011
0000
1100
0000
0011
0100
,
1000
0010
0001
0010
,
1000
0001
0010
1000
,
0001
0010
1000
1000
,
1000
1000
1000
0010
,
0100
1000
0001
0010
,
1000
0000
0100
0000
0020
0000
0000
0030
,
0001
0010
1000
1000
,
1000
1000
1000
0100
,
0010
0001
0010
1000
,
0010
0100
0002
0000
,
0000
0000
0000
0000
,
0003
0010
1000
0001
,
0100
0001
0010
0000
,
1000
0010
0001
0010
,
1000
0001
0010
0000
,
0001
0010
1000
0010
,
0001
1000
0010
0000
,
0100
0000
1000
0000
0001
0000
0000
0010
,
1000
0001
0010
0000
,
0010
0001
1000
0010
,
0001
1000
0010
0001
,
1000
0010
0001
0010
,
1000
0001
0010
0000
,
0001
0010
1000
0001
,
0100
0001
0010
0000
,
1000
0010
0001
0010
,
1000
0001
0100
0020
,
0000
0000
0030
0000
;

//---------------dance-single - ----------------
#NOTES:
     dance-single:
     :
     Challenge:
     7:
     0.406,0.416,0.260,0.048,0.007: // measure 1
0000
0000
0000
0000
,  // measure 2
0000
0000
0000
0000
,  // measure 3
0000
0000
0000
0010
1000
0100
0000
1010
,  // measure 4
0000
0101
0000
0000
1000
1000
1000
0000
,  // measure 5
1000
0000
0000
0001
1000
0001
1000
0000
,  // measure 6
0001
0000
0100
0000
0001
0001
0001
0000
,  // measure 7
0001
0000
0000
1000
0100
0000
0010
0000
,  // measure 8
0101
0001
0100
0101
1000
0001
1000
0000
,  // measure 9
1000
0000
0010
0100
0010
0100
0010
0000
,  // measure 10
0010
0000
0100
0000
1000
1000
1000
0000
,  // measure 11
0001
0001
0001
0000
0010
0100
1000
0100
,  // measure 12
0010
0001
1000
0000
0110
0000
0000
0010
,  // measure 13
0100
0000
0001
0000
1000
0001
0100
0010
,  // measure 14
1000
0010
0100
0001
1000
0100
0001
0100
,  // measure 15
1000
0000
0001
0000
0110
0000
1001
0100
,  // measure 16
0010
0001
0100
0000
1010
0000
0000
1000
,  // measure 17
0010
0000
0100
0000
1000
0001
0010
0100
,  // measure 18
0010
0001
1000
0000
0100
0010
0000
1100
,  // measure 19
0000
0101
0000
1000
0001
0100
0001
0100
,  // measure 20
0100
0010
0100
0000
1001
0000
0000
0000
,  // measure 21
0010
1000
0100
0100
0010
0010
0100
0100
,  // measure 22
1000
1000
0001
0000
0100
0000
1001
0000
,  // measure 23
0010
0000
1001
0000
0100
1000
0001
0000
,  // measure 24
1100
1100
1100
0000
0010
0001
0100
0001
,  // measure 25
0010
0000
0001
0000
0100
0010
1000
0010
,  // measure 26
0100
1000
0001
0000
1000
0100
0100
1000
,  // measure 27
0001
0100
0001
0000
1000
0000
0000
0000
,  // measure 28
0110
0100
0010
0110
0001
1000
0100
1000
,  // measure 29
0100
0010
0100
0010
0001
1000
0001
1000
,  // measure 30
0010
1000
0010
1000
0001
0100
0010
1000
,  // measure 31
0001
0100
0010
1000
0100
0010
0010
0010
,  // measure 32
0000
0001
1000
0000
0101
0000
0100
0000
,  // measure 33
0001
1000
0001
0000
1100
0000
0000
0100
,  // measure 34
1000
0010
0100
0001
0100
0010
1000
0010
,  // measure 35
0100
0001
0100
0010
1000
0000
0100
0000
,  // measure 36
1001
0100
0010
1000
0001
0000
1000
0000
,  // measure 37
0010
0000
0100
0000
0101
0000
0000
0100
,  // measure 38
0001
0010
0000
0100
0010
0100
0000
0010
,  // measure 39
0100
0010
0000
1000
0001
0100
1000
0100
,  // measure 40
0010
1000
0001
0000
1100
0000
0100
0000
,  // measure 41
1000
0001
1000
0001
0100
0000
1001
0000
,  // measure 42
1000
0100
0010
0001
0010
0100
1000
0100
,  // measure 43
0010
0001
0010
0001
0100
0000
0010
0000
,  // measure 44
1001
0010
0100
0001
1000
0000
0101
0000
,  // measure 45
1000
0000
1100
0001
0100
0000
0000
0010
,  // measure 46
1000
0001
0000
0010
0100
0010
0000
0100
,  // measure 47
0010
0100
0000
0001
1000
0010
0001
0010
,  // measure 48
0100
0001
1000
0000
1200
0000
1000
0000
,  // measure 49
1000
0000
1300
0000
0010
0001
0100
0001
,  // measure 50
0100
0010
0000
0201
0000
0301
0000
0201
,  // measure 51
0000
0301
0000
1001
0000
0100
0010
0001
,  // measure 52
1000
0001
0100
0000
0120
0000
0100
0000
,  // measure 53
0100
0000
0130
0000
0001
1000
0001
1000
,  // measure 54
0100
1000
0000
0110
0000
1010
0000
0011
,  // measure 55
0000
1001
0000
0010
0200
0000
0000
0000
,  // measure 56
0010
0000
0310
0000
0001
1000
0100
0000
,  // measure 57
1000
0001
0100
0001
1000
0100
0000
0001
,  // measure 58
0000
0100
0000
1000
0000
0000
0000
0000
,  // measure 59
0010
0100
0000
0001
0000
0010
0000
1000
,  // measure 60
0000
0010
0000
0001
0000
0000
0000
0000
,  // measure 61
1000
0001
0000
0000
0100
0000
0000
0000
,  // measure 62
0000
0000
0000
0000
0010
0000
0000
0000
1000
0000
0001
0000
0000
0010
0000
0000
,  // measure 63
0000
0100
0000
0000
0000
0000
0000
0000
0002
0000
0000
0000
0000
0000
0000
0000
,  // measure 64
0000
0003
2000
0000
,  // measure 65
0000
0000
3000
0000
0001
0000
0100
0001
,  // measure 66
0000
0010
0001
0000
0100
0000
0001
1000
,  // measure 67
0000
0001
0010
0000
1000
0010
0100
0010
,  // measure 68
0000
0000
1000
0000
0001
0000
0000
0011
,  // measure 69
0000
1100
0000
0000
0001
0100
0010
1000
,  // measure 70
0000
0000
1000
0000
1000
0001
0000
0010
,  // measure 71
0000
0000
0100
0000
1000
0001
0000
1000
,  // measure 72
0000
0100
0000
0000
0001
0000
0000
0000
;
