#TITLE:Going Under;
#ARTIST:This Beautiful Republic;
#BANNER:Going Under - This Beautiful Republic.png;
#BACKGROUND:Going Under - This Beautiful Republic-bg.png;
#LYRICSPATH:Going Under - This Beautiful Republic.lrc;
#CDTITLE:.\CDTITLES\DP2THIS.png;
#MUSIC:Going Under - This Beautiful Republic.mp3;
#OFFSET:-0.350;
#SAMPLESTART:50.3;
#SAMPLELENGTH:12;
#BPMS:0=190,326=95;
#BGCHANGES:25.25=Going Under - This Beautiful Republic.AVI=1=1=1=0,999=-=1=0=0=0;

//---------------dance-single - ----------------
#NOTES:
     dance-single:
     :
     Easy:
     3:
     0.202,0.217,0,0.016,0.033:
0000
0000
0000
0000
,
0000
0000
0000
0000
,
0000
0000
0000
0000
,
0001
0000
0000
1000
,
0001
0000
1000
0001
,
0000
0000
0000
1000
,
0001
0000
1000
0001
,
0000
0000
0000
0000
0000
0000
0000
1000
,
0000
0010
0000
0000
,
0001
0000
0100
0000
,
0010
0000
0000
0000
,
0100
0000
0001
0000
,
0010
0000
0000
1000
,
0100
0000
0000
0000
,
1000
0001
0000
0000
,
0001
0010
0000
0000
,
1000
0001
0000
0000
,
0001
0010
0000
1000
,
0000
0000
1000
0001
,
0000
0010
0000
1000
,
0000
0000
1000
0001
,
0000
0010
0000
1000
,
0000
0000
0001
0010
,
0000
0100
0000
0001
,
0000
0000
0010
1000
,
0000
0001
0020
0000
,
0000
0000
0000
0000
,
0030
0000
1000
0000
,
0000
0000
0001
0000
,
0000
1000
0010
0000
,
0000
0000
1000
0001
,
1000
0000
0010
0000
,
0000
0000
0001
1000
,
0001
0000
0020
0000
,
0000
0000
0000
0030
,
0000
0001
1000
0000
,
0010
0000
0001
0000
,
1000
0000
0010
0000
,
1000
0000
0001
0000
,
0010
0000
1000
0000
,
0010
0000
0001
0010
,
0000
0000
1000
0000
,
0010
0000
0001
1000
,
0000
0000
0010
0000
,
0000
0000
0001
0000
0000
1000
0000
0000
,
0001
0000
0000
0000
,
0010
1000
0000
0000
,
0001
1000
0000
0000
,
0010
0000
0001
0000
,
1000
0000
0000
1000
,
0001
0000
0010
0000
,
1000
0001
0000
0010
,
0000
0000
1000
0000
,
0001
0010
0000
0000
,
1000
0000
0000
0001
,
0010
0000
0000
1000
,
0001
0000
0000
1000
,
0010
0001
0000
0000
,
1000
0001
0000
0000
,
0010
1000
0000
0000
,
0001
1000
0000
0000
,
0010
0000
0001
0000
0000
0000
0000
1000
,
0000
0010
0000
0000
,
0001
0000
0000
0000
0010
0000
0000
1000
,
0000
0001
0000
0000
,
0010
0000
0001
0000
,
1000
0000
0000
0000
0001
0000
0000
0010
,
0000
0000
1000
0000
,
0001
0000
1000
0000
,
0010
0000
0001
0000
,
1000
0000
0000
0000
0001
0000
0000
0010
,
0000
1000
0000
0000
,
0001
0000
1000
0000
,
0010
0000
0001
0000
,
1000
0000
0000
0000
0001
0000
0000
0010
,
0000
1000
0000
0000
,
1000
0000
0010
0000
,
0001
0000
0010
0000
,
1000
0000
0010
0000
,
0001
0000
1000
0000
,
0010
0000
0010
0000
,
1000
0000
0000
0000
0001
0000
0000
0000
0000
0000
0000
0010
0000
0000
1000
0000
,
0000
0000
0000
0000
0000
0000
0000
0000
0010
0000
0000
1000
0000
0000
0001
0000
,
0000
0000
0000
0000
0000
0000
0000
0000
1000
0000
0000
0001
0000
0000
1000
0000
,
0000
0000
0000
0000
0000
0000
0000
0000
0001
0000
0000
1000
0000
0000
0001
0000
,
0000
0000
0000
0000
0000
0000
0000
0000
1000
0000
0000
0001
0000
0000
1000
0000
,
0000
0000
0000
0000
0000
0000
0000
0000
0001
0000
0000
1000
0000
0000
0001
0000
,
0000
0000
0000
0000
0000
0000
0000
0000
1000
0000
0000
0001
0000
0000
0010
0000
,
0000
0000
0000
0000
0000
0000
0000
0000
0001
0000
0000
0010
0000
0000
0100
0000
;

//---------------dance-single - ----------------
#NOTES:
     dance-single:
     :
     Hard:
     7:
     0.338,0.433,0.065,0.033,0.033:
0000
0000
0000
0000
,
0001
0000
0001
0000
,
0010
0000
1000
0000
,
0001
0000
0010
1000
,
0001
0010
1000
0001
,
1000
0010
0001
1000
,
0001
0010
1000
0001
,
0010
0000
0000
0000
0101
0000
0000
1000
,
0000
0010
0000
0000
,
0001
0000
0100
0000
,
0010
1000
0000
0001
,
0100
0001
0000
1000
,
0010
0001
0000
1000
,
0100
0001
0000
0010
,
1000
0001
0010
1000
,
0001
0010
0000
0001
,
1000
0001
0010
1000
,
0001
0010
0001
1000
,
0001
0000
1000
0001
,
1000
0000
0000
0000
0010
0000
0000
0001
,
0000
1000
1000
0001
,
0010
0000
0001
1000
,
0010
0000
0001
0010
,
0001
0000
0100
0000
1000
0000
0000
0001
,
0000
1000
0010
1000
,
0010
0001
0020
0000
,
0000
0000
0000
0000
,
0030
0000
1000
0000
,
0010
0000
0000
0000
0001
0000
0000
0010
,
0000
1000
0010
0100
,
0001
0000
1000
0001
,
1000
0000
0010
0000
,
0100
0000
0000
0000
0001
0000
0000
1000
,
0000
0001
0020
0000
,
0000
0000
0030
0000
,
1000
0001
1000
0000
,
0010
0000
0000
0000
0001
0000
0000
1000
,
0000
0010
0010
0000
,
1000
0000
0001
0000
,
0010
0000
1000
0001
,
0010
0000
0001
0010
,
0000
0001
1000
0010
,
1000
0000
0001
1000
,
0000
0000
0100
0000
0011
0000
0000
1100
,
0000
0000
1001
0000
0000
0101
0000
0000
,
0011
0000
1000
0000
,
0010
1000
0010
0001
,
1000
0000
0010
0001
,
0010
1000
0001
0010
,
1000
0001
0010
1000
,
0001
0000
1000
0010
,
1000
0001
1000
0010
,
0001
1000
0010
0000
,
0001
0010
0000
0001
,
1000
0010
1000
0001
,
0010
1000
0001
1000
,
0001
0010
0000
1000
,
0010
0001
0010
0001
,
1000
0001
1000
0000
,
0010
1000
0010
1000
,
0001
2000
3002
0000
,
0000
0000
0003
0000
0110
0000
0000
1000
,
0000
0000
0010
0000
0000
1000
0000
0000
,
0001
0000
0010
0000
0001
0000
0000
1000
,
0000
0000
0001
0000
0000
1000
0000
0000
,
0010
0000
1001
0000
,
0100
0000
0000
0000
0001
0000
0000
0010
,
0000
0001
0000
1000
,
0001
0010
1000
0000
,
0010
1000
0001
0000
,
1000
0000
0000
0000
0001
0000
0000
0010
,
0000
1000
0000
0000
,
0001
0000
1000
0000
,
0010
1000
0001
0000
,
1000
0000
0000
0000
0001
0000
0000
0010
,
0000
1000
0001
0000
,
1000
0001
0010
1000
,
0001
1000
0010
0001
,
1000
0001
0010
1000
,
0001
1000
0001
0000
,
0010
1000
0010
0001
,
1000
0000
0000
0000
0001
0000
0000
0000
1000
0000
0000
0010
0000
0000
1000
0000
,
0000
0000
0001
0000
0001
0000
0010
0000
0010
0000
0000
1000
0000
0000
0001
0000
,
0000
0000
0010
0000
0010
0000
1000
0000
1000
0000
0000
0001
0000
0000
1000
0000
,
0000
0000
0010
0000
0010
0000
0001
0000
0001
0000
0000
1000
0000
0000
0001
0000
,
0000
0000
0010
0000
0001
0000
0001
0000
1000
0000
0000
0001
0000
0000
1000
0000
,
0000
0000
0010
0000
1000
0000
1000
0000
0001
0000
0000
1000
0000
0000
0001
0000
,
0000
0000
0010
0000
1000
0000
1000
0000
0100
0000
0000
0001
0000
0000
0010
0000
,
0000
0000
0001
0000
1000
0000
1000
0000
0001
0000
0000
0010
0000
0000
0100
0000
;

//---------------dance-single - ----------------
#NOTES:
     dance-single:
     :
     Medium:
     5:
     0.262,0.289,0,0.024,0.033:
0000
0000
0000
0000
,
0001
0000
0001
0000
,
0010
0000
1000
0000
,
0001
0000
0010
1000
,
0001
0000
1000
0001
,
0000
1000
0001
1000
,
0001
0000
1000
0001
,
0000
0000
0000
0000
0001
0000
0000
1000
,
0000
0010
0000
0000
,
0001
0000
0100
0000
,
0010
0000
0000
0001
,
0100
0000
0001
0000
,
0010
0001
0000
1000
,
0100
0001
0000
1000
,
0001
0000
1000
0001
,
0000
0010
0000
1000
,
0001
0000
1000
0001
,
0000
0010
0001
1000
,
0000
0000
1000
0001
,
1000
0010
0000
1000
,
0000
0000
1000
0001
,
0000
0010
0001
1000
,
0000
0000
0001
0010
,
0000
0100
1000
0001
,
0000
0000
0010
1000
,
0010
0001
0020
0000
,
0000
0000
0000
0000
,
0000
0030
1000
0000
,
0010
0000
0000
0000
0001
0000
0000
1000
,
0000
1000
0010
0000
,
0001
0000
1000
0001
,
1000
0000
0010
0000
,
0100
0000
0000
0000
0001
0000
0000
1000
,
0000
0100
0020
0000
,
0000
0000
0000
0030
,
1000
0001
1000
0000
,
0010
0000
0001
0000
,
1000
0000
0010
0000
,
1000
0000
0001
0000
,
0010
0000
1000
0001
,
0010
0000
0001
0010
,
0000
0001
1000
0010
,
1000
0000
0001
1000
,
0000
0000
0001
0000
0010
0000
0000
1000
,
0000
0000
0001
0000
0000
1000
0000
0000
,
0001
0000
1000
0000
,
0010
1000
0010
0001
,
1000
0000
0000
0001
,
0010
0000
0001
0010
,
1000
0001
0000
1000
,
0001
0000
0000
0010
,
1000
0001
1000
0010
,
0000
1000
0010
0000
,
0001
0010
0000
0000
,
1000
0010
0000
0001
,
0010
0000
0001
1000
,
0001
0000
0000
1000
,
0010
0001
0010
0000
,
1000
0001
0000
0000
,
0010
1000
0010
0000
,
0001
1000
0002
0000
,
0000
0000
0000
0000
0000
0003
0000
1000
,
0000
0000
0010
0000
0000
1000
0000
0000
,
0001
0000
0000
0000
0010
0000
0000
1000
,
0000
0000
0001
0000
0000
1000
0000
0000
,
0010
0000
0001
0000
,
1000
0000
0000
0000
0001
0000
0000
0010
,
0000
0000
1000
0000
,
0001
0000
1000
0000
,
0010
0000
0001
0000
,
1000
0000
0000
0000
0001
0000
0000
0010
,
0000
1000
0000
0000
,
0001
0000
1000
0000
,
0010
0000
0001
0000
,
1000
0000
0000
0000
0001
0000
0000
0010
,
0000
1000
0001
0000
,
0001
0000
0010
0000
,
0001
0000
0010
0001
,
1000
0000
0010
1000
,
0000
0001
1000
0000
,
0010
0000
0010
0001
,
1000
0000
0000
0000
0001
0000
0000
0000
0000
0000
0000
0010
0000
0000
1000
0000
,
0000
0000
0000
0000
0001
0000
0000
0000
0010
0000
0000
1000
0000
0000
0001
0000
,
0000
0000
0000
0000
0010
0000
0000
0000
1000
0000
0000
0001
0000
0000
1000
0000
,
0000
0000
0000
0000
0010
0000
0000
0000
0001
0000
0000
1000
0000
0000
0001
0000
,
0000
0000
0000
0000
0010
0000
0000
0000
1000
0000
0000
0001
0000
0000
1000
0000
,
0000
0000
0010
0000
0000
0000
0000
0000
0001
0000
0000
1000
0000
0000
0001
0000
,
0000
0000
0000
0000
0010
0000
0000
0000
1000
0000
0000
0001
0000
0000
0010
0000
,
0000
0000
0000
0000
1000
0000
0000
0000
0001
0000
0000
0010
0000
0000
0100
0000
;

//---------------dance-single - ----------------
#NOTES:
     dance-single:
     :
     Challenge:
     8:
     0.560,0.544,0.528,0.138,0.041:
0000
0000
0000
0000
,
0000
0000
0000
0000
,
0000
0000
0000
0000
,
0000
0000
0000
1100
,
1100
0000
1100
1100
,
0000
0110
0000
0101
,
0101
0000
0101
0101
,
0000
0000
0110
0000
1001
0000
0000
1001
,
0000
2002
0000
0000
,
3003
0000
0000
0000
0010
1000
0000
1000
,
0100
0100
0010
0001
,
1000
0000
0101
0000
0010
0001
0000
0001
,
1000
1000
0010
0100
,
0001
0000
1100
0000
0010
0100
0000
0100
,
1000
0000
0001
0000
0100
0010
0100
0000
,
0010
0000
1001
0000
0010
1000
0000
1000
,
0001
0000
0010
0000
0100
0010
0100
0010
,
0100
0000
1001
0000
0010
1000
0010
0000
,
0100
0001
0100
1000
0000
0000
0010
0000
,
0100
0000
1001
0000
0010
0001
0010
0000
,
0100
1000
0100
0001
0000
0000
0110
0000
,
0100
0000
1001
0000
0010
1000
0010
0000
,
0001
0100
0001
0100
0000
1000
0100
0000
,
0001
0000
1100
0000
0010
0001
0010
0000
,
1000
0100
1000
0100
0000
0001
0100
0000
,
1000
0101
2002
0000
,
0000
0000
0000
0000
3003
0000
0000
0010
,
1000
0001
0000
0001
1000
0000
0010
1000
,
0010
0000
0100
0000
0001
0000
1000
0100
,
1000
0000
0001
0100
0001
0000
1000
0000
,
0010
1000
0000
0001
0010
0000
0100
0000
,
0001
0000
1000
0000
1001
0000
0000
0010
,
0100
0010
0000
0100
0001
0000
0000
1000
,
0001
1000
0000
0001
0010
0000
0100
0000
,
1100
0000
0001
1000
0000
1000
0001
1000
,
0001
1000
0000
0001
0100
0000
0010
0000
,
0110
0000
1000
0000
0001
0000
0010
0100
,
0000
1000
0001
0000
0100
0000
1010
0000
,
0110
0000
0101
0000
1000
0000
0001
0010
,
0000
0100
1000
0000
0010
1000
0010
0000
,
1010
0000
1000
0100
1000
0000
1100
0000
,
0010
0001
0100
0000
0100
0001
0100
0000
,
0101
0000
0001
0010
0001
0000
0001
0100
,
0000
0000
1001
0000
0110
0000
0000
1100
,
0000
0000
0110
0000
0000
0011
0000
0000
,
1001
0000
0000
0000
0100
1000
0100
1000
,
0100
0000
1000
0001
0000
0100
0010
0000
,
1000
0000
0101
0000
0010
1000
0010
1000
,
0010
0000
0100
0001
0000
1000
0001
1000
,
0100
0000
1001
0000
0010
0001
0010
0001
,
0010
0000
0001
1000
0000
0010
0100
0000
,
0001
0000
1010
0000
0100
1000
0100
1000
,
0100
0000
0010
0001
0000
1000
0001
1000
,
0010
1001
0100
0100
,
0010
1000
0001
1000
0000
0001
0010
0000
,
0100
1000
0001
1000
0100
0000
0010
0000
,
0001
0100
0001
1000
0000
0010
0100
0001
,
1000
1001
0010
0001
,
1000
0010
0100
0010
0000
1000
0100
0000
,
0010
0001
1000
0001
0100
0000
0010
0000
,
0100
0000
0010
0000
1000
0001
1000
0001
,
1000
0000
0110
0000
2000
0000
0000
0001
,
0000
0002
0000
0000
,
3003
0000
0000
0000
0010
0000
0000
0100
,
0100
0000
0110
0000
0000
1010
0000
0000
,
1001
0000
0000
0000
0001
0100
0010
0100
,
0001
0000
0100
0001
0000
1000
0100
0010
,
0100
0000
1000
0001
0100
0000
0010
0000
,
1000
0001
0000
0010
0100
0000
0001
0000
,
1000
0000
0100
0000
1001
0000
0010
1000
,
0100
0000
1000
0001
0000
0100
0001
0010
,
0001
0000
1000
0001
0100
0000
0010
0000
,
1010
0000
0001
0000
0001
1000
0001
1000
,
0001
0000
0001
1000
0100
0000
0010
0000
,
0110
0000
0001
0000
1000
0000
0010
0100
,
0000
0001
1000
0000
0100
0000
0011
0000
,
0110
0000
1100
0000
0010
0000
0001
1000
,
0000
0010
0100
0000
0001
0100
0001
0000
,
1001
0000
0001
0010
0001
0000
1001
0000
,
0001
0010
0100
0000
1000
0010
1000
0000
,
1001
0000
1000
0100
1000
0000
1001
0000
,
0010
0000
1000
0000
0100
0000
0010
0000
0001
0000
0000
1000
0000
0000
0202
0000
,
0000
0000
0000
0000
0303
0000
0000
0000
0010
0000
0000
1000
0000
0000
0002
0000
,
0000
0000
0000
0000
0003
0000
0000
0000
0110
0000
0000
1001
0000
0000
2200
0000
,
0000
0000
0000
0000
3300
0000
0000
0000
0010
0000
0000
1001
0000
0000
0220
0000
,
0000
0000
0000
0000
0330
0000
0000
0000
0010
0000
0000
1000
0010
0000
0100
0000
,
0000
0100
0000
0000
1001
0000
0000
0000
0010
0000
0000
0001
0010
0000
0100
0000
,
0000
0100
0000
0000
0110
0000
0000
0000
0002
0000
0000
1000
0000
0000
0020
0000
,
0000
0000
0000
0000
0033
0000
0000
0000
2000
0000
0000
0010
0000
0000
0002
0000
,
0000
3003
0000
0000
;
