#TITLE:God;
#ARTIST:Rebecca St. James;
#BANNER:God - Rebecca St. James.png;
#BACKGROUND:God - Rebecca St. James-bg.png;
#LYRICSPATH:God - Rebecca St. James.lrc;
#CDTITLE:.\CDTITLES\DP2BECCA.png;
#MUSIC:God - Rebecca St. James.mp3;
#OFFSET:-1.274;
#SAMPLESTART:36.56;
#SAMPLELENGTH:12;
#BPMS:0=108;
#BGCHANGES:0=God - Rebecca St. James.AVI=1=1=1=0,999=-=1=0=0=0;

//---------------dance-single - ----------------
#NOTES:
     dance-single:
     :
     Easy:
     1:
     0.136,0.152,0.086,0,0:
0000
0000
0000
0000
,
1000
0001
0000
0000
,
1000
0001
0000
0000
,
0010
0100
0000
0000
,
0010
0100
0000
0000
,
0001
1000
0000
0000
,
0001
1000
0000
0000
,
1000
0001
0000
0000
,
0001
1000
0000
0000
,
0010
0100
0000
0000
,
1000
0001
0000
0000
,
0001
1000
0000
0000
,
0010
0001
0000
0000
,
1000
0001
0000
0000
,
0010
0100
0000
0000
,
1000
0001
0000
0000
,
0011
1000
0000
0000
,
1001
0100
0000
0000
,
0010
0100
0000
0000
,
1000
0001
0000
0000
,
0011
0100
0000
0000
,
1001
0100
0000
0000
,
0010
0100
0000
0000
,
0001
1000
0000
0000
,
1000
0001
0000
0000
,
0001
1000
0000
0000
,
1000
0010
0000
0000
,
0001
1000
0000
0000
,
0010
0100
0000
0000
,
1000
0010
0000
0000
,
0001
1000
0000
0000
,
0010
0100
0000
0000
,
1000
0001
0000
0000
,
0010
0100
0000
0000
,
0001
1000
0000
0000
,
0010
0100
0000
0000
,
1000
0001
0000
0000
,
0010
0100
0000
0000
,
0001
1000
0000
0000
,
0010
0100
0000
0000
,
1000
0001
0000
0000
,
0010
0100
0000
0000
,
0001
1000
0000
0000
,
1000
0001
0000
0000
,
1010
0100
0000
0000
,
1001
0010
0000
0000
,
0010
0100
0000
0000
,
0001
0100
0000
0000
,
1010
0001
0000
0000
,
0011
1000
0000
0000
,
0010
0100
0000
0000
,
1000
0100
0000
0000
,
0011
0100
0000
0000
,
1001
0100
0000
0000
,
0010
0001
0000
0000
,
1000
0001
0000
0000
,
1010
0100
0000
0000
,
1001
0100
0000
0000
,
0010
0100
0000
0000
,
1000
0001
0000
0000
,
0010
0100
0000
0000
;

//---------------dance-single - ----------------
#NOTES:
     dance-single:
     :
     Hard:
     6:
     0.329,0.368,0.101,0.122,0:
0000
0000
0000
0000
,
1000
0000
0001
0000
0000
0000
0000
0001
,
1000
0010
0100
0001
1000
0010
0001
0100
,
0010
1000
0100
0001
1000
0001
0100
1000
,
0020
0000
0000
0030
0000
0001
1000
0010
,
0002
0000
0003
1000
,
0001
1000
0001
1000
0100
0010
0000
0001
,
1000
0010
0001
1000
0000
0000
1000
0010
,
0002
0000
1003
0010
0000
1000
0100
0001
,
0010
1000
0100
2000
0000
3000
0001
0000
,
1000
0010
0001
1000
0001
0010
1000
0020
,
0000
2030
0000
0000
3000
0000
0001
1000
,
0020
0000
0031
1000
0010
1000
0001
0010
,
1000
0010
0001
1000
0000
0001
0100
2000
,
0000
0000
0000
0000
3000
0000
0001
0010
,
1000
0010
0001
0010
1001
0110
0000
0000
,
0011
0000
1000
0000
0000
1000
0010
0000
,
1001
0000
0100
0000
0000
0001
0100
1000
,
0000
0001
0100
1000
0000
0001
0100
1000
,
0000
0001
0100
1000
0000
0100
0000
0000
,
0011
0000
0100
0000
0000
0100
0010
0000
,
1001
0000
0100
0000
0000
1000
0000
0001
,
0000
0100
0000
1000
0000
0001
0010
0000
,
0001
0000
1000
0000
0010
0000
0001
0010
,
1000
0001
0000
1000
,
0001
1000
0000
0001
,
1000
0010
0000
0100
,
0001
0000
1000
0000
0000
0001
1000
0001
,
0020
0000
0000
0030
0000
1000
0001
0010
,
2000
0000
3000
1000
,
0001
0010
1000
0001
1000
0010
0000
1000
,
0010
1000
0100
0001
1000
0001
0010
0001
,
2000
0000
0000
3000
0000
0001
1000
0002
,
0000
0003
2000
0000
0000
3000
0010
0000
,
0001
0010
1000
0001
0010
2000
3000
0000
,
0010
1000
0100
1000
0010
1000
0001
0010
,
2000
0000
3010
0001
0000
0010
1000
0001
,
0000
1000
0000
0001
0000
1000
0100
0010
,
0001
0010
1000
0000
0000
0000
1000
0000
,
0010
0001
0100
0001
1000
0001
0000
0010
,
2000
0000
3001
0010
0000
0001
1000
0010
,
0000
0100
0000
0001
0000
1000
0000
0000
,
0001
0000
2000
0000
0000
3000
0001
0000
,
1000
0010
0001
0010
1000
0000
0001
0000
,
1010
0000
0100
0000
0000
0001
0100
0000
,
1001
0000
0010
0000
0000
0001
1000
0001
,
0000
0010
0100
0010
0000
0001
1000
0001
,
0000
1000
0100
1000
0000
0001
0100
0000
,
1010
0000
0001
0000
0000
1000
0100
0000
,
0011
0000
1000
0000
0000
1000
0000
0001
,
0000
0010
0000
1000
0000
0010
0001
0010
,
1000
0100
0001
1000
,
0011
0000
0100
0000
0000
1000
0010
0000
,
1001
0000
0100
0000
0000
0100
1000
0100
,
0000
0010
0001
0010
0000
1000
0100
1000
,
0000
1000
0001
1000
0000
0010
0001
0000
,
1010
0000
0100
0000
0000
0100
0010
0000
,
1001
0100
0000
0001
,
0010
0000
0100
0000
1000
0001
0100
0001
,
0000
1000
0000
0001
0000
0010
1000
0000
,
0010
0100
0000
0000
;

//---------------dance-single - ----------------
#NOTES:
     dance-single:
     :
     Medium:
     3:
     0.196,0.195,0.086,0,0:
0000
0000
0000
0000
,
1000
0001
0000
0001
,
1000
0001
0000
0100
,
0010
0100
0000
0100
,
0010
0100
0000
1000
,
0001
1000
0000
1000
,
0001
1000
0000
0001
,
1000
0001
0000
1000
,
0001
1000
0000
0100
,
0010
0100
0000
0001
,
1000
0001
0000
1000
,
0001
1000
0000
0001
,
0010
0001
0000
0001
,
1000
0001
0000
0100
,
0010
0100
0000
0001
,
1000
0001
0000
0100
,
0011
1000
0000
0010
,
1001
0100
0000
0100
,
0010
0100
0000
0001
,
1000
0001
0000
1000
,
0011
0100
0000
0010
,
1001
0100
0000
0001
,
0010
0100
0000
0010
,
0001
1000
0000
0001
,
1000
0001
0000
1000
,
0001
1000
0000
0001
,
1000
0010
0000
0100
,
0001
1000
0000
1000
,
0010
0100
0000
0001
,
1000
0010
0000
1000
,
0001
1000
0000
0001
,
0010
0100
0000
0010
,
1000
0001
0000
1000
,
0010
0100
0000
0010
,
0001
1000
0000
1000
,
0010
0100
0000
0001
,
1000
0001
0000
1000
,
0010
0100
0000
0100
,
0001
1000
0000
1000
,
0010
0100
0000
0001
,
1000
0001
0000
1000
,
0010
0100
0000
1000
,
0001
1000
0000
0001
,
1000
0001
0000
0001
,
1010
0100
0000
0100
,
1001
0010
0000
1000
,
0010
0100
0000
1000
,
0001
0100
0000
0100
,
1010
0001
0000
0100
,
0011
1000
0000
0001
,
0010
0100
0000
0001
,
1000
0100
0000
1000
,
0011
0100
0000
0010
,
1001
0100
0000
1000
,
0010
0001
0000
0100
,
1000
0001
0000
0001
,
1010
0100
0000
0010
,
1001
0100
0000
0001
,
0010
0100
0000
0100
,
1000
0001
0000
1000
,
0010
0100
0000
0000
;

//---------------dance-single - ----------------
#NOTES:
     dance-single:
     :
     Challenge:
     7:
     0.371,0.393,0.036,0.288,0.097: // measure 1
0000
0000
0000
0000
,  // measure 2
0000
0000
0000
0000
,  // measure 3
0000
0000
0000
0000
,  // measure 4
0000
0000
0000
0000
,  // measure 5
2000
0000
0000
0000
3000
0001
0100
0010
,  // measure 6
0002
0003
2000
3000
,  // measure 7
0001
0010
0001
0100
0000
0010
1000
0000
,  // measure 8
0001
0000
1000
0100
0000
0010
0001
0000
,  // measure 9
0200
0000
1000
0000
0301
0000
1000
0001
,  // measure 10
0200
0310
2000
3000
,  // measure 11
0001
1000
0001
0010
0100
1000
0000
0000
,  // measure 12
0010
0001
1000
0002
0000
0000
0103
0000
,  // measure 13
0020
0001
1000
0130
,  // measure 14
2000
0000
3001
0020
0000
0000
0130
0000
,  // measure 15
1000
0001
1000
0010
0100
0001
0100
0000
,  // measure 16
2020
0000
3030
0000
0010
1000
0101
0000
,  // measure 17
1000
0000
0000
0001
1000
0000
0001
1000
0000
0001
1000
0000
0100
0000
0000
0000
,  // measure 18
0010
0000
0000
0100
0010
0000
0100
0010
0000
0100
0010
0000
0100
0000
1000
0000
,  // measure 19
0001
0100
0001
2000
0000
3100
0010
0001
,  // measure 20
1000
0010
1000
0002
0000
1003
0100
0000
,  // measure 21
0010
0000
0000
0001
1000
0000
0001
0010
0000
0001
1000
0000
0010
0000
0000
0000
,  // measure 22
0100
0000
0000
1000
0001
0000
0100
0001
0000
1000
0001
0000
0100
0000
0010
0000
,  // measure 23
2000
0000
3001
0200
0000
0301
1000
0100
,  // measure 24
0020
0000
0130
0000
1000
0001
0100
0000
,  // measure 25
2002
0000
0000
3003
,  // measure 26
0020
0000
0000
0030
,  // measure 27
0002
0000
0000
2003
,  // measure 28
0002
0000
0000
3003
,  // measure 29
0100
0000
0010
1000
0002
0000
2003
0000
,  // measure 30
3100
0000
0010
0001
0000
0100
1000
0000
,  // measure 31
0010
1000
0100
0010
0001
1000
0001
0000
,  // measure 32
0100
0001
0010
0100
1000
0001
1000
0010
,  // measure 33
0100
0001
0100
0010
1000
0010
0100
0001
,  // measure 34
0100
0010
1000
0100
0001
0100
1000
0000
,  // measure 35
0200
0000
0000
0300
,  // measure 36
0020
0032
1003
0000
,  // measure 37
0010
0100
0001
0100
0000
1000
0100
0001
,  // measure 38
0000
1000
0100
0001
0000
0010
0100
0000
,  // measure 39
2000
0001
3100
0001
,  // measure 40
0100
1000
0010
0001
0100
0000
0000
0000
,  // measure 41
0010
1000
0001
1000
0000
0100
0001
1000
,  // measure 42
0000
0100
0001
1000
0000
0010
0100
0001
,  // measure 43
2000
3100
0002
0103
,  // measure 44
0020
0000
0000
0000
1030
0001
0110
0000
,  // measure 45
0001
0000
0000
1000
0001
0000
1000
0001
0000
1000
0001
0000
0100
0000
0000
0000
,  // measure 46
0010
0000
0000
0100
0010
0000
0100
0010
0000
0100
0010
0000
0100
0000
0001
0000
,  // measure 47
1000
0001
0100
0002
0000
0013
0100
1000
,  // measure 48
0001
1000
0010
2000
0000
3001
0100
0000
,  // measure 49
0010
0000
0000
1000
0010
0000
0100
0010
0000
1000
0010
0000
0100
0000
0000
0000
,  // measure 50
0010
0000
0000
0001
0010
0000
0100
0010
0000
0001
0010
0000
0100
0000
1000
0000
,  // measure 51
0002
0000
0013
0200
0000
1300
0001
0100
,  // measure 52
0010
1000
0001
0010
1000
0010
0001
0000
,  // measure 53
0100
0000
0000
0000
0010
0000
1000
0000
0001
0100
0001
0000
1000
0000
0000
0000
,  // measure 54
0100
0000
1000
0100
0010
0001
0100
0001
,  // measure 55
0000
1000
0010
1000
0000
0100
0001
0100
,  // measure 56
0010
0100
1000
0100
0010
0000
1001
0000
,  // measure 57
0010
0000
0000
0000
1000
0000
0001
0000
0010
0001
0010
0000
0100
0000
0000
0000
,  // measure 58
0010
0000
0000
0000
0001
0000
1000
0000
0010
0100
0010
0000
0100
0000
0000
0000
,  // measure 59
0001
0100
0001
1000
0100
0000
0010
0000
,  // measure 60
0200
0000
2300
0000
3010
0100
0002
0000
,  // measure 61
0203
0000
0000
0300
;
