#TITLE:Get In The Game;
#ARTIST:Altared Life;
#BANNER:Get In The Game - Altared Life.png;
#BACKGROUND:Get In The Game - Altared Life-bg.png;
#LYRICSPATH:Get In The Game - Altared Life.lrc;
#CDTITLE:.\CDTITLES\DP2ALTAR.png;
#MUSIC:Get In The Game - Altared Life.mp3;
#OFFSET:-3.041;
#SAMPLESTART:58.6;
#SAMPLELENGTH:12;
#BPMS:0=99;

//---------------dance-single - ----------------
#NOTES:
     dance-single:
     :
     Easy:
     1:
     0.118,0.120,0,0,0:
0000
0000
0100
0000
,
0010
0000
0100
0000
,
0001
0000
1000
0000
,
0010
0000
1000
0000
,
0100
0000
1000
0000
,
0010
0000
1000
0000
,
0001
0000
0010
0000
,
1000
0000
0010
0000
,
1000
0000
0001
0000
,
0100
0000
1000
0000
,
0010
0000
0001
0000
,
0100
0000
1000
0000
,
0010
0000
0100
0000
,
1000
0000
0001
0000
,
0100
0000
0010
0000
,
1000
0000
0001
0000
,
0100
0000
1000
0000
,
0010
0000
0100
0000
,
0001
0000
1000
0000
,
0010
0000
0100
0000
,
1000
0000
0001
0000
,
0010
0000
0100
0000
,
1000
0000
0001
0000
,
0010
0000
0100
0000
,
1000
0000
0100
0000
,
0001
0000
0100
0000
,
0010
0000
1000
0000
,
0100
0000
0001
0000
,
0010
0000
0001
0000
,
1000
0000
0001
0000
,
0100
0010
0001
0000
,
0000
1000
0010
0000
,
0100
0000
0001
0000
,
1000
0000
0001
0000
,
0010
0100
1000
0000
,
0001
0000
0100
0000
,
0010
0000
0100
0000
,
0001
0000
1000
0000
,
0100
0000
0010
0000
,
1000
0000
0001
0000
,
0100
0000
0010
0000
,
1000
0000
0100
0000
,
0001
0000
1000
0000
,
0100
0000
1000
0000
,
0010
0000
1000
0000
,
0001
0000
1000
0000
,
0010
0000
1000
0000
,
0001
0000
1000
0000
,
0100
0000
1000
0000
,
0010
0000
0001
0000
,
1000
0010
0100
0000
,
0001
0000
1000
0000
,
0100
0000
0010
0000
,
0001
0000
1000
0000
,
0010
0000
0100
0000
;

//---------------dance-single - ----------------
#NOTES:
     dance-single:
     :
     Hard:
     6:
     0.301,0.342,0.132,0.044,0:
0000
0000
1001
0010
,
0110
0100
1000
0000
0001
0000
0010
0000
,
0200
0310
0001
1000
,
0020
0130
1000
0001
,
1001
0010
0100
0000
1000
0000
0001
0000
,
0110
0100
1000
0000
0001
0000
1010
0000
,
0100
0001
0000
0000
0011
0000
0100
0000
,
1000
0010
0100
0000
1000
0000
0001
0000
,
0010
0100
1000
0100
0001
0010
0100
1000
,
0100
0010
0001
1000
0100
0010
0100
1000
,
0001
0100
0010
0100
1000
0001
0100
0010
,
0100
0000
1000
0000
0010
0000
0001
0100
,
0001
0010
0100
1000
,
0010
0000
0001
0100
1000
0100
0100
0000
,
0010
0001
0010
0100
1000
0100
0010
0001
,
0000
0010
1000
0100
,
0100
0010
0001
0000
0010
0000
0100
0000
,
1000
0010
0100
0000
0010
0000
0001
0000
,
0010
0100
1000
0000
0010
0000
0001
0000
,
0010
0100
1000
0000
0010
0000
0001
0000
,
0010
0100
1000
0000
0010
0000
0001
0000
,
0010
0100
1000
0000
0010
0000
0001
0000
,
0010
0100
0001
0000
0010
0000
1000
0000
,
0001
0100
0001
0000
0010
0000
0001
0000
,
0100
0001
1000
0000
0001
0000
0010
0000
,
0001
0100
0001
0000
0010
0000
0001
0000
,
1000
0001
0100
0000
0001
0000
0010
0000
,
0001
0100
0001
0000
1000
0000
0001
0000
,
0010
0001
0010
0000
0001
0000
0100
0000
,
1000
0100
0010
0000
0001
0000
0010
0000
,
0100
1000
0001
0000
,
1001
0010
0100
0000
,
1100
0010
0011
0000
,
1100
0100
0010
0000
,
0001
0010
0100
1000
0100
0000
0000
0000
,
0101
0000
1010
0010
,
0011
0100
1100
0000
,
1000
0001
0010
0100
0010
0001
0100
0000
,
1000
0000
0010
0000
1000
0100
0001
0000
,
0101
0100
1010
0100
,
0101
0100
1010
0000
,
1000
0001
1000
0001
,
1000
0000
0001
0010
0100
0000
0010
0000
,
0001
0010
1000
0000
,
0001
0010
0001
0000
,
0100
0010
0100
1000
0000
0010
0100
0001
,
0000
0001
1000
0001
0000
0100
0000
1000
,
0200
0000
0300
0000
0001
1000
0010
0000
,
0100
0000
0000
0000
1000
0010
0001
0000
,
0200
0000
0300
0000
1000
0010
0001
0100
,
1000
0010
0100
0000
0001
1000
0001
0010
,
1000
0000
0100
0000
0001
0010
1000
0000
,
0200
0000
0300
0000
0001
0010
1000
0000
,
0002
0000
0003
0000
0100
1000
0010
0001
,
0100
1000
0010
0100
0100
0000
1000
0000
;

//---------------dance-single - ----------------
#NOTES:
     dance-single:
     :
     Medium:
     4:
     0.240,0.221,0,0.007,0:
0000
0000
0001
0010
,
0001
0100
1000
0010
,
0001
0100
1000
0010
,
0001
0100
1000
0010
,
0001
1000
0100
1000
,
0010
1000
0001
1000
,
0010
1000
0100
1000
,
0001
1000
0010
1000
,
0100
1000
0001
1000
,
0010
0100
0010
0100
,
1000
0100
0001
0100
,
0001
0100
0010
0001
,
0010
0001
0010
0100
,
1000
0100
0010
0001
,
0100
1000
0100
0010
,
0100
1000
0010
1000
,
0010
1000
0100
1000
,
0010
1000
0100
1000
,
0010
1000
0100
1000
,
0010
1000
0100
1000
,
0010
1000
0001
1000
,
0001
1000
0010
1000
,
0100
0000
1000
0000
0010
0000
0001
0010
,
0100
1000
0010
0000
0001
0000
0100
0000
,
0001
0010
0100
0000
0001
0000
0010
0000
,
0100
0001
0100
0000
0010
0000
0001
0000
,
0010
0000
0100
1000
0010
0100
1000
0000
,
0000
0001
0010
0100
,
0001
1000
0010
0100
,
0010
0001
0010
0001
,
0100
1000
0100
0001
,
0000
0010
0100
0010
,
1000
0010
0100
0010
,
0001
0010
0100
0010
,
0001
1000
0100
0010
,
0000
0010
0001
0010
,
0100
0010
0100
1000
,
0000
0000
0010
0000
0001
0000
0010
0100
,
1000
0010
0001
0010
,
0100
0000
1000
0000
0100
0000
0010
0001
,
0010
0100
1000
0100
,
0002
0003
1000
0000
0010
0000
0100
0000
,
1000
0000
0001
0010
0100
0000
1000
0000
,
0010
0001
1000
0010
,
0100
1000
0010
1000
,
0100
0001
0010
0001
,
0010
0010
0100
1000
,
0010
0001
0010
0001
,
0010
0100
1000
0000
0010
0000
0001
0000
,
0010
0001
0010
0000
0100
0000
1000
0000
,
0100
1000
0001
0010
,
0001
1000
0100
0100
,
0010
0001
0010
0000
0100
0000
1000
0000
,
0100
0001
0010
0000
0001
0000
0001
0000
,
0010
0100
1000
0000
0100
0000
0010
0000
;

//---------------dance-single - ----------------
#NOTES:
     dance-single:
     :
     Challenge:
     8:
     0.425,0.398,0.206,0,0.353:
0000
0000
0000
0000
,
0000
0000
0000
0000
,
0000
0000
0000
0000
,
1001
1001
0000
0000
0010
0000
0100
0000
,
0000
0000
0000
0000
0000
0000
0000
0000
0010
0000
1000
0000
0001
0000
0000
0000
0000
0000
0010
0000
0000
0001
0000
0000
,
1000
1000
0000
0000
0100
0000
0010
0000
,
1001
0000
1001
0000
0000
0000
0010
0000
0100
0000
0001
0100
1000
0000
0000
0000
,
0010
0100
0010
1000
0100
1000
0001
0000
,
0010
0100
0010
0001
0100
0001
1000
0000
,
0010
0100
0010
1000
0100
1000
0001
0010
,
0100
1000
0001
0110
,
0000
0000
1001
0000
0000
0010
1000
0010
1000
0000
0001
0000
0100
0000
0000
0000
,
1000
0100
1000
0001
0100
0001
0010
0100
,
1000
0100
1000
0001
0100
0001
0010
0100
,
1000
0100
1000
0001
0100
0001
0010
0100
,
1000
0010
0100
0010
1000
0010
0100
0010
,
0001
0010
1000
0010
0001
0010
0100
0000
,
0001
0100
1000
0100
0001
0100
0010
0100
,
0001
0100
1000
0100
0010
0100
1000
0000
,
0010
0000
1000
0000
0001
0000
1000
0000
0100
0010
0100
0000
1000
0000
0000
0000
,
0010
0000
0100
0000
0001
0000
1000
0000
0001
0010
0001
0000
0100
0000
0000
0000
,
0010
1000
0100
0010
0001
0100
0010
1000
,
0001
0100
1100
0000
1000
0001
1001
0000
,
0010
0001
0010
0001
0010
0000
0000
0100
0000
0100
0000
1000
0001
0000
0000
0000
,
0100
1000
0100
1000
0100
0000
0000
0010
0000
0010
0000
0001
0100
0000
0000
0000
,
1000
0001
1000
0001
1000
0000
0000
0001
0000
0010
0000
1000
0100
0000
0000
0000
,
1001
0000
0000
0100
1000
0000
0000
0100
0001
0000
0000
0000
1001
0000
0000
0000
,
1010
0100
0010
0100
0010
0000
0000
1000
0000
0001
0000
0010
0100
0000
0000
0000
,
1000
0100
1000
0100
1000
0000
0000
0010
0000
0001
0000
1000
0001
0000
0000
0000
,
0100
0010
0100
0010
0100
0000
0000
0010
0000
1000
0000
0100
0001
0000
0000
0000
,
0110
0000
0000
0001
1000
0000
0000
0100
0010
0000
0001
0000
1000
0000
0000
0000
,
0010
0001
0000
0100
0000
0100
0000
0001
0000
1000
0000
0010
0100
0000
0000
0000
,
0010
1000
0000
0100
0000
0100
0000
1000
0000
0001
0100
0000
0010
0000
0000
0000
,
1000
0001
0000
0001
0000
1000
0000
0001
0000
0010
0000
0100
1000
0000
0000
0000
,
0001
0100
0110
0000
0010
1000
1001
0000
,
0100
0000
0100
1000
0000
1000
0100
0000
0010
0000
0010
0001
0000
0000
0000
1000
,
0001
0000
0001
0100
0000
0010
0000
1000
0000
0000
1001
0000
0000
0000
0000
0000
,
0100
0000
0100
0001
0000
0001
0100
0000
0010
1000
0000
1000
0010
0000
1000
0000
,
0100
0000
0000
0010
0000
0010
0000
0100
0000
1000
0000
0001
0100
0000
0000
0000
,
1000
0000
1000
0000
1000
0000
0000
1001
0000
0000
0100
0000
0101
0000
0000
0000
,
0001
0000
0001
0000
0001
0000
0000
1001
0000
0000
0100
0000
1100
0000
0010
0000
,
0001
0000
0001
1000
0000
0000
0000
0000
0001
0000
0001
1000
0000
0000
0000
0000
,
0010
0000
0010
0000
0100
0000
0100
0000
0001
1000
0100
0000
0010
0000
0000
0000
,
0001
1000
0100
0100
0100
1000
0001
0100
,
0001
1000
0100
0100
0100
1000
0001
0100
,
0001
1000
0001
0010
0100
0001
1000
0100
,
0001
0000
0000
1100
0000
0000
0010
0000
1001
0000
0000
0000
0110
0000
0000
0000
,
0001
0100
0000
0100
0001
0000
1000
0000
0100
0000
0010
0000
0001
0000
0000
0000
,
1000
0010
0000
0010
1000
0000
0001
0000
0100
0000
0010
0000
0100
0000
0000
0000
,
1000
0001
0000
0001
0100
0000
1000
0000
0001
0000
0010
0000
0100
0000
0000
0000
,
1001
0000
0000
0100
0001
0000
0000
0100
1000
0000
0000
0000
1001
0000
0000
0000
,
0010
0001
0000
0001
1000
0000
0010
0000
0100
0000
0000
0000
0010
0000
0000
0000
,
1001
0000
0000
1001
0000
0000
0000
0000
0100
0000
0100
0000
0100
0000
0000
0000
0000
0000
0010
0000
0000
1000
0000
0000
,
0001
0010
0000
0010
0100
0000
0100
1000
0000
1000
0001
0000
0100
0000
0000
0000
,
1001
1001
0000
0000
0000
0000
0000
0000
;
