#TITLE:Forever Etc.;
#ARTIST:David Crowder*Band;
#BANNER:Forever Etc. - David CrowderBand.png;
#BACKGROUND:Forever Etc. - David CrowderBand-bg.png;
#LYRICSPATH:Forever Etc. - David CrowderBand.lrc;
#CDTITLE:.\CDTITLES\DP2DAVID1.png;
#MUSIC:Forever Etc. - David CrowderBand.mp3;
#OFFSET:-1.576;
#SAMPLESTART:46.5;
#SAMPLELENGTH:12;
#BPMS:0=167.417;
#BGCHANGES:0=Forever Etc. - David CrowderBand.AVI=1=1=1=0,999=-=1=0=0=0;

//---------------dance-single - ----------------
#NOTES:
     dance-single:
     :
     Easy:
     2:
     0.170,0.206,0.014,0.014,0:
0000
0000
0000
0000
,
1000
0000
0000
0000
,
0001
0000
0000
0000
,
1000
0000
0001
0000
,
1000
0000
0010
0000
,
0001
0000
1000
0000
,
0001
0000
0010
0000
,
1000
0000
0001
0000
,
0000
0000
0001
0000
,
0010
0000
0100
0000
,
0000
0000
0001
0000
,
1000
0000
0010
0000
,
0000
0000
0100
0000
,
1000
0000
0010
0000
,
0001
0000
0000
0000
,
1000
0000
0001
0000
,
0000
0000
0001
0000
,
1000
0000
0001
0000
,
0000
0000
1000
0000
,
0001
0000
1000
0000
,
0000
0000
1000
0000
,
0001
0000
1000
0000
,
0010
0000
0000
0000
,
1100
0000
0001
0000
,
0010
0000
1000
0000
,
0001
0000
1000
0000
,
0010
0000
0001
0000
,
1000
0000
0001
0000
,
1000
0000
0010
0000
,
0001
0000
0100
0000
,
0001
0000
1000
0000
,
0000
0000
1000
0000
,
0010
0000
0001
0000
,
1000
0000
0001
0000
,
1000
0000
0010
0000
,
0001
0000
0100
0000
,
0001
0000
1000
0000
,
0010
0000
1000
0000
,
0010
0000
0001
0000
,
1000
0000
0010
0000
,
0002
0000
0000
0000
,
0003
0000
0000
0000
,
1000
0000
0000
0000
,
0010
0000
0000
0000
,
0001
0000
0010
0000
,
0000
0000
0100
0000
,
0001
0000
0010
0000
,
0000
0000
0010
0000
,
0001
0000
0100
0000
,
0000
0000
0001
0000
,
0010
0000
1000
0000
,
0001
0000
1000
0000
,
0010
0000
0001
0000
,
0000
0000
0010
0000
,
0001
0000
0100
0000
,
0000
0000
0001
0000
,
1000
0000
0010
0000
,
0000
0000
0100
0000
,
1000
0000
0010
0000
,
0001
0000
0000
0000
,
0110
0000
1000
0000
,
0001
0000
0010
0000
,
1000
0000
0100
0000
,
0001
0000
1000
0000
,
0010
0000
0001
0000
,
1000
0000
0001
0000
,
0000
0000
1000
0000
,
0001
0000
1000
0000
,
0000
0000
0001
0000
,
1000
0000
0001
0000
,
0010
0000
1000
0000
,
0001
0000
1000
0000
,
0010
0000
0100
0000
,
1000
0000
0001
0000
,
0010
0000
1000
0000
,
0001
0000
1000
0000
,
0010
0000
1000
0000
,
0010
0000
0001
0000
,
1000
0000
0010
0000
,
0001
0000
0100
0000
,
0020
0000
0030
0000
,
0001
0000
0010
0000
,
1000
0000
0000
0000
,
0010
0000
1000
0000
,
0001
0000
0000
0000
,
1000
0000
0001
0000
,
0010
0000
0100
0000
,
1000
0000
0010
0000
,
0001
0000
0010
0000
,
1000
0000
0001
0000
,
0010
0000
0100
0000
,
1000
0000
0010
0000
,
0001
0000
0100
0000
,
0010
0000
0001
0000
,
1000
0000
0001
0000
,
0010
0000
0100
0000
;

//---------------dance-single - ----------------
#NOTES:
     dance-single:
     :
     Hard:
     7:
     0.459,0.620,0.597,0.014,0:
0000
0000
0000
0000
,
1000
1000
0010
0010
,
0001
0001
0100
0100
,
1000
0010
0001
0010
,
1000
0000
0010
0000
,
0001
1000
0001
1000
,
0001
0000
1000
0000
,
0010
0100
0010
0100
,
1000
0000
0001
0010
,
0010
1000
0010
1000
,
0100
0000
0001
0000
,
1000
0100
1000
0100
,
0001
0000
0100
0000
,
0001
0010
0001
0010
,
0001
0000
1000
0000
,
1001
0010
1001
0010
,
0001
1000
0001
1000
,
0011
1000
0011
1000
,
0001
0010
0001
0010
,
1010
0001
1010
0001
,
1000
0010
1000
0010
,
1001
0100
1001
0100
,
1000
0001
1000
0001
,
1100
0010
1100
0010
,
0100
0010
0100
0010
,
0101
0010
0101
0010
,
0100
0001
0100
0001
,
1010
0100
1010
0100
,
1000
0100
0010
0001
,
1100
0011
1100
0011
,
1000
0100
0010
0001
,
1010
0101
1010
0101
,
0010
0100
0010
0100
,
1001
0110
1001
0110
,
0001
0010
0100
1000
,
0101
1010
0101
1010
,
0001
0010
0100
1000
,
0011
1100
0011
1100
,
0010
0010
0010
0010
,
1100
0001
1100
0010
,
0002
0000
0000
0000
,
0003
1100
1010
0011
,
0101
1100
1010
0011
,
0101
1100
1010
0011
,
0101
1000
0010
0001
,
1100
0001
0100
1000
,
0011
1000
0010
0001
,
1100
0001
0010
1000
,
0101
0010
0100
0001
,
1100
0010
0001
0100
,
1010
0100
1000
0100
,
0011
0100
1000
0001
,
0110
1000
0001
0010
,
1001
0100
0010
1000
,
0011
0010
0100
0001
,
1100
0010
0001
0010
,
1100
0001
0010
0100
,
0011
1000
0100
0001
,
1010
0100
0010
1000
,
0101
0010
1000
0001
,
0110
0001
1000
0010
,
1001
0100
0010
0100
,
1010
0001
0100
1000
,
0011
0100
1000
0001
,
1010
0100
0001
0010
,
1100
0010
0001
1000
,
0110
0001
1000
0010
,
0101
0010
1000
0001
,
0110
1000
0001
0100
,
1010
0100
0001
1000
,
0011
0100
1000
0010
,
0101
0010
1000
0001
,
1010
0001
0100
0001
,
1100
0010
0001
1000
,
0110
0001
1000
0010
,
0101
0010
1000
0100
,
0011
0100
1000
0001
,
1010
0100
0001
0100
,
1010
0001
0010
1000
,
0101
0010
0100
0001
,
0020
0000
1030
1000
,
0001
0100
0010
0001
,
1000
0000
0010
0001
,
0100
0010
0100
1000
,
0010
0001
1000
0010
,
0001
1000
0010
0001
,
0100
0010
1000
0100
,
0001
1000
0100
0010
,
1000
0001
1000
0010
,
0001
1000
0010
0001
,
1000
0010
0001
0100
,
0010
1000
0001
0010
,
1000
0001
0010
0100
,
1000
0010
0100
0001
,
0010
1000
0100
0001
,
1000
0010
0000
0100
;

//---------------dance-single - ----------------
#NOTES:
     dance-single:
     :
     Medium:
     5:
     0.271,0.275,0.410,0.014,0:
0000
0000
0000
0000
,
1000
0000
0010
0000
,
0001
0000
0100
0000
,
1000
0010
0001
0010
,
1000
0000
0010
0000
,
0001
1000
0001
1000
,
0001
0000
1000
0000
,
0010
0100
0010
0100
,
1000
0000
0001
0000
,
0010
1000
0010
1000
,
0100
0000
0001
0000
,
1000
0100
1000
0100
,
0001
0000
0100
0000
,
0001
0010
0001
0010
,
0001
0000
1000
0000
,
1001
0010
1001
0010
,
0000
1000
0000
0001
,
0000
1100
0001
1100
,
0001
0010
0000
0100
,
0000
0001
1000
0001
,
1000
0010
0000
0100
,
0000
0100
1000
0100
,
1000
0000
0001
0000
,
1100
0000
0001
0000
,
0110
0000
1000
0000
,
0011
0000
1000
0000
,
0110
0000
0001
0000
,
1010
0000
0001
0000
,
1100
0000
0010
0000
,
1001
0000
0100
0000
,
0011
0000
1000
0000
,
0101
0000
1000
0000
,
0110
0000
0001
0000
,
1001
0000
0001
0000
,
1100
0000
0010
0000
,
0101
0000
0100
0000
,
0011
0000
1000
0000
,
1010
0000
1000
0000
,
0110
0000
0001
0000
,
1001
0000
0010
0000
,
0002
0000
0000
0000
,
0000
0003
0000
0000
,
1000
0000
0001
0000
,
0010
0000
1000
0000
,
0011
0000
0010
0000
,
1100
0000
0100
0000
,
0011
0000
0010
0000
,
1100
0000
0010
0000
,
0101
0000
0100
0000
,
1100
0000
0001
0000
,
1010
0000
1000
0000
,
0011
0000
1000
0000
,
0110
0000
0001
0000
,
1001
0000
0010
0000
,
0011
0000
0100
0000
,
1100
0000
0001
0000
,
1100
0000
0010
0000
,
0011
0000
0100
0000
,
1010
0000
0010
0000
,
0101
0000
1000
0000
,
0110
0000
1000
0000
,
1001
0000
0010
0000
,
1010
0000
0100
0000
,
0011
0000
1000
0000
,
1010
0000
0001
0000
,
1100
0000
0001
0000
,
0110
0000
1000
0000
,
0101
0000
1000
0000
,
0110
0000
0001
0000
,
1010
0000
0001
0000
,
0011
0000
1000
0000
,
0101
0000
1000
0000
,
1010
0000
0100
0000
,
1100
0000
0001
0000
,
0110
0000
1000
0000
,
0101
0000
1000
0000
,
0011
0000
1000
0000
,
1010
0000
0001
0000
,
1010
0000
0010
0000
,
0101
0000
0100
0000
,
0020
0000
0000
0030
,
0001
0000
0010
0000
,
1000
0000
0001
0000
,
0010
0000
1000
0000
,
0001
0000
0010
0000
,
1000
0000
0001
0000
,
0010
0000
0100
0000
,
1000
0000
0010
0000
,
0001
0000
0010
0000
,
1000
0000
0001
0000
,
0010
0000
0100
0000
,
1000
0000
0010
0000
,
0001
0000
0100
0000
,
0010
0000
0001
0000
,
1000
0000
0001
0000
,
0010
0000
0100
0000
;

//---------------dance-single - ----------------
#NOTES:
     dance-single:
     :
     Challenge:
     8:
     0.536,0.507,0.367,0.230,0: // measure 1
0000
0000
0000
0000
,  // measure 2
0000
0000
0000
0000
,  // measure 3
1000
0002
2000
0000
0000
0000
3003
0000
,  // measure 4
0001
0010
0011
0000
1000
0100
0000
0001
,  // measure 5
0100
0000
0000
1001
0000
0000
0110
0000
,  // measure 6
1000
0010
1010
0000
0001
0100
0000
1000
,  // measure 7
0100
0000
0000
1001
0000
0000
0110
0000
,  // measure 8
0101
1000
0201
0000
,  // measure 9
0001
0000
1000
0000
0301
1000
0100
0000
,  // measure 10
0010
0001
1000
0010
0100
0000
0100
0000
,  // measure 11
1000
0100
0001
0100
0010
1000
0001
0010
,  // measure 12
0100
0001
1200
0000
,  // measure 13
1000
0000
0001
0000
1300
0001
0100
0000
,  // measure 14
0010
0100
0001
1000
0010
0000
0010
0000
,  // measure 15
0001
0010
1000
0010
0100
0001
1000
0000
,  // measure 16
0110
1000
0110
0001
,  // measure 17
1000
0100
0010
0000
0010
0001
1000
0000
,  // measure 18
0010
0100
0001
0100
0010
0000
1000
0000
,  // measure 19
0100
0010
0001
0010
0100
1000
0001
0000
,  // measure 20
1001
0010
1001
0100
,  // measure 21
0001
0100
0010
0000
0010
1000
0001
0000
,  // measure 22
1000
0100
0001
0100
1000
0001
0100
0000
,  // measure 23
1010
1100
1010
1100
,  // measure 24
0001
0010
0000
0010
0200
0000
0000
0000
,  // measure 25
0310
1000
0001
0100
,  // measure 26
1000
0010
0000
0010
0200
0000
0000
0000
,  // measure 27
0310
0001
1000
0100
,  // measure 28
0010
0100
0000
0100
0020
0000
0000
0000
,  // measure 29
1030
0001
0100
1001
,  // measure 30
0200
0010
0320
1000
,  // measure 31
1030
0001
0000
0001
1000
0000
0110
0000
,  // measure 32
1000
0101
1000
0101
,  // measure 33
0100
0010
0100
0001
1000
0100
0010
0000
,  // measure 34
0001
0110
1000
0110
,  // measure 35
0010
0001
0100
0010
0100
0000
1001
0000
,  // measure 36
0010
1100
0010
1100
,  // measure 37
0010
0001
1000
0001
0100
0010
1000
0000
,  // measure 38
2001
0100
0001
3100
,  // measure 39
1002
0100
1000
0103
,  // measure 40
0001
0100
0001
0100
1000
0100
1000
0100
,  // measure 41
0010
0000
1000
0000
0000
0001
0000
0000
,  // measure 42
1000
0010
0001
0010
1000
0010
0100
0001
,  // measure 43
1000
0000
0100
0000
0000
0010
0000
0000
,  // measure 44
0001
0100
1000
0100
0001
1000
0100
0000
,  // measure 45
1001
0100
1100
0010
,  // measure 46
0001
1000
0001
0000
0100
0001
1000
0000
,  // measure 47
0010
0100
0001
1000
0100
0000
0100
0000
,  // measure 48
0010
1000
0010
0001
0100
0010
1000
0001
,  // measure 49
0000
1000
0101
0100
,  // measure 50
0010
0000
0010
1000
0100
0010
0001
1000
,  // measure 51
0000
0100
1001
0200
,  // measure 52
0020
0000
0000
0330
,  // measure 53
1000
0010
0100
0001
1000
0000
1000
0000
,  // measure 54
0001
0100
0010
1000
,  // measure 55
0001
0010
0100
1000
0001
0000
0001
0000
,  // measure 56
1000
0000
0010
0000
0100
0001
1000
0100
,  // measure 57
0010
0100
1001
0000
,  // measure 58
0010
0000
0001
0000
1000
0010
0100
0001
,  // measure 59
1000
0100
1000
0000
0001
0100
0001
0000
,  // measure 60
1000
0010
1000
0010
0100
0001
0100
0001
,  // measure 61
1000
0000
0000
1000
0100
0000
0010
0000
,  // measure 62
0001
1000
0000
0001
0100
0000
0010
0000
,  // measure 63
0002
1000
2003
0010
,  // measure 64
3010
0100
0000
0100
0010
0000
1001
0000
,  // measure 65
0010
0000
1001
0000
0100
1000
0001
0000
,  // measure 66
0020
0130
2000
3001
,  // measure 67
0100
0000
1001
0000
0100
0001
1000
0000
,  // measure 68
0020
0130
0002
1003
,  // measure 69
1000
0100
0010
0000
0001
0010
0100
0000
,  // measure 70
1000
0010
0100
0001
1000
0100
0010
0000
,  // measure 71
1001
0000
1010
0000
0100
0001
1000
0000
,  // measure 72
1001
0000
0011
0000
0100
1000
0001
0000
,  // measure 73
0010
0000
1100
0000
0010
0100
1000
0000
,  // measure 74
0002
0203
0320
1030
,  // measure 75
0100
0000
0011
0000
0100
0010
0001
0000
,  // measure 76
2000
3002
0203
0310
,  // measure 77
0001
0010
0100
0000
1000
0100
0010
0000
,  // measure 78
0001
0100
0010
1000
0001
0010
0100
0000
,  // measure 79
1001
0000
1100
0000
0001
0100
1000
0000
,  // measure 80
1001
0000
0101
0000
1000
0100
0001
0000
,  // measure 81
0010
0000
0000
0100
0002
0000
0000
0000
,  // measure 82
1000
0000
0100
0003
,  // measure 83
1000
0100
0000
0001
1000
0000
0010
0000
,  // measure 84
0100
0001
0000
1000
0001
0000
0001
0000
,  // measure 85
2000
0000
0010
0000
,  // measure 86
0001
0000
0100
3000
,  // measure 87
0002
1000
0003
0000
2000
0001
3000
0000
,  // measure 88
0020
0100
0000
0000
0030
0000
0000
0000
,  // measure 89
1000
0100
0001
0000
0001
0100
1000
0000
,  // measure 90
0001
1000
0101
1010
,  // measure 91
0001
0010
1000
0000
1000
0010
0001
0000
,  // measure 92
1000
0001
1100
0011
,  // measure 93
2002
0000
0000
0000
,  // measure 94
0000
0000
0000
0000
,  // measure 95
3003
0000
0000
0000
;
