#TITLE:Fire;
#ARTIST:Krystal Meyers;
#BANNER:Fire - Krystal Meyers.png;
#BACKGROUND:Fire - Krystal Meyers-bg.png;
#LYRICSPATH:Fire - Krystal Meyers.lrc;
#CDTITLE:.\CDTITLES\DP2KRYSTAL.png;
#MUSIC:Fire - Krystal Meyers.mp3;
#OFFSET:-1.443;
#SAMPLESTART:53.4;
#SAMPLELENGTH:12;
#BPMS:0=83,72=166,144=83,196=166;
#BGCHANGES:0=Fire - Krystal Meyers.AVI=1=1=1=0,999=-=1=0=0=0;

//---------------dance-single - ----------------
#NOTES:
     dance-single:
     :
     Easy:
     2:
     0.131,0.160,0.007,0.014,0:
0000
0000
0000
0000
,
0000
0001
0000
1000
,
0010
0001
0000
0010
,
0000
1000
0000
0001
,
1000
0010
0000
1000
,
0000
0001
0000
1000
,
0001
0010
0000
1000
,
0000
0001
0000
1000
,
0001
0010
0000
0001
,
0000
1000
0000
0001
,
1000
0010
0000
0001
,
0000
1000
0000
0001
,
1000
0010
0000
0001
,
0000
1000
0000
0010
,
1000
0001
0000
1000
,
0000
0010
0000
0001
,
0010
1000
0000
0010
,
0000
0001
0000
1000
,
0011
0000
0000
1000
0000
0000
0001
0000
,
0000
0000
0010
0000
,
0000
0000
1000
0000
,
0001
0000
0010
0000
,
0000
0000
0000
0001
0000
0000
1000
0000
,
0000
0000
0010
0000
,
0000
0000
1000
0000
,
0010
0000
0001
0000
,
0000
0000
0000
0010
0000
0000
0001
0000
,
0000
0000
1000
0000
,
0000
0000
0001
0000
,
1000
0000
0010
0000
,
0000
0000
1000
0000
,
0010
0000
0001
0000
,
0000
0000
0010
0000
,
0001
0000
1000
0000
,
0000
0000
0001
0000
,
0010
0000
1000
0000
,
0002
0000
0000
0000
,
0003
1000
0000
0001
,
1000
0010
0000
1000
,
0000
0001
0000
1000
,
0001
0010
0000
0001
,
0000
1000
0000
0001
,
1000
0010
0000
1000
,
0000
0001
0000
1000
,
0001
0010
0000
0001
,
0000
1000
0000
0001
,
1000
0010
0000
1000
,
0000
0001
0000
1000
,
0001
0020
0000
0000
0000
0000
0000
0030
,
0000
0000
0000
1000
0000
0000
0010
0000
,
0000
0000
0001
0000
,
1000
0000
0010
0000
,
0000
0000
1000
0000
,
0010
0000
0000
0001
0000
0000
0010
0000
,
0000
0000
1000
0000
,
0001
0000
0010
0000
,
0000
0000
0001
0000
,
0010
0000
0000
1000
0000
0000
0010
0000
,
0000
0000
0001
0000
,
1000
0000
0010
0000
,
0000
0000
0001
0000
,
0010
0000
1000
0000
,
0000
0000
0001
0000
,
1000
0000
0010
0000
,
0000
0000
1000
0000
;

//---------------dance-single - ----------------
#NOTES:
     dance-single:
     :
     Challenge:
     8:
     0.380,0.411,0.163,0.120,0.145:
0000
0000
0000
0000
,
0000
0000
0000
0000
,
0000
0000
0000
0000
,
0000
0000
0000
0000
,
0220
0000
0000
0000
,
0330
0000
0000
0000
,
1000
0000
1000
0000
0100
0000
0000
0000
1000
0001
1000
0000
0100
0000
0000
0000
,
0010
0010
0001
0000
1000
0010
0100
0000
,
0001
0000
0001
0000
0100
0000
0000
0000
0001
1000
0001
0000
0100
0000
0000
0000
,
0010
0000
0010
0000
1000
0000
0000
0000
0100
0010
0000
0001
0000
1000
0000
0000
,
0001
0000
0001
0000
0010
0000
0000
0000
0001
1000
0001
0000
0010
0000
0000
0000
,
0100
0100
1000
0000
0010
0100
0001
0000
,
1000
0000
1000
0000
0010
0000
0000
0000
1000
0001
1000
0000
0010
0000
0000
0000
,
0100
0000
0100
0000
0001
0000
0000
0000
0010
0100
0000
1000
0000
0001
0000
0000
,
0220
0000
0000
0000
0030
0000
0000
0010
0000
0000
0010
0000
0310
0000
0000
0000
,
1000
0000
0001
0100
0000
0010
1000
0000
,
0220
0000
0000
0000
0300
0000
0000
0100
0000
0000
0100
0000
0130
0000
0000
0000
,
1000
0001
0000
0001
1000
0000
0000
0100
1000
0001
0000
0001
1000
0000
0010
0000
,
0100
0000
0000
1001
0000
0010
0100
0001
,
0000
1000
0000
0100
0010
0000
0100
0000
,
2001
0010
0001
0100
,
3001
0000
0100
0000
0001
1000
0001
1000
,
0100
0010
0000
1001
0000
0000
0010
1000
,
0001
0010
0000
0100
1000
0000
0001
0000
,
1000
0001
0000
0100
0010
0000
0010
0000
,
1000
0100
1000
0100
0010
0001
0010
0001
,
0100
0000
0000
0110
0000
0000
0001
1000
,
0000
0110
0000
1000
0010
0100
0001
0000
,
1000
0010
0100
0010
0000
1000
0001
0000
,
0010
1000
0010
0001
0000
0010
0100
0000
,
1002
0100
1000
0010
,
1003
0000
0100
0000
0001
0100
1000
0000
,
2001
0010
0001
0100
,
3001
0000
1000
0000
0010
0100
0001
1000
,
0100
0000
0000
0010
0100
0000
0000
1000
,
0001
0100
0010
1000
0001
0000
1000
0000
,
2002
0000
0000
3003
,
0100
0000
0000
0000
1000
0000
0000
0100
0000
0010
0000
0001
0000
1000
0000
0000
,
0001
0000
0100
0000
0010
0000
1000
0000
0001
1000
0000
0100
0000
0000
0010
0000
,
0001
0000
0000
0000
0100
0000
0000
0000
0010
1000
0000
0001
0000
1000
0000
0000
,
0100
0000
0010
0000
0100
0000
1000
0001
0000
0100
0000
0010
0000
1000
0000
0000
,
0001
0000
0001
0000
1000
0001
0100
0000
0000
0000
0001
0000
1000
0000
0000
0000
,
0100
0000
0100
0000
1000
0100
0010
0000
0000
0000
0001
0000
0100
0000
0000
0000
,
0001
0010
0001
1000
0000
0010
0100
0000
,
1000
0000
0010
0000
1000
0001
0100
0000
0001
0000
0010
0000
0001
1000
0100
0000
,
0010
0000
0000
0000
1002
0000
0000
1000
0000
0000
0203
0000
0000
0000
0000
0000
,
0310
0000
1000
0001
0000
0010
0100
0000
,
1000
0000
0000
0000
2001
0000
0000
0001
0000
0000
3200
0000
0000
0000
0310
0000
,
0001
1000
0000
1000
0001
0000
0000
0010
0001
1000
0000
1000
0001
0000
0100
0000
,
0010
0000
1000
0100
0000
0010
1000
0000
,
0001
0100
0000
0010
0001
0000
1000
0000
,
0110
0000
0101
0000
1000
0010
0100
0000
,
1001
0000
1100
0000
0010
0100
1000
0001
,
0100
0000
0010
1000
0000
0010
0100
0001
,
1000
0100
0000
0001
0100
0000
0010
0000
,
1001
0000
0110
0000
1000
0010
0100
0000
,
0001
0100
0001
0100
0010
1000
0010
1000
,
0100
0010
0000
1100
0000
0010
0001
0100
,
0000
0011
0000
0100
1000
0000
0001
0000
,
1000
0100
0010
0100
0000
1000
0001
0000
,
1000
0010
0100
0001
0000
0010
0100
0000
,
2001
0010
0100
0010
,
3001
0000
0100
0000
1000
0100
0001
0000
,
1002
0010
0100
0010
,
1003
0000
0001
0000
;

//---------------dance-single - ----------------
#NOTES:
     dance-single:
     :
     Hard:
     7:
     0.347,0.392,0.007,0.035,0:
0000
0000
0000
0000
,
1000
0100
1000
0000
0010
0001
1000
0000
,
0010
1000
0001
0000
1000
0001
0010
0000
,
0001
0010
1000
0000
0001
1000
0001
0000
,
1000
0001
0010
0000
0001
0010
1000
0000
,
0010
1000
0001
0000
1000
0001
1000
0000
,
0001
1000
0010
0000
0001
0010
1000
0001
,
0020
0000
0001
0030
1000
0010
0001
1000
,
0010
0001
1000
0000
0010
1000
0010
0001
,
1000
0010
0001
1000
0001
0010
1000
0001
,
1000
0001
0010
0000
1000
0001
1000
0001
,
0010
0001
1000
0001
0010
1000
0001
0100
,
1000
0001
0010
0001
1000
0001
1000
0001
,
0010
0100
1000
0000
0001
1000
0010
0001
,
1000
0010
0001
0100
0010
0200
0000
0000
,
0001
0300
0010
0000
1000
0010
0001
0000
,
0010
0001
1000
0010
0001
0000
0010
0000
,
1000
0200
0001
0000
0001
0000
0001
0300
,
0011
0100
1000
0000
,
0001
1000
0010
1000
,
0001
0010
1000
0100
,
0001
0100
0010
0001
,
1000
0010
0001
0010
,
1000
0000
0010
1000
,
0001
0010
1000
0100
,
0010
1000
0001
0100
,
1000
0001
0010
1000
,
0001
0010
1000
0001
,
0010
1000
0001
0010
,
1000
0100
0010
1000
,
0001
0010
1000
0001
,
0010
1000
0001
0010
,
1000
0100
0010
1000
,
0001
0100
1000
0001
,
0010
1000
0001
0100
,
0010
0001
1000
0010
,
0002
0000
0000
0000
0000
0000
0000
0003
,
0000
0000
1000
0001
0010
1000
0001
0010
,
1000
0100
0010
0100
0001
0010
1000
0001
,
0010
1000
0001
1000
0010
0001
1000
0010
,
0001
1000
0010
0001
0100
1000
0001
1000
,
0010
0001
1000
0001
0010
0100
0001
0010
,
1000
0001
0010
1000
0001
0010
1000
0001
,
0010
1000
0001
0010
0100
0001
1000
0010
,
0001
0100
0010
0001
1000
0010
0001
1000
,
0010
0010
1000
0001
0010
1000
0001
0010
,
1000
0001
0010
1000
0001
0010
1000
0100
,
0010
0100
0001
0010
0100
0001
1000
0010
,
0001
0020
1000
0000
1000
0000
1000
0000
,
1030
1000
1000
0001
,
0010
1000
0001
0010
,
1000
0001
0010
1000
,
0001
0010
1000
0100
,
0010
1000
0001
1000
,
0010
0100
1000
0010
,
0001
1000
0010
0001
,
0100
1000
0001
1000
,
0010
0100
1000
0001
,
0010
1000
0001
0010
,
1000
0001
0010
1000
,
0100
1000
0001
1000
,
0010
0100
1000
0001
,
0010
1000
0001
0010
,
1000
0100
0010
0001
,
0100
0010
1000
0100
,
0010
0000
0000
0000
;

//---------------dance-single - ----------------
#NOTES:
     dance-single:
     :
     Medium:
     4:
     0.197,0.251,0.007,0.021,0:
0000
0000
0000
0000
,
0000
0000
0001
0000
0010
0001
1000
0000
,
0010
0001
0000
1000
,
0010
0001
1000
0000
0000
0000
0001
0000
,
1000
0001
0010
0000
0000
0000
1000
0000
,
0010
0001
0000
1000
,
0001
1000
0010
0000
0001
0000
1000
0000
,
0010
1000
0001
0000
0010
0000
1000
0000
,
0001
1000
0010
0000
1000
0000
0001
0000
,
0010
0001
1000
0000
0010
0000
0001
0000
,
1000
0001
0010
0000
1000
0000
0001
0000
,
0010
0001
1000
0000
0010
0000
0001
0000
,
1000
0001
0010
0000
1000
0000
0001
0000
,
0010
1000
0000
0010
,
1000
0010
0001
0000
0010
0000
1000
0000
,
0001
0010
0000
0001
,
0010
0001
1000
0000
0001
0000
0010
0000
,
1000
0200
0000
0000
0000
0000
0000
0300
,
0011
0000
0000
1000
0000
0000
0001
0000
,
0000
0010
0000
0000
0010
0000
0000
0000
,
0001
0000
1000
0000
,
0001
0000
0010
0000
,
1000
0000
0000
0001
0000
0000
1000
0000
,
0000
0010
0000
0000
0010
0000
0000
0000
,
0001
0000
1000
0000
,
0010
0000
0001
0000
,
1000
0000
0000
0010
0000
0000
0001
0000
,
0000
1000
0000
0000
0010
0000
0000
0000
,
0010
0000
0001
0000
,
1000
0000
0010
0000
,
0001
0000
1000
0000
,
0010
0000
0001
0000
,
1000
0000
0010
0000
,
0001
0000
1000
0000
,
0010
0000
0001
0000
,
0010
0000
1000
0000
,
0002
0000
0000
0000
,
0003
1000
0010
0001
,
1000
0010
0001
1000
,
0010
0001
0010
1000
,
0001
0010
0100
0001
,
0010
1000
0010
0001
,
1000
0010
0001
1000
,
0010
0001
0100
1000
,
0001
0010
1000
0001
,
0010
1000
0010
0001
,
1000
0010
0001
1000
,
0010
0001
0100
1000
,
0001
0020
0000
0000
0000
0000
0000
0030
,
0001
0000
0000
1000
0000
0000
0010
0000
,
0000
0001
0000
0000
1000
0000
0000
0000
,
1000
0000
0010
0000
,
0001
0000
1000
0000
,
0010
0000
0000
0001
0000
0000
0010
0000
,
0000
1000
0000
0000
0001
0000
0000
0000
,
0001
0000
0010
0000
,
0100
0000
0001
0000
,
0010
0000
0000
1000
0000
0000
0010
0000
,
0000
0001
0000
0000
1000
0000
0000
0000
,
1000
0000
0010
0000
,
0100
0000
0001
0000
,
0010
0000
1000
0000
,
0010
0000
0001
0000
,
1000
0000
0010
0000
,
0100
0000
1000
0000
;
