#TITLE:Father's Song;
#ARTIST:Jonah33;
#BANNER:Father's Song - Jonah33.png;
#BACKGROUND:Father's Song - Jonah33-bg.png;
#LYRICSPATH:Father's Song - Jonah33.lrc;
#CDTITLE:.\CDTITLES\DP2JONAH.png;
#MUSIC:Father's Song - Jonah33.mp3;
#OFFSET:-1.371;
#SAMPLESTART:60.1;
#SAMPLELENGTH:12;
#BPMS:0=132;

//---------------dance-single - ----------------
#NOTES:
     dance-single:
     :
     Easy:
     1:
     0.151,0.107,0,0,0:
0000
0000
0001
0000
,
0000
0000
1000
0000
,
0000
0010
0001
0000
,
0000
0010
1000
0000
,
0000
0010
0001
0000
,
0000
0100
1000
0000
,
0000
0010
0001
0000
,
0000
0100
1000
0000
,
0000
0001
0010
0000
,
0000
0100
0001
0000
,
0000
1000
0010
0000
,
0000
0001
1000
0000
,
0000
0010
0001
0000
,
0000
0100
1000
0000
,
0000
0100
0010
0000
,
0000
0100
0001
0000
,
0000
1000
0010
0000
,
0000
0001
1000
0000
,
0000
1000
0010
0000
,
0000
0001
1000
0000
,
0000
0100
0010
0000
,
0000
1000
0001
0000
,
0000
0001
1000
0000
,
0000
0010
0001
0000
,
0000
0100
0010
0000
,
0000
0001
1000
0000
,
0000
0100
0010
0000
,
0000
1000
0001
0000
,
0000
1000
0010
0000
,
0000
0001
1000
0000
,
0000
0010
0001
0000
,
0000
0100
0010
0000
,
0000
0010
0000
0000
,
0000
1000
0001
0000
,
0000
1000
0010
0000
,
0000
0001
1000
0000
,
0000
0100
0010
0000
,
0000
0100
0001
0000
,
0000
0001
1000
0000
,
0000
1000
0010
0000
,
0000
0001
1000
0000
,
0000
1000
0001
0000
,
0000
0100
0010
0000
,
0000
0001
1000
0000
,
0000
1000
0001
0000
,
0000
0001
0010
0000
,
0000
1000
0001
0000
,
0000
0100
0010
0000
,
0000
0010
0001
0000
,
0000
0100
1000
0000
,
0000
0100
0010
0000
,
0000
0001
1000
0000
,
0000
0100
0001
0000
,
0000
0100
0010
0000
,
0000
0001
1000
0000
,
0000
0010
0001
0000
,
0000
0100
0010
0000
,
0000
0010
1000
0000
,
0000
0001
0010
0000
,
0000
1000
0001
0000
,
0000
0100
1000
0000
,
0000
0100
0010
0000
,
0000
0010
1000
0000
,
0000
0100
0001
0000
,
0000
0001
1000
0000
,
0000
1000
0010
0000
,
0000
0001
1000
0000
,
0000
0100
0001
0000
,
0000
0100
0010
0000
,
0000
0001
1000
0000
,
0000
0100
0001
0000
,
0000
0001
0010
0000
,
0000
0100
1000
0000
,
0000
0001
0010
0000
,
0000
1000
0001
0000
,
0000
0010
1000
0000
,
0000
0100
0001
0000
,
0000
0001
1000
0000
,
0000
0100
0010
0000
;

//---------------dance-single - ----------------
#NOTES:
     dance-single:
     :
     Challenge:
     8:
     0.445,0.504,0.238,0.102,0.037:
0000
0000
0000
0000
,
0000
0000
0000
0000
,
0000
0000
0000
0000
,
0000
0000
0000
0000
,
0001
0000
0000
0000
0100
0000
0000
0000
0000
0000
0100
0010
0000
0000
0100
0010
,
0000
1000
0001
0000
0010
0000
0010
0000
,
0100
0000
1000
0000
0001
0000
0000
0000
0000
0000
1000
0010
0000
0000
1000
0010
,
0000
0100
0001
0000
1000
0000
0001
0000
,
1000
0000
0100
0000
0010
0000
0100
0000
1000
0000
0001
1000
0000
0000
0010
0000
,
1000
0001
0100
0000
1001
0000
0000
0000
,
0001
0000
0010
0000
0100
0000
0010
0000
0001
0000
1000
0001
0000
0000
0100
0000
,
0001
1000
0000
0100
0010
0000
1000
0000
,
0001
0000
0100
0000
0010
0000
0100
0000
0001
0000
1000
0100
0000
0000
0010
0000
,
0001
1000
0100
0000
1001
0000
0000
0000
,
1000
0000
0010
0000
0100
0000
0010
0000
1000
0000
0001
0100
0000
0000
0010
0000
,
1000
0100
0000
0010
0000
0001
1000
0000
,
0001
0000
1100
0000
0001
0100
0000
0010
,
1000
0100
0001
0100
1000
0000
0001
0000
,
1000
0000
0101
0000
1000
0010
0000
0100
,
0001
0010
1000
0010
0001
0000
1000
0000
,
0110
0000
1001
0000
0100
0010
0000
0100
,
1000
0001
0100
0000
0010
1000
0001
0000
,
0110
0000
0000
0000
1001
0000
0000
0000
0010
0000
0100
0000
0000
0000
0010
1000
,
0001
0000
0001
0000
1000
0001
0100
0000
,
0010
0100
0001
0100
0000
1010
0000
0100
,
0001
1000
0100
0010
0000
0100
0000
0100
,
1000
0001
1000
0010
0000
0101
0000
1000
,
0100
0010
0100
1000
0010
0100
0001
1000
,
0100
0000
0010
0100
0000
0000
1001
0000
,
0010
1000
0001
0100
0000
1000
0100
0000
,
0010
1000
0100
0000
0010
0001
0100
0000
,
0010
1000
0001
1000
0010
0100
0001
0000
,
2002
0000
0000
3003
,
0020
0000
0000
0030
,
2200
0000
0000
0300
,
0002
0000
0000
3003
,
0110
0000
0100
0000
0010
1000
0100
0010
,
0100
0000
0010
0000
0001
1000
0100
0000
,
1000
0010
0100
0010
1000
0100
0001
0100
,
1000
0010
0100
0010
1000
0001
0010
0001
,
1000
0000
0010
0000
0100
0000
0001
1000
,
2200
0000
3300
0000
0010
0001
0100
0000
,
0001
0001
1000
1000
0001
0001
1000
0000
,
0010
0010
0100
0001
0000
1000
0100
0000
,
1001
0000
0001
0000
1000
0010
1000
0001
,
0100
0000
0010
0000
1000
0001
0100
0000
,
0001
0010
0100
0010
0001
0100
1000
0100
,
0001
0010
0100
0010
0001
1000
0010
1000
,
0001
0000
0010
0000
0100
0000
1000
0001
,
0202
0000
0303
0000
1000
0010
0100
0000
,
0001
1100
0010
1001
,
0101
1000
0010
0000
1100
0001
0010
0000
,
0001
1000
0010
0100
0001
0000
0000
0000
,
0001
0010
0100
1000
0001
0000
0000
0000
,
1000
0010
0100
0001
1000
0000
0000
0000
,
0010
1000
0010
1000
0010
0100
0001
1000
,
0100
1000
0001
0000
0100
1000
0001
0000
,
1000
0010
0100
0010
1000
0001
0100
0000
,
0010
1000
0001
0000
0010
1000
0001
0000
,
0010
0100
0010
0100
1000
0010
0100
0001
,
1000
0100
1000
0000
0001
0100
0010
0000
,
1000
0001
0100
0001
1000
0100
0001
0000
,
0100
0010
0001
0000
0100
0010
1000
0000
,
0100
0000
1001
0000
0110
0001
1000
0000
,
0010
0000
1001
0000
0010
0100
0101
0100
,
0010
0000
1001
0000
0010
0100
1100
0100
,
0010
0000
0100
0001
1000
0000
0010
1000
,
0100
0000
0000
0000
0010
0000
0000
0000
0001
1000
0000
0000
1000
0001
0000
0000
,
0001
0100
0101
0000
1000
0001
0011
0001
,
1000
0100
1100
0000
0001
1000
1010
1000
,
0001
0000
0110
0000
1000
0001
1000
0100
,
0001
0000
0110
0000
1001
0010
0100
0000
,
2000
0000
0000
0010
3010
0000
0100
0000
,
0002
0000
0000
0010
0013
0000
0100
0000
,
1000
0000
0000
1000
0001
0000
1000
0000
,
0010
0100
0010
1001
,
0002
0000
0000
0100
0103
0000
0010
0000
,
2000
0000
0000
0002
0000
0000
0000
0000
,
3003
0000
0000
0000
;

//---------------dance-single - ----------------
#NOTES:
     dance-single:
     :
     Hard:
     6:
     0.289,0.296,0,0.007,0:
0000
0000
0000
0000
0000
0010
0000
0001
,
0000
0000
0000
0000
1000
0000
0000
0010
,
0001
0000
0010
0000
0000
1000
0000
0001
,
0000
0010
0000
0001
,
1000
0000
0000
0010
0000
1000
0000
0001
,
0000
0000
0000
0010
0000
0000
0000
0010
,
0001
0000
0100
0000
0000
1000
0000
0001
,
0000
0000
0010
0000
0000
0001
1000
0001
,
1000
0000
0100
0000
0000
1000
0000
0100
,
0000
0000
0001
0000
0000
0000
0000
0001
,
0010
0000
0100
0000
0000
0001
0000
0010
,
0000
0000
1000
0000
0000
0100
0010
0000
,
1000
0000
0001
0000
0000
1000
0000
0100
,
0000
0000
0010
0000
0000
0000
0000
0001
,
0010
0000
0100
0000
0000
1000
0000
0001
,
0000
0000
0100
0000
0000
0001
1000
0001
,
1000
0000
0100
0000
0000
1000
0000
0001
,
0000
0000
1000
0000
0000
0000
0000
0100
,
0010
0000
0001
0000
0000
1000
0000
0001
,
0000
0000
1000
0000
0000
0010
0100
0000
,
0010
0000
0001
0000
0000
0010
0000
1000
,
0000
0000
0100
0000
0000
0000
0000
0001
,
0010
0000
1000
0000
0000
0001
0000
0010
,
0000
0000
0001
0000
0000
0001
1000
0001
,
1000
0001
1000
0010
,
0100
0000
0010
1000
0001
1000
0010
0000
,
0001
1000
0100
0010
,
0100
0010
1000
0001
,
1000
0001
0100
0010
,
1000
0010
0100
0010
,
0001
1000
0100
0001
,
0010
0001
1000
0010
,
0100
0010
1000
0002
,
0000
0000
0000
0000
0000
0003
0010
0000
,
1000
0001
0010
0000
,
1000
0010
1000
0000
,
0001
1000
0010
0001
,
0100
0010
1000
0001
,
0100
0001
1000
0010
,
0001
1000
0001
0010
,
1000
0010
0100
1000
,
0001
1000
0010
0001
,
1000
0001
0010
1000
,
0100
0010
1000
0010
,
0001
1000
0100
0001
,
1000
0001
0010
1000
,
0001
0010
0100
0001
,
1000
0001
0010
1000
,
0100
0010
1000
0001
,
0010
0001
0010
1000
,
0100
1000
0001
0010
,
0100
0010
1000
0010
,
0001
1000
0010
1000
,
0100
0001
0010
1000
,
0100
0010
1000
0010
,
0001
1000
0100
0001
,
0010
0001
1000
0001
,
0100
0010
0001
1000
,
0010
1000
0100
0010
,
0001
0010
0100
0001
,
1000
0001
0010
1000
,
0100
1000
0001
0010
,
0100
0010
1000
0001
,
0010
1000
0010
1000
,
0100
0001
0100
0010
,
0001
1000
0001
0010
,
1000
0010
0100
1000
,
0001
1000
0010
1000
,
0100
0001
0010
1000
,
0100
0010
1000
0010
,
0001
1000
0010
0001
,
0100
0001
0010
1000
,
0001
0010
0001
0010
,
0100
1000
0010
1000
,
0001
0010
0100
0001
,
1000
0001
1000
0001
,
0010
1000
0010
0010
,
0100
0001
0100
0010
,
0001
1000
0001
0010
,
0100
0010
0000
0000
;

//---------------dance-single - ----------------
#NOTES:
     dance-single:
     :
     Medium:
     3:
     0.218,0.189,0,0.007,0:
0000
0000
0000
0000
0000
0010
0000
0001
,
0000
0000
0000
0000
,
0000
0000
0001
0000
0000
1000
0000
0001
,
0000
0010
0001
0000
,
0000
0000
0010
0000
0000
1000
0000
0001
,
0000
0010
0001
0000
,
0000
0000
0100
0000
0000
1000
0000
0001
,
0000
0010
0001
0000
,
0000
0000
0100
0000
0000
1000
0000
0100
,
0000
0001
0010
0000
,
0000
0000
0100
0000
0000
0001
0000
0010
,
0000
1000
0010
0000
,
0000
0000
0001
0000
0000
1000
0000
0100
,
0000
0010
0001
0000
,
0000
0000
0100
0000
0000
1000
0000
0001
,
0000
0100
0010
0000
,
0000
0000
0100
0000
0000
1000
0000
0001
,
0000
1000
0010
0000
,
0000
0000
0001
0000
0000
1000
0000
0001
,
0000
1000
0010
0000
,
0000
0000
0001
0000
0000
0010
0000
1000
,
0000
0100
0010
0000
,
0000
0000
1000
0000
0000
0001
0000
0010
,
0000
0001
1000
0000
,
0010
0001
1000
0010
,
0100
0010
0000
0000
,
0001
1000
0100
0010
,
0100
0010
0000
0000
,
1000
0001
0100
0010
,
1000
0010
0000
0000
,
0001
1000
0100
0001
,
0010
0001
0000
0000
,
0100
0010
1000
0002
,
0000
0000
0000
0003
,
1000
0001
0010
0000
,
1000
0010
1000
0000
,
0001
1000
0010
0000
,
0100
0010
1000
0000
,
0100
0001
1000
0000
,
0001
1000
0001
0000
,
1000
0010
0100
0000
,
0001
1000
0010
0000
,
1000
0001
0010
0000
,
0100
0010
1000
0000
,
0001
1000
0100
0000
,
1000
0001
0010
0000
,
0001
0010
0100
0000
,
1000
0001
0010
0000
,
0100
0010
1000
0000
,
0010
0001
0010
0000
,
0100
1000
0001
0000
,
0100
0010
1000
0000
,
0001
1000
0010
0000
,
0100
0001
0010
0000
,
0100
0010
1000
0000
,
0001
1000
0100
0000
,
0010
0001
1000
0000
,
0100
0010
0001
0000
,
0010
1000
0100
0000
,
0001
0010
0100
0000
,
1000
0001
0010
0000
,
0100
1000
0001
0000
,
0100
0010
1000
0000
,
0010
1000
0010
0000
,
0100
0001
0100
0000
,
0001
1000
0001
0000
,
1000
0010
0100
0000
,
0001
1000
0010
0000
,
0100
0001
0010
0000
,
0100
0010
1000
0000
,
0001
1000
0010
0000
,
0100
0001
0010
0000
,
0001
0010
0001
0000
,
0100
1000
0010
0000
,
0001
0010
0100
0000
,
1000
0001
1000
0000
,
0010
1000
0010
0000
,
0100
0001
0100
0000
,
0001
1000
0001
0000
,
0100
0010
0100
0000
;
