#TITLE:Don't Look At Me;
#ARTIST:Stacie Orrico;
#BANNER:Don't Look At Me - Stacie Orrico.png;
#BACKGROUND:Don't Look At Me - Stacie Orrico-bg.png;
#LYRICSPATH:Don't Look At Me - Stacie Orrico.lrc;
#CDTITLE:.\CDTITLES\DP2STACIE.png;
#MUSIC:Don't Look At Me - Stacie Orrico.mp3;
#OFFSET:-2.067;
#SAMPLESTART:56.64;
#SAMPLELENGTH:12;
#BPMS:0=99.45;

//---------------dance-single - ----------------
#NOTES:
     dance-single:
     :
     Challenge:
     7:
     0.366,0.323,0.269,0.156,0.021:
0000
0000
0000
0000
,
0000
0000
0000
0000
,
1010
0000
0101
0000
1000
0000
0001
0010
,
0100
0100
0100
0000
1000
0001
0100
0010
,
2000
3000
0001
1100
,
0011
1000
0100
0000
1000
0001
0100
0000
,
1001
0100
1001
0010
,
1000
1000
1000
0000
0001
0010
0100
1000
,
0002
0100
1000
0103
,
1000
0001
0100
1000
0100
0001
1000
0000
,
0110
0000
1001
0000
0010
0100
0000
0001
,
1100
0000
0110
0000
0000
0001
1000
0010
,
0100
0000
1001
0000
0000
0100
0001
1000
,
0101
0000
0010
0000
1000
0100
0010
0001
,
2000
3002
0203
0302
,
1003
0000
0110
0000
0000
0100
1000
0001
,
0100
0000
1010
0000
0000
0100
0001
1000
,
0011
0000
0100
0000
0001
0010
0100
1000
,
0020
0230
0302
2003
,
3001
0000
0010
0000
1000
0100
0001
0000
,
0010
0000
1000
0000
0100
0001
0010
0000
,
0100
1100
0011
1001
,
0010
0100
0001
0100
0010
0010
0010
1000
,
0101
0000
1010
0000
0001
0000
1000
0100
,
0010
0010
0010
0000
0001
1000
0010
0100
,
0002
0003
1000
0011
,
1100
0001
0010
0000
0001
1000
0010
0000
,
1001
0010
1001
0100
,
0001
0001
0001
0000
1000
0100
0010
0001
,
2000
0010
0001
3010
,
0001
1000
0010
0001
0010
1000
0001
0000
,
1000
0000
1000
0000
1000
0010
0100
0001
,
0020
0230
0320
0130
,
1001
0000
0100
0000
0001
1000
0010
1000
,
0001
0000
0100
0000
0010
0100
0001
1000
,
0100
0000
0010
0000
0100
1000
0001
0100
,
2001
3010
1002
0013
,
1000
0000
0010
0000
0100
0001
1000
0001
,
0100
0000
0010
0000
1000
0000
0000
0000
0110
0000
0000
0010
0000
0000
1001
0000
,
0100
0000
0010
0000
0100
0001
1000
0100
,
1002
0103
2001
3100
,
0010
0100
1000
0100
0010
0100
0001
0000
,
1000
0010
0100
0010
0001
0010
0100
0000
,
0011
1010
1100
0101
,
1000
1000
0001
0001
1000
0001
0010
0100
,
0000
0100
0100
0100
1001
0000
0110
0000
,
1000
0010
0100
0001
1000
1000
1000
0000
,
0001
1000
0100
0010
0002
0000
1003
0000
,
0010
0000
0001
0000
0100
0000
0000
0000
0010
0000
0000
1000
0100
0000
0000
0010
,
0001
1000
0010
0100
0100
0000
0001
0000
,
0010
0001
1000
0001
0010
0001
0100
0000
,
0010
1000
0001
0000
0200
0000
0001
0000
,
0010
0000
1300
0000
0010
1000
0001
0010
,
0100
0000
0000
1001
0000
0000
0000
0000
0001
0000
0100
0001
0100
0000
0010
0000
,
1000
0000
0001
0000
0100
0000
0000
0000
1000
0000
0001
1000
0001
0000
0010
0000
,
0100
1000
0001
0000
2000
0000
0000
0000
,
0000
0000
0000
0000
,
3000
0000
0000
0000
;

//---------------dance-single - ----------------
#NOTES:
     dance-single:
     :
     Easy:
     1:
     0.125,0.159,0.099,0,0:
0000
0000
0000
0000
,
0001
0000
0000
0000
,
1100
0000
0001
0000
,
1000
0000
0001
0000
,
0110
0000
1000
0000
,
0001
0000
1000
0000
,
0010
0000
1000
0000
,
0001
0000
0010
0000
,
1010
0000
0100
0000
,
0001
0000
1100
0000
,
0011
0000
0000
0000
,
1000
0000
0001
0000
,
0010
0000
0100
0000
,
1000
0000
0001
0000
,
0010
0000
1000
0000
,
0001
0000
1000
0000
,
0010
0000
0001
0000
,
1000
0000
0001
0000
,
0010
0000
1000
0000
,
0001
0000
1000
0000
,
0010
0000
0100
0000
,
1000
0000
0001
0000
,
0010
0000
0100
0000
,
0011
0000
1000
0000
,
0010
0000
0001
0000
,
1100
0000
0001
0000
,
0010
0000
0100
0000
,
1000
0000
0100
0000
,
0010
0000
0100
0000
,
0101
0000
0100
0000
,
1000
0000
0110
0000
,
1001
0000
0100
0000
,
0010
0000
0001
0000
,
1000
0000
0001
0000
,
0010
0000
1000
0000
,
0001
0000
0100
0000
,
1000
0000
0001
0000
,
0010
0000
0001
0000
,
1000
0000
0010
0000
,
0001
0000
0100
0000
,
1000
0000
0001
0000
,
0010
0000
0100
0000
,
1000
0000
0001
0000
,
0001
0000
1000
0000
,
0010
0000
0100
0000
,
1000
0000
0011
0000
,
1000
0000
0001
0000
,
1000
0000
1010
0000
,
0001
0000
0100
0000
,
0001
0000
0010
0000
,
1000
0000
0001
0000
,
0010
0000
1010
0000
,
0100
0000
0001
0000
,
0011
0000
1000
0000
,
0100
0000
0001
0000
,
0100
0000
0010
0000
,
1000
0000
0000
0000
;

//---------------dance-single - ----------------
#NOTES:
     dance-single:
     :
     Hard:
     6:
     0.359,0.340,0.099,0.014,0:
0000
0000
0001
0000
,
0001
0000
1000
0000
0010
1000
0001
0010
,
1100
0000
0010
1000
0001
1000
0010
0001
,
1000
0000
0100
0000
0001
0010
1000
0001
,
0110
0000
0001
0010
1000
0001
0010
1000
,
0100
0000
0001
0000
1000
0010
0001
1000
,
0010
0000
0100
0001
1000
0001
0010
1000
,
0001
0000
1000
0000
0010
1000
0100
0001
,
1010
0001
0100
1000
,
0001
1000
0010
0001
1100
0000
1000
0100
,
0011
1000
0000
0001
,
1000
0001
0010
1000
0001
0010
1000
0000
,
0010
1000
0001
0010
0100
1000
0001
0000
,
1000
0001
0010
1000
0001
0010
0100
1000
,
0010
0001
1000
0010
,
0001
1000
0100
0001
1000
0010
0001
1000
,
0010
0001
1000
0010
0001
1000
0020
0000
,
0030
0000
1000
0010
0001
1000
0100
1000
,
0010
0001
1000
0010
,
0001
0100
1000
0001
,
0010
0000
1000
0001
0100
0010
0001
0000
,
1000
0010
0001
0100
,
0010
1000
0010
1000
0100
0001
1000
0100
,
0011
0000
0100
0001
1000
0010
0001
1000
,
0010
0000
1000
0000
0001
1000
0010
0001
,
1100
0000
0010
1000
0001
0010
1000
0001
,
0100
0000
0001
0000
0100
1000
0001
0010
,
1000
0010
0001
1000
0100
1000
0001
1000
,
0010
0000
1000
0000
0100
1000
0010
1000
,
0101
0010
0100
0001
,
1000
0010
0001
1000
0110
0000
0010
0100
,
1001
0010
0100
1000
,
0010
0000
1000
0000
0001
0200
0000
0300
,
1000
0000
0100
1000
0001
0010
1000
0000
,
0010
1000
0001
0010
1000
0001
0010
0000
,
0001
0010
1000
0001
0100
0010
0001
0010
,
1000
0010
0001
1000
,
0010
1000
0010
1000
0001
1000
0100
0000
,
1000
0010
0001
1000
0010
0000
0100
0000
,
0001
1000
0010
1000
0100
1000
0001
0010
,
1000
0010
0001
1000
,
0010
0000
0001
0000
0100
0000
0001
0010
,
1000
0001
0010
1000
0001
0010
0100
1000
,
0001
0010
1000
0001
,
0010
1000
0010
1000
0100
0000
0001
0000
,
1000
0001
0100
1000
0011
0000
0100
0001
,
1000
0001
0010
1000
0001
0000
0100
0000
,
1000
0010
0001
0100
1010
0000
0100
1000
,
0001
1000
0010
0000
0100
0000
1000
0000
,
0001
0010
1000
0001
0010
0000
0100
0001
,
1000
0001
0010
1000
0001
0000
0100
0000
,
0010
1000
0100
0001
1010
0000
0001
0000
,
0100
0000
0010
0000
0001
0010
1000
0100
,
0011
0000
0100
0000
1000
0010
0001
0010
,
0100
1000
0010
1000
0001
0000
0001
0010
,
0100
0001
1000
0100
0010
0000
0001
0010
,
1000
0010
0001
0000
0010
0000
0000
0000
;

//---------------dance-single - ----------------
#NOTES:
     dance-single:
     :
     Medium:
     4:
     0.236,0.220,0.099,0.007,0:
0000
0000
0000
0000
,
0001
0000
0010
0000
,
1100
0010
0001
0010
,
1000
0100
0001
1000
,
0110
0001
1000
0010
,
0100
0001
1000
0001
,
0010
0100
1000
0010
,
0001
1000
0010
0100
,
1010
0001
0100
1000
,
0001
0010
1100
0000
,
0011
1000
0000
0001
,
1000
0010
0001
1000
,
0010
0001
0100
0001
,
1000
0010
0001
0100
,
0010
0001
1000
0010
,
0001
0100
1000
0001
,
0010
1000
0001
0020
,
0030
1000
0001
0100
,
0010
0001
1000
0010
,
0001
0100
1000
0001
,
0010
1000
0100
0001
,
1000
0010
0001
0100
,
0010
0010
0100
1000
,
0011
0100
1000
0001
,
0010
1000
0001
0010
,
1100
0010
0001
1000
,
0010
0001
0100
0001
,
1000
0001
0100
0001
,
0010
1000
0100
0010
,
0101
0010
0100
0001
,
1000
0001
0110
0010
,
1001
0010
0100
1000
,
0010
1000
0001
0010
,
1000
0100
0001
1000
,
0010
0001
1000
0010
,
0001
1000
0100
0001
,
1000
0010
0001
1000
,
0010
0010
0001
0100
,
1000
0001
0010
0100
,
0001
0010
0100
0001
,
1000
0010
0001
1000
,
0010
0001
0100
0001
,
1000
0010
0001
0100
,
0001
0010
1000
0001
,
0010
0010
0100
0001
,
1000
0100
0011
0100
,
1000
0010
0001
0100
,
1000
0001
1010
0100
,
0001
0010
0100
1000
,
0001
1000
0010
0100
,
1000
0010
0001
0100
,
0010
0100
1010
0001
,
0100
0010
0001
1000
,
0011
0100
1000
0001
,
0100
0010
0001
0001
,
0100
1000
0010
0001
,
1000
0001
0010
0000
;
