#TITLE:Don't Give Up;
#ARTIST:Sanctus Real;
#BANNER:Don't Give Up - Sanctus Real.png;
#BACKGROUND:Don't Give Up - Sanctus Real-bg.png;
#LYRICSPATH:Don't Give Up - Sanctus Real.lrc;
#CDTITLE:.\CDTITLES\DP2SAN.png;
#MUSIC:Don't Give Up - Sanctus Real.mp3;
#OFFSET:-2.418;
#SAMPLESTART:56.2;
#SAMPLELENGTH:12;
#BPMS:0=120;
#BGCHANGES:12=Don't Give Up - Sanctus Real.AVI=1=1=1=0,999=-=1=0=0=0;

//---------------dance-single - ----------------
#NOTES:
     dance-single:
     :
     Easy:
     2:
     0.152,0.220,0.066,0.044,0:
0000
0000
0010
0000
0000
0000
0000
1000
,
0000
0000
0000
0000
0000
0000
0000
0001
,
0000
0000
0000
0000
0000
1000
0000
0000
,
0001
0000
0001
0000
,
1000
0000
0001
0000
,
1000
0000
0100
0000
,
0010
0000
0100
0000
,
0010
0000
0001
0000
,
1000
0000
0001
0000
,
0010
0000
0001
0000
,
1000
0000
0100
0000
,
0001
0000
1000
0000
,
0010
0000
0001
0000
,
1000
0000
0001
0000
,
0010
0000
1000
0000
,
0001
0000
1000
0000
,
0010
0000
0100
0000
,
1000
0000
0100
0000
,
0001
0000
1000
0000
,
0010
0000
0100
0000
,
1000
0000
0100
0000
,
0001
0000
0100
0000
,
0010
0000
0100
0000
,
1000
0000
0001
0000
,
0010
0000
0001
0000
,
2000
0000
0000
0000
,
0000
3000
0000
0000
0000
0000
0000
0000
,
0110
0000
0000
0011
0000
0000
1100
0000
,
0000
0000
0000
0000
0020
0000
0000
0030
,
0001
0000
0010
0000
,
1000
0000
0100
0000
,
0011
0000
0000
1100
0000
0000
0101
0000
,
0000
0000
0000
0000
0200
0000
0000
0300
,
0001
0000
1000
0000
,
0010
0000
0001
0000
,
1000
0000
0100
0000
,
0001
0000
1000
0000
,
0010
0000
0100
0000
,
1000
0000
0010
0000
,
0002
0000
0000
0000
0203
0000
0000
2300
,
0000
3000
0100
0000
,
0001
0000
0010
0000
,
1000
0000
0001
0000
,
0010
0000
1000
0000
,
0001
0000
0010
0000
,
1000
0000
0100
0000
,
0010
0000
1000
0000
,
0001
0000
1000
0000
,
0010
0000
0100
0000
,
0001
0000
0100
0000
,
1000
0000
0001
0000
,
0010
0000
0100
0000
,
0001
0000
1000
0000
,
0010
0000
0001
0000
,
1000
0000
0010
0000
,
0001
0000
0100
0000
,
0010
0000
0100
0000
,
1000
0000
0010
0000
,
0001
0000
0100
0000
,
1000
0000
0001
0000
,
0010
0000
0100
0000
,
0001
0000
0100
0000
,
1000
0000
0001
0000
,
1010
0000
0000
0101
0000
0000
1100
0000
,
0001
0000
1000
0000
,
0010
0000
0100
0000
,
1000
0000
0010
0000
;

//---------------dance-single - ----------------
#NOTES:
     dance-single:
     :
     Challenge:
     7:
     0.411,0.388,0.213,0.103,0.026:
0000
0000
0000
0000
,
0000
0000
0000
0000
,
0000
0000
0000
0000
,
1000
0010
1000
0001
1000
0000
0110
0000
,
0001
0010
0001
1000
0001
0000
0110
0000
,
2000
0001
0000
0010
,
0000
0001
0000
3010
,
0100
0001
0100
0010
0100
0000
1001
0000
,
0010
1000
0010
0100
0010
0000
1001
0000
,
0020
0100
0000
0130
,
1000
0000
0001
0000
0010
0100
1000
0000
,
0001
0100
0010
0100
0000
0001
1000
0000
,
0100
0000
1100
0000
0010
0001
0100
0010
,
0100
0001
1000
0000
0100
1000
0001
0000
,
1000
1000
0010
0101
,
1000
0100
1000
0000
0001
0100
0001
0000
,
1000
0100
0010
0100
1000
0001
0100
0000
,
1000
0100
0001
0000
0100
0000
1001
0000
,
0010
0000
1100
0000
0001
0000
1000
0001
,
0100
0000
0100
0000
0100
0001
0000
0000
0010
0000
0010
0000
0010
0001
0000
0000
,
0100
0000
0010
0000
0100
0010
0000
0000
1000
0000
0001
0000
1000
0010
0000
0000
,
0100
0001
1000
0000
0100
0010
0000
0100
,
1000
0100
1000
0000
0100
0010
0001
0000
,
0100
0000
0100
0000
0100
0010
0000
0000
0010
0000
1000
0000
0001
0100
0000
0000
,
1000
0100
0010
0100
0000
0001
1000
0000
,
2002
0000
0000
3003
,
0000
1000
0001
1000
0010
0100
0001
0100
,
0010
1000
0001
1000
0000
0010
0100
0000
,
0001
1000
0100
0000
1001
0000
1001
0000
,
0100
0001
0100
0001
1000
0010
0100
0000
,
0001
1000
0001
1000
0001
0000
1000
0000
,
0100
0010
0100
0001
0000
1000
0100
0000
,
0010
0001
1000
0000
0110
0000
0110
0000
,
1000
0010
1000
0010
0100
0001
1000
0000
,
0100
0010
0001
0100
0000
0100
0000
0010
,
1002
0000
0100
0000
1000
0003
0100
0000
,
0010
1000
0010
0100
0001
0010
0100
0000
,
1001
0000
0010
1000
0000
0100
0001
0000
,
2000
3010
0002
0103
,
1010
0000
0000
0011
0000
0000
2002
0000
,
3003
0010
1100
1100
,
0010
0100
1000
0001
0100
0010
0001
1000
,
0010
0100
1000
0001
0200
0000
0310
0000
,
1000
0000
0010
0000
1000
0100
0000
0000
0010
0000
0001
0000
0100
0000
0000
0000
,
0001
0100
0010
0000
1000
0001
0110
0000
,
1000
0100
1000
0100
0001
0100
0001
0100
,
2000
3001
0002
1003
,
0100
0000
0010
1000
0100
0000
0010
0001
,
1000
0100
0010
0100
0000
1000
0010
0100
,
0001
1000
0010
0101
,
1000
0100
0001
0000
0110
0000
1100
0000
,
0010
0001
0100
0010
1000
0000
0010
0100
,
0000
0001
0000
1000
0001
0010
0001
1000
,
0000
0100
0000
0010
0000
0100
0001
1000
,
0100
0010
1001
0011
,
0100
1000
0001
0000
0100
0010
0100
0001
,
1000
0010
1000
0100
0000
0010
0000
0010
,
0001
1000
0001
0100
0000
0010
0000
0010
,
1000
0100
1000
0001
0000
1000
0000
0001
,
0010
0100
0000
0001
0000
0100
1000
0010
,
0100
0001
0000
1000
0000
0010
0000
1001
,
0100
0010
0100
0010
0100
1000
0100
0001
,
0100
1000
0010
0100
0001
1000
0100
0000
,
0010
0000
0001
0100
0000
1000
0100
0000
,
0000
1001
0000
0000
0110
0000
0002
0000
,
2000
0000
0000
0000
,
3003
0000
0000
0000
;

//---------------dance-single - ----------------
#NOTES:
     dance-single:
     :
     Hard:
     7:
     0.345,0.391,0.037,0.051,0:
0000
0000
1000
0000
0000
0010
0000
1000
,
0000
0000
0001
0000
0000
1000
0000
0001
,
0000
1000
0000
0000
,
0001
0010
1000
0001
0010
0000
0001
0100
,
0010
0000
0001
1000
0001
0010
0001
0000
,
1000
0000
0010
0000
0100
0000
0010
1000
,
0100
0000
0010
1000
0100
0000
1000
0001
,
0010
0000
1000
0010
0001
0000
0010
0001
,
1000
0010
0001
1000
0001
0000
0010
1000
,
0010
1000
0001
1000
0001
0000
1000
0001
,
1000
0001
0100
0001
0100
0000
0001
1000
,
0001
0010
1000
0001
1000
0001
0010
1000
,
0010
0001
1000
0010
0001
1000
0010
0000
,
1000
0001
0010
1000
0001
0000
1000
0000
,
0010
0001
1000
0010
,
0001
0000
0100
0001
1000
0010
0001
0000
,
0010
0000
1000
0000
0100
0000
0001
0010
,
1000
0001
0100
0010
,
0001
0100
1000
0001
,
0020
0000
0000
0030
0100
1000
0001
0000
,
1000
0001
0100
1000
,
0001
0010
0100
1000
,
0010
0001
0100
0001
,
1000
0010
0001
1000
,
0010
0001
1000
0000
0001
0000
0010
0000
,
2000
0000
0000
0000
0000
0000
0000
3000
,
0000
0001
0001
0001
0001
0010
0100
1000
,
0001
0010
0100
1000
0001
0010
1100
0000
,
1000
0000
0001
0000
0020
0000
0000
0030
,
0001
0010
1000
0001
0010
1000
0001
0000
,
1000
0001
0100
1000
,
0011
0000
1000
0100
0001
0000
0101
0000
,
0010
0000
0000
0000
0200
0000
0000
0300
,
0001
0010
1000
0010
0001
1000
0010
0100
,
0010
1000
0001
0010
,
1000
0001
0100
0010
,
0001
0000
0100
0001
1000
0000
0001
0000
,
0010
1000
0100
0001
,
1000
0000
0001
1000
0010
0000
1000
0000
,
0002
0000
0000
0000
0203
0000
0000
2300
,
0000
0000
0000
3000
0001
0100
0001
1000
,
0010
0001
0000
0100
0010
0000
0001
0000
,
1000
0000
0010
1000
0001
0000
1000
0000
,
0010
0001
1000
0010
,
0001
1000
0010
0100
,
1000
0001
0100
0001
,
0010
0100
1000
0010
,
0001
0000
0100
0001
1000
0010
0001
0000
,
0010
0000
0001
0000
0100
0000
0010
1000
,
0001
0010
1000
0000
0100
0000
0001
0000
,
1000
0010
0001
0100
,
0010
0000
0001
0010
0100
1000
0010
0000
,
0001
0100
1000
0001
,
0010
1000
0001
0010
,
1000
0001
0010
1000
,
0001
0010
0100
1000
,
0010
0001
0100
0001
,
1000
0001
0010
1000
,
0001
0000
0010
0000
0100
0000
0001
0010
,
1000
0010
0001
1000
,
0010
0001
0100
1000
,
0001
0010
0100
0001
,
1000
0010
0001
0100
,
1010
0000
0001
0100
0001
0010
1100
0000
,
0001
0010
1000
0100
,
0010
1000
0001
0010
0100
0001
0010
0000
,
1000
0001
0010
0000
;

//---------------dance-single - ----------------
#NOTES:
     dance-single:
     :
     Medium:
     4:
     0.276,0.269,0.066,0.051,0:
0000
0000
0010
0000
0000
0001
0000
1000
,
0000
0000
0001
0000
0000
1000
0000
0001
,
0000
0000
1000
0000
0000
0001
0000
0000
,
1000
0001
1000
0001
,
1000
0001
1000
0001
,
1000
0010
0100
0010
,
0100
0010
0100
1000
,
0010
1000
0001
0010
,
1000
0001
0001
0010
,
0010
0001
0001
1000
,
1000
0100
0100
0001
,
0001
1000
1000
0010
,
0010
1000
0001
0010
,
1000
0010
0001
1000
,
0010
0001
1000
0010
,
0001
0100
1000
0001
,
0010
1000
0100
0001
,
1000
0001
0100
0010
,
0001
0100
1000
0001
,
0020
0000
0000
0030
0100
0000
0001
0000
,
1000
0001
0100
1000
,
0001
0010
0100
1000
,
0010
0001
0100
0001
,
1000
0010
0001
1000
,
0010
1000
0001
0010
,
2000
0000
0000
0000
,
0000
3000
0000
0001
0000
0000
1000
0000
,
0110
0000
0000
0011
0000
0000
1100
0000
,
1000
0000
0000
0000
0020
0000
0000
0030
,
0001
1000
0010
0001
,
1000
0001
0100
1000
,
0011
0000
0000
1100
0000
0000
0101
0000
,
0010
0000
0000
0000
0200
0000
0000
0300
,
0001
0010
1000
0100
,
0010
1000
0001
0010
,
1000
0001
0100
0010
,
0001
0100
1000
0001
,
0010
1000
0100
0001
,
1000
0001
0010
1000
,
0002
0000
0000
0000
0203
0000
0000
2300
,
0000
3000
0100
1000
,
0001
0100
0010
0001
,
1000
0010
0001
1000
,
0010
0001
1000
0010
,
0001
1000
0010
0100
,
1000
0001
0100
0001
,
0010
0100
1000
0010
,
0001
0100
1000
0001
,
0010
0001
0100
0010
,
0001
1000
0100
0001
,
1000
0010
0001
0100
,
0010
0001
0100
0010
,
0001
0100
1000
0001
,
0010
1000
0001
0010
,
1000
0001
0010
1000
,
0001
0010
0100
1000
,
0010
0001
0100
0001
,
1000
0001
0010
1000
,
0001
0010
0100
0001
,
1000
0010
0001
1000
,
0010
0001
0100
1000
,
0001
0010
0100
0001
,
1000
0010
0001
0100
,
1010
0000
0000
0101
0000
0000
1100
0000
,
0001
0010
1000
0100
,
0010
0001
0100
0010
,
1000
0001
0010
0000
;
