#TITLE:Can't Go On;
#ARTIST:Group 1 Crew;
#BANNER:Can't Go On - Group 1 Crew.PNG;
#BACKGROUND:Can't Go On - Group 1 Crew-bg.PNG;
#LYRICSPATH:Can't Go On - Group 1 Crew.lrc;
#CDTITLE:.\CDTITLES\DP2G1.png;
#MUSIC:Can't Go On - Group 1 Crew.mp3;
#OFFSET:-3.536;
#SAMPLESTART:45.9;
#SAMPLELENGTH:12;
#BPMS:0=85;
#BGCHANGES:0=Can't Go On - Group 1 Crew.AVI=1=1=1=0,999=-=1=0=0=0;

//---------------dance-single - ----------------
#NOTES:
     dance-single:
     :
     Easy:
     1:
     0.095,0.085,0.008,0,0:
0000
0010
0000
1000
,
0000
0010
0000
0001
,
0000
1000
0000
0010
,
0000
0001
0000
0100
,
0000
0010
0000
0100
,
0000
0010
0000
0100
,
0000
1000
0000
0001
,
0000
1000
0000
0001
,
0000
0010
0000
0100
,
0000
0010
0000
0100
,
0000
1000
0000
0001
,
0000
0001
0000
0010
,
0000
0010
0000
1000
,
0000
1000
0000
0001
,
0000
0001
0000
0010
,
0000
0010
0000
0001
,
0000
1000
0000
0001
,
0000
1000
0000
0001
,
0000
0001
0000
1000
,
0000
0001
0000
1000
,
0000
0010
0000
0100
,
0000
1000
0000
0001
,
0000
0010
0000
0100
,
0000
0001
0000
0000
0000
1000
0000
0000
,
0000
0010
0000
0000
0000
0001
0000
1000
,
0000
0000
0000
0001
0000
0000
0000
0010
,
0000
0000
0000
1000
0000
0000
0000
0001
,
0000
0000
0000
1000
0000
0000
0000
0010
,
0000
0000
0000
0001
0000
0000
0000
1000
,
0000
0000
0000
1000
0000
0000
0000
0010
,
0000
0000
0000
1000
0000
0000
0000
0001
,
0000
0000
0000
0000
,
1000
0000
0000
0000
,
0001
0000
0000
0000
,
1000
0000
0000
0000
,
0011
0000
1000
0000
,
0001
0000
0100
0000
,
0010
0000
0100
0000
,
0010
0000
0001
0000
,
1000
0000
0001
0000
,
1000
0000
0001
0000
,
0001
0000
1000
0000
,
0001
0000
0010
0000
;

//---------------dance-single - ----------------
#NOTES:
     dance-single:
     :
     Challenge:
     7:
     0.276,0.302,0.208,0.008,0.104:
0000
0000
0000
0000
,
0002
1000
0000
1000
,
0000
1000
0000
1003
,
0100
1000
0000
0000
0100
0001
0000
0000
,
0100
1000
0000
0000
0100
0000
0010
0000
,
0001
0010
0000
0000
1000
0010
0000
0000
,
0001
0010
0000
0000
1000
0000
0001
0000
,
1000
0010
0100
0000
0001
0010
0100
0000
,
1000
0010
0100
0001
0010
0100
1000
0000
,
0001
0100
0010
0000
1000
0100
0010
0000
,
0001
0100
0010
1000
0100
0010
0001
0000
,
1000
0000
0000
0000
0010
0000
0000
0000
1000
0000
0001
1000
0000
0001
0000
0000
,
0010
0100
0010
0100
1000
0001
0010
0100
,
1000
0000
0001
0000
0100
0010
1000
0010
,
0100
0001
1000
0000
,
0011
0000
0101
0000
0010
0001
0100
0000
,
1010
0000
0101
0000
1000
0010
0100
0000
,
1001
0000
1100
0000
0010
0001
0100
0000
,
0010
0001
1000
0000
,
1010
0000
1100
0000
0100
0010
0001
0000
,
0110
0000
1001
0000
0010
1000
0001
0000
,
1010
0000
0101
0000
0010
1000
0100
0000
,
0010
1000
0001
0100
,
0000
1000
0001
1000
0001
1000
0001
0000
0000
0010
0100
0010
0100
0010
0100
0000
,
0000
1000
0000
1000
0000
0001
1000
0001
,
0100
0000
0000
0000
0001
0000
0000
0000
1000
0010
0100
0010
1000
0000
0001
0000
,
0100
0000
0000
0000
1000
0000
0000
0000
0001
0010
0100
0010
0001
0000
0100
0000
,
1000
0010
0100
0000
0001
0010
0100
0000
,
1000
0010
0100
0001
0010
0100
1000
0000
,
0001
0000
0100
0000
0010
0000
1000
0000
0100
0010
0100
0010
0100
0000
1000
0000
,
0001
0000
0110
0000
0001
0000
0110
0000
0001
0000
0110
0000
0001
1000
0010
0100
,
0000
0000
0000
0000
,
0100
0000
0000
0000
,
0100
0000
0000
0000
,
0010
0000
0000
0000
,
1000
0000
0001
0000
0000
1001
0000
0000
0001
0000
1000
0000
0000
1001
0000
0000
,
1000
0000
0010
0000
0000
0110
0000
0000
0001
0000
0000
0000
1000
0000
0000
0000
,
0001
0000
0100
0000
0000
1001
0000
0000
1000
0000
0100
0000
0000
1001
0000
0000
,
0001
0000
0010
0000
0000
0011
0000
0000
1000
0000
0000
0000
0001
0000
0000
0000
,
0100
0000
0010
0000
0000
0000
0000
0000
0100
0000
0010
0000
0000
1001
0000
0000
,
0100
0000
1000
0000
0000
0000
0000
0000
0010
0000
0001
0000
0000
0110
0000
0000
,
1000
0000
0100
0000
0000
1100
0000
0000
0001
0000
0100
0000
0000
0101
0000
0000
,
1001
0000
0000
0000
;

//---------------dance-single - ----------------
#NOTES:
     dance-single:
     :
     Medium:
     4:
     0.200,0.205,0.072,0.016,0:
0000
1100
0010
0101
,
0010
1100
0001
0110
,
1000
0011
0100
1010
,
0100
0001
0010
0100
,
1000
0010
0001
0100
,
0001
0010
0001
0100
,
0010
1000
0100
0001
,
0010
1000
0001
0001
,
1000
0010
0001
0100
,
0001
0010
1000
0100
,
0010
1000
0010
0001
,
1000
0001
1000
0010
,
1000
0010
0001
1000
,
0001
1000
0010
0001
,
1000
0001
1000
0010
,
1100
0011
0100
0000
1000
0000
0001
0000
,
0010
1000
0010
0001
,
0100
1000
0010
0001
,
1000
0001
0010
1000
,
0100
0001
0010
1000
,
0001
0010
1000
0100
,
0001
1000
0010
0001
,
1000
0010
1000
0100
,
1000
0001
0000
0010
0000
1000
0000
0001
,
0000
0010
0000
1000
0000
0001
0000
0010
,
0000
1000
0000
0010
0000
0001
0000
1000
,
0000
0010
0000
0001
0000
1000
0000
0010
,
0000
0001
0000
0100
0000
1000
0000
0001
,
0000
0010
0000
0100
0000
0001
0000
0010
,
0000
1000
0000
0001
0000
1000
0000
0001
,
0000
0010
0000
0100
0000
1000
0000
0100
,
0000
0001
0000
0000
0000
0000
0001
0000
,
1000
0000
0000
1000
,
0001
0000
0000
0001
,
1000
0000
0000
0000
,
0011
0100
1000
0010
,
0001
0010
0100
2000
,
0010
3000
0001
0000
0100
0000
1000
0000
,
0001
0010
0100
1000
,
1000
0010
0001
0100
,
1000
0010
0001
2000
,
3001
0100
1000
0010
,
0001
0010
0010
0100
;

//---------------dance-single - ----------------
#NOTES:
     dance-single:
     :
     Hard:
     6:
     0.343,0.290,0.072,0.016,0:
0000
0000
1100
0000
0010
1000
0101
0000
,
0010
0001
1100
0000
0001
1000
0110
0000
,
1000
0100
0011
0000
0100
0001
1010
0000
,
0100
0010
0001
0000
0010
1000
0100
0000
,
1000
0001
0010
0000
0001
0010
0100
0000
,
0001
1000
0010
0000
0001
0010
0100
0000
,
0010
0001
1000
0000
0100
1000
0001
0000
,
0010
0001
1000
0000
0001
1000
0001
0000
,
1000
0001
0010
0000
0001
0010
0100
0000
,
0001
1000
0010
0000
1000
0001
0100
0000
,
0010
0001
1000
0000
0010
1000
0001
0000
,
1000
0010
0001
0000
1000
0001
0010
0000
,
1000
0001
0010
0000
0001
0010
1000
0000
,
0001
0100
1000
0001
0010
1000
0001
0010
,
1000
0010
0001
0010
1000
0001
0010
0000
,
1100
0011
0100
0000
1000
0010
0001
0000
,
0010
0001
1000
0000
0010
1000
0001
0000
,
0100
0001
1000
0000
0010
1000
0001
0000
,
1000
0010
0001
0000
0010
0001
1000
0000
,
0100
1000
0001
0000
0010
0001
1000
0000
,
0001
1000
0010
0000
1000
0001
0100
0000
,
0001
0010
1000
0000
0010
1000
0001
0000
,
1000
0001
0010
0000
1000
0001
0100
0000
,
1000
0001
1000
0010
0000
1000
0010
0001
,
0000
0010
0001
1000
0010
0001
1000
0010
,
0000
1000
0001
0010
1000
0001
0010
1000
,
0001
0010
1000
0001
0010
1000
0001
0010
,
0000
0001
1000
0100
0001
1000
0010
0001
,
1000
0010
1000
0100
1000
0001
1000
0010
,
0000
1000
0010
0001
0010
1000
0100
0001
,
1000
0010
0001
0100
0001
1000
0001
0100
,
1000
0001
1000
0001
0000
0010
0001
0010
,
1000
0001
1000
0001
0010
0100
1000
0010
,
0001
1000
0001
1000
0001
1000
0001
0010
,
1000
0001
1000
0001
1000
0010
0100
1000
,
0011
0000
0100
0001
1000
0001
0010
1000
,
0001
1000
0010
0001
0100
0001
2000
0000
,
3010
1000
0001
0010
0100
0001
1000
0010
,
0001
1000
0010
0001
0100
0001
1000
0001
,
1000
0001
0010
1000
0001
0010
0100
0001
,
1000
0001
0010
1000
0001
0010
2000
0000
,
3001
0010
0100
0001
1000
0001
0010
1000
,
0001
1000
0010
1000
0010
1000
0100
0000
;
