#TITLE:Broken;
#ARTIST:12 Stones;
#BANNER:Broken - 12 Stones.png;
#BACKGROUND:Broken - 12 Stones-bg.png;
#LYRICSPATH:Broken - 12 Stones.lrc;
#CDTITLE:.\CDTITLES\DP212.png;
#MUSIC:Broken - 12 Stones.mp3;
#OFFSET:-1.201;
#SAMPLESTART:36.3;
#SAMPLELENGTH:12;
#BPMS:0=96.91;
#BGCHANGES:0=Broken - 12 Stones.AVI=1=1=1=0,999=-=1=0=0=0;

//---------------dance-single - ----------------
#NOTES:
     dance-single:
     :
     Easy:
     1:
     0.120,0.139,0.059,0.015,0:
0000
0000
0000
0000
,
0001
0000
0000
0000
,
1000
0000
0010
0000
,
0001
0000
0010
0000
,
1000
0000
0010
0000
,
0001
0000
1000
0000
,
0001
0000
0100
0000
,
1000
0000
0001
0000
,
1000
0000
0001
0000
,
0010
0000
1000
0000
,
0010
0000
0001
0000
,
1000
0000
0001
0000
,
0010
0000
1000
0000
,
0001
0000
1000
0000
,
0010
0000
0001
0000
,
1000
0000
0100
0000
,
0011
0000
1000
0000
,
0001
0000
0010
0000
,
0101
0000
1000
0000
,
0010
0000
1000
0000
,
0011
0000
0100
0000
,
1000
0000
0001
0000
,
1100
0000
0010
0000
,
0002
0000
0000
0003
,
1000
0000
0010
0000
,
0001
0000
0100
0000
,
1000
0000
0001
0000
,
0010
0000
0001
0000
,
1000
0000
0001
0000
,
0010
0000
0001
0000
,
1000
0000
0001
0000
,
0010
0000
0100
0000
,
1001
0000
0100
0000
,
0010
0000
1000
0000
,
0101
0000
1000
0000
,
0010
0000
0001
0000
,
1100
0000
0010
0000
,
0001
0000
1000
0000
,
0011
0000
1000
0000
,
0002
0000
0000
0003
,
1000
0000
0001
0000
,
0010
0000
0100
0000
,
1000
0000
0010
0000
,
0001
0000
1000
0000
,
0010
0000
1000
0000
,
0001
0000
0100
0000
,
1000
0000
0001
0000
,
0010
0000
0100
0000
,
1000
0000
0010
0000
,
0001
0000
1000
0000
,
0010
0000
0100
0000
,
1000
0000
0010
0000
,
0001
0000
0100
0000
,
1000
0000
0100
0000
;

//---------------dance-single - ----------------
#NOTES:
     dance-single:
     :
     Challenge:
     9:
     0.392,0.469,0.096,0.118,0.300:
0000
0000
0000
0000
,
0000
0000
0000
0000
,
0000
0000
0000
0000
,
0000
0000
0000
0000
,
0010
1000
0100
0010
0001
0010
0001
0100
,
0010
0000
1000
0000
0100
0000
0000
0000
1000
0000
0010
0000
1000
0000
0000
0100
,
0010
0001
0100
0010
1000
0010
1000
0100
,
0010
0000
0001
0000
0100
0000
0000
0010
0000
1000
0001
0000
1000
0000
0000
0001
,
0100
0000
0000
0000
0010
0000
0000
1000
0000
0000
0000
0000
0010
0000
0100
0000
,
0000
0000
0001
0000
1000
0000
0000
0100
0000
0000
0010
0000
0001
0000
0000
0001
,
0000
0000
0100
0000
0001
1000
0001
0000
,
1000
0010
0001
1000
0100
0001
1000
0000
,
0010
0000
0000
0000
0100
0000
0000
0001
0000
0000
0000
0010
0100
0000
1000
0000
,
0000
0000
0100
0000
0001
0000
0000
0010
0000
0000
0100
0000
1000
0100
0000
0100
,
0000
0000
0010
0000
0001
1000
0001
0000
,
1000
0100
0001
1000
0010
0001
1000
0000
,
0100
0000
0100
0000
0000
1000
0000
0010
0100
0000
0001
0000
1000
0000
0000
0000
,
0002
0000
0010
0000
0013
0000
0100
0000
1000
0001
0000
0001
0000
0000
0100
0000
,
0010
0000
0010
0000
0000
0001
0000
0100
0010
0000
1000
0000
0001
0000
0000
0000
,
2000
0000
0010
0000
3010
0000
0100
0000
0001
1000
0000
1000
0000
0000
0010
0000
,
0100
0000
0010
0000
0100
0001
0100
0001
0100
0000
0010
1000
0000
0001
0100
0000
,
0100
0000
0010
0000
0100
0001
0100
0001
0100
0000
0010
1000
0000
0001
0100
0000
,
0001
0000
1000
0000
0001
0010
0001
1000
0001
0000
1000
0100
0000
0010
0001
0000
,
0001
0000
1000
0000
0001
0010
0001
1000
0001
0000
1000
0100
0010
0000
0001
0000
,
1000
0000
0000
0000
0010
0000
0000
0100
0000
0001
1000
0000
0001
0000
0000
0000
,
0100
0001
1000
0000
0100
1000
0100
0000
,
0010
0000
0100
0000
1000
0000
0000
0001
0000
1000
0010
0000
0100
0000
0000
0000
,
1000
0001
0101
0000
0001
1000
1100
0000
,
0001
0000
0000
0000
0100
0000
0000
0010
0000
1000
0001
0000
1000
0000
0000
0000
,
0010
1000
0001
0000
0010
0001
0010
0000
,
0100
0000
0010
0000
0001
0000
0000
1000
0000
0001
0100
0000
0010
0000
0000
0000
,
1001
1001
0110
0110
1000
0001
0110
0000
,
0100
0000
0100
0000
0000
0001
0000
0100
0010
0000
1000
0000
0001
0000
0000
0000
,
2000
0000
0010
0000
3010
0000
0100
0000
0001
1000
0000
1000
0000
0000
0100
0000
,
0010
0000
0010
0000
0000
1000
0000
0100
0010
0000
0001
0000
1000
0000
0000
0000
,
0002
0000
0010
0000
0013
0000
0100
0000
1000
0001
0000
0001
0000
0000
1001
0000
,
0100
0000
0010
0000
0100
0001
0100
0001
0100
0000
0010
1000
0000
0001
0100
0000
,
0100
0000
0010
0000
0100
0001
0100
0001
0100
0000
0010
1000
0000
0001
0100
0000
,
0001
0000
1000
0000
0001
0010
0001
1000
0001
0000
1000
0100
0000
0010
0001
0000
,
0001
0000
1000
0000
0001
0010
0001
1000
0001
0000
1000
0100
0010
0100
0010
0000
,
0001
0000
0010
0000
0100
1000
0000
0002
0000
0000
1000
0000
1003
0000
0000
0000
,
0001
0000
0100
0000
0010
1000
0000
0002
0000
0000
1000
0000
1003
0000
0000
0000
,
0100
0000
0010
0000
1000
0001
0000
2000
0000
0000
0001
0000
3001
0000
0000
0000
,
0100
0001
1000
0001
0010
0100
1000
0000
,
0010
0000
0100
0000
0001
1000
0000
0200
0000
0000
0010
0000
0310
0000
0000
0000
,
0100
0000
0010
0000
0001
1000
0000
0020
0000
0000
0100
0000
0130
0000
0000
0000
,
0010
0000
1000
0000
0001
0100
0000
0020
0000
0000
0100
0000
0130
0000
0000
0000
,
0001
1000
0010
1000
0001
0010
0100
0000
,
0001
1000
0000
0000
0000
0000
0000
0000
0000
0000
0000
0000
0000
0000
0000
0000
,
2200
0000
0000
3300
,
0010
0001
0000
0000
0000
0000
0000
0000
0000
0000
0000
0000
0000
0000
0000
0000
,
2002
0000
0000
0000
3003
1001
0110
0000
,
0220
0000
0000
0330
;

//---------------dance-single - ----------------
#NOTES:
     dance-single:
     :
     Hard:
     6:
     0.343,0.356,0.074,0.081,0:
0000
0000
0000
0000
,
1000
0001
1000
0010
,
0001
0100
0010
0100
,
0001
1000
0010
0100
,
1000
0010
0001
0000
1000
0001
0100
1000
,
0010
0001
1000
0010
0000
1000
0100
0100
,
0001
1000
0010
1000
0100
0010
0001
0010
,
1000
0001
0010
1000
0001
1000
0010
0000
,
1000
0001
0100
1000
0001
0010
1000
0001
,
0010
1000
0100
0001
1000
0010
0001
1000
,
0010
1000
0100
1000
0001
1000
0010
0001
,
1000
0001
0100
1000
0001
0010
1000
0001
,
0010
1000
0100
0001
1000
0001
0010
1000
,
0001
1000
0100
0001
1000
0010
0001
1000
,
0010
1000
0100
1000
0001
1000
0010
0001
,
1000
0010
0001
1000
0100
0001
1000
0100
,
0011
0000
0100
0000
1000
0001
0010
1000
,
0002
0000
0000
0003
0010
0001
1000
0010
,
0101
0000
0010
0000
1000
0010
0001
1000
,
0010
0000
0100
0000
1000
0001
0100
0000
,
0011
0000
1000
0000
0100
0010
0001
0000
,
2000
0000
0000
3000
0001
0000
0010
0001
,
1100
0000
0001
0000
0010
0100
1000
0000
,
0002
0000
0000
0000
0000
0003
0020
0000
,
1030
0000
0001
1000
0010
0000
1000
0010
,
0001
1000
0010
1000
0100
1000
0001
0010
,
1000
0000
0010
1000
0001
0000
0000
0000
,
0010
0001
1000
0010
0001
0000
0000
0000
,
0000
0000
0100
0010
0001
0000
1000
0001
,
0010
0000
1000
0010
0001
1000
0010
0001
,
1000
0000
0010
0000
0001
0010
1000
0001
,
0020
0032
0203
0310
,
1001
0100
0010
0000
0100
1000
0001
1000
,
0020
0000
0000
0030
1000
0001
0010
1000
,
0101
0000
0010
0000
1000
0010
0001
1000
,
0010
0001
1000
0000
0001
1000
0010
0001
,
1100
0000
0001
0000
0010
0001
1000
0100
,
0002
0000
0000
0003
1000
0000
0100
1000
,
0011
0000
0100
0000
1000
0001
0010
1000
,
0002
0000
0000
0000
0000
0003
0200
0000
,
1300
0000
0010
1000
0001
0000
0100
1000
,
0010
0000
1000
0001
0100
1000
0001
0010
,
1000
0000
0001
1000
0010
0001
1000
0000
,
0001
1000
0010
0000
1000
0001
0100
0000
,
0010
0000
0001
0010
1000
0000
0010
1000
,
0001
0000
1000
0001
0100
1000
0001
0010
,
1000
0000
0010
1000
0001
0010
0100
0000
,
0010
0001
1000
0000
0100
0000
0001
0000
,
1000
0001
0010
1000
,
0101
0010
1000
0001
,
0010
1000
0100
0001
,
1100
0001
0010
1000
,
0001
0010
0100
0001
,
1000
0100
0010
0000
;

//---------------dance-single - ----------------
#NOTES:
     dance-single:
     :
     Medium:
     3:
     0.222,0.218,0.059,0.044,0:
0000
0000
0000
0000
,
0001
0000
1000
0000
,
0001
0100
0010
0100
,
0001
1000
0010
0100
,
1000
0001
0010
1000
,
0001
0010
1000
0100
,
0001
0010
0100
0001
,
1000
0010
0001
0010
,
1000
0100
0001
1000
,
0010
0100
1000
0001
,
0010
0100
0001
0010
,
1000
0100
0001
1000
,
0010
0100
1000
0010
,
0001
0100
1000
0001
,
0010
0100
0001
0010
,
1000
0001
0100
1000
,
0011
0100
1000
0010
,
0002
0000
0000
0003
0010
0000
1000
0000
,
0101
0010
1000
0001
,
0010
0100
1000
0100
,
0011
1000
0100
0001
,
2000
0000
0000
3000
0001
0000
0010
0000
,
1100
0001
0010
1000
,
0002
0000
0000
0003
,
1000
0001
0010
1000
,
0001
0010
0100
0001
,
1000
0010
0001
0000
,
0010
1000
0001
0000
,
0000
0100
0001
1000
,
0010
1000
0001
0010
,
1000
0010
0001
1000
,
0010
0001
0100
0010
,
1001
0010
0100
0001
,
0020
0000
0000
0030
1000
0000
0010
0000
,
0101
0010
1000
0001
,
0010
1000
0001
0010
,
1100
0001
0010
1000
,
0002
0000
0000
0003
1000
0000
0100
0000
,
0011
0100
1000
0010
,
0002
0000
0000
0003
,
1000
0010
0001
0100
,
0010
1000
0100
0001
,
1000
0001
0010
1000
,
0001
0010
1000
0100
,
0010
0001
1000
0010
,
0001
1000
0100
0001
,
1000
0010
0001
0100
,
0010
1000
0100
0001
,
1000
0001
0010
1000
,
0001
0010
1000
0001
,
0010
1000
0100
0001
,
1000
0001
0010
1000
,
0001
0010
0100
0001
,
1000
0001
0100
0000
;
