#TITLE:Boomin';
#ARTIST:tobyMac;
#BANNER:Boomin' - tobyMac.png;
#BACKGROUND:Boomin' - tobyMac-bg.png;
#LYRICSPATH:Boomin' - tobyMac.lrc;
#CDTITLE:.\CDTITLES\DP2TOBY1.png;
#MUSIC:Boomin' - tobyMac.mp3;
#OFFSET:-1.246;
#SAMPLESTART:34.1;
#SAMPLELENGTH:12;
#BPMS:0=95;
#BGCHANGES:0=Boomin' - tobyMac.AVI=1=1=1=0,999=-=1=0=0=0;

//---------------dance-single - ----------------
#NOTES:
     dance-single:
     :
     Easy:
     1:
     0.117,0.117,0.054,0,0:
0000
0000
0000
0000
,
1000
0000
0000
0000
,
0010
0000
0010
0000
,
1000
0000
0010
0000
,
0001
0000
1000
0000
,
0010
0000
0001
0000
,
1000
0000
0010
0000
,
0001
0000
1000
0000
,
0010
0000
0001
0000
,
1000
0000
0010
0000
,
0001
0000
1000
0000
,
0010
0000
0010
0000
,
1000
0000
0010
0000
,
1001
0000
0100
0000
,
0010
0000
0100
0000
,
1010
0000
0100
0000
,
0001
0000
0100
0000
,
1010
0000
0100
0000
,
1000
0000
0100
0000
,
0011
0000
1000
0000
,
0010
0000
0001
0000
,
1000
0000
0000
0010
0000
0000
0000
0000
,
0001
0000
1000
0000
,
0010
0000
0001
0000
,
1000
0000
0010
0000
,
0001
0000
1000
0000
,
0010
0000
0001
0000
,
1000
0000
0010
0000
,
0001
0000
1000
0000
,
0010
0000
0001
0000
,
1000
0000
0010
0000
,
0001
0000
1100
0000
,
0010
0000
0100
0000
,
1000
0000
1010
0000
,
0001
0000
1000
0000
,
0010
0000
0110
0000
,
1000
0000
0010
0000
,
0001
0000
1100
0000
,
0001
0000
0100
0000
,
1000
0000
0001
0000
,
1000
0000
0001
0000
,
0010
0000
1000
0000
,
0010
0000
0001
0000
,
1000
0000
0010
0000
,
0001
0000
0100
0000
,
0010
0000
0010
0000
,
1000
0000
0010
0000
,
0001
0000
1000
0000
,
0010
0000
0001
0000
,
1000
0000
0010
0000
,
0001
0000
0100
0000
,
0010
0000
0001
0000
,
1000
0000
0010
0000
,
0001
0000
1000
0000
,
0010
0000
0100
0000
,
1000
0000
0010
0000
,
0001
0000
0100
0000
,
0010
0000
0010
0000
,
0100
0000
0000
0000
;

//---------------dance-single - ----------------
#NOTES:
     dance-single:
     :
     Challenge:
     7:
     0.396,0.410,0.396,0.087,0.138:
0000
0000
0000
0000
,
0000
0000
0000
0000
,
1001
1001
0010
0100
,
1000
0000
0001
0000
1000
0000
0010
0000
0100
0010
0100
0010
0100
0000
0010
0000
,
1001
0100
0010
0101
,
1000
0000
0001
0000
0100
0000
0000
0100
0010
0000
1000
0000
0100
0000
0000
0000
,
0110
0000
1000
0000
0001
0100
1000
0000
,
0001
0010
0100
0100
1000
0001
0100
0000
,
0001
0001
0001
0001
0001
1000
0001
0100
,
0010
0010
0010
0010
0010
1001
0101
0000
,
1000
1000
1000
1000
1000
0001
1000
0010
,
0100
0010
0100
0010
0100
0000
0001
0000
1000
0000
0100
0000
1001
0000
0000
0000
,
0120
1000
0000
0130
,
0101
0000
0101
0000
0110
0000
0000
0000
1000
0001
1000
0000
0100
0000
1000
0000
,
0010
0010
0100
0100
0001
1000
0001
0100
,
1010
0000
1010
0000
0110
0000
0000
0000
0001
0100
0001
0000
1000
0000
0001
0000
,
0100
0000
0110
0000
1001
0001
0011
0000
,
1000
0000
1000
0000
1010
0000
1000
0000
0100
0010
0100
0000
0110
0000
1000
0000
,
0001
0100
0010
0010
1000
0001
0100
0100
,
0001
0001
0011
0001
0100
0100
0110
0000
,
0001
0000
1000
0000
0001
0000
0100
0000
0001
0100
0001
0100
0001
0100
0001
0100
,
0001
0000
0000
1000
0000
0000
0001
0000
0000
0000
0100
0000
0100
0000
0100
0000
,
1000
0000
0220
0330
1001
0000
0100
0000
,
0001
0000
0000
0000
1100
0000
0000
0000
0010
0000
1000
0000
0001
0000
1000
0001
,
1000
0100
0010
0000
1001
0000
0110
0000
,
1000
0000
0101
0000
0010
0001
0100
0100
,
0010
1000
0001
0000
1010
0000
1100
0000
,
0101
0110
2001
0010
,
0001
3100
0011
1001
,
0110
0000
0000
0000
0101
0000
0000
0000
0001
1000
0001
1000
0001
1000
0001
1000
,
0001
0000
1000
0000
0100
0000
0000
0000
2002
0000
0000
0000
3003
0000
0000
0101
,
0000
1100
0000
0001
0100
0000
0000
0000
0010
0000
0010
0000
1010
0000
0000
0000
,
0100
0001
1000
0000
0100
0000
0100
0000
1000
0000
0001
0000
0100
0000
0001
1000
,
0000
0001
0010
0000
0100
0000
1000
0000
0001
0000
0001
0000
0101
0000
0000
0000
,
0010
1000
0001
0000
1000
0000
0010
0000
0100
0000
0100
0000
1001
0000
0000
0000
,
0100
0100
1001
0000
0001
0001
0101
0100
,
0001
0000
0001
0000
0011
0000
0001
0000
1000
0000
1000
0000
0010
0000
1000
0001
,
0000
1000
0010
0000
0100
0000
0001
0000
1000
0000
1000
0000
1100
0000
1000
0000
,
1010
0000
0010
0000
0110
0000
0100
0000
0101
0000
0000
0100
0000
0000
0010
0000
,
0000
1001
0000
0000
0110
0000
0000
0000
2000
0000
0000
0000
0000
0000
0000
0000
,
0000
3000
0000
0000
,
0000
0001
0002
0000
,
0000
0003
0000
0000
,
0000
1000
1000
0001
,
1000
1000
0001
1000
,
0001
1000
0001
0000
1000
0010
1000
0000
,
0001
0100
0001
0000
1000
0000
1000
0000
,
1000
0000
0000
0001
1000
0000
0001
0000
0100
0000
0000
0000
1010
0000
0000
0000
,
0001
1000
0100
0011
,
1000
0010
0001
0100
1000
0000
0101
0000
,
1000
0000
0001
0000
1000
0010
0100
0000
,
0010
0000
0000
1000
0001
0000
1000
0000
0100
0000
0000
0200
0000
0000
0000
0000
,
0010
0000
0010
0000
0310
0000
1000
0000
0001
0000
0000
0002
0000
0000
0000
0000
,
1000
0000
1000
0000
1003
0000
0001
0000
0010
0000
0000
0020
0000
0000
0000
0000
,
0100
0000
0100
0000
0130
0000
0001
0000
1000
0000
0000
1000
0000
0010
0000
1000
,
0001
0000
0010
0000
0001
0000
1000
0000
0100
0000
0000
0110
0000
1001
0000
0000
,
0010
0000
1000
0000
0001
0000
0000
0000
0100
0000
0000
0110
0000
2001
0000
0000
,
0001
0100
3200
0000
0000
0000
0000
0000
,
0000
0300
0000
0000
;

//---------------dance-single - ----------------
#NOTES:
     dance-single:
     :
     Medium:
     3:
     0.233,0.214,0.087,0.013,0.007:
0000
0000
0000
0000
,
1010
0000
0000
0000
0001
0010
0100
0000
,
0011
0000
0101
0010
,
1010
0000
1001
0010
,
0001
0010
1000
0001
,
0010
1000
0001
0010
,
1000
0001
0010
1000
,
0001
0010
1000
0001
,
0010
1000
0001
0010
,
1000
0001
0010
1000
,
0001
0010
1000
0001
,
0010
0100
0010
0100
,
1000
0000
0001
0000
0010
1000
0100
0000
,
1001
0010
0100
1000
,
0010
0001
0100
0001
,
1010
0001
0100
0010
,
0001
0010
0100
0001
,
1010
0001
0100
0001
,
1000
0001
0100
1000
,
0011
0100
1000
0001
,
0010
1000
0001
0100
,
1000
0000
0000
0001
0000
0000
0010
0000
0000
0100
0000
0000
1000
0000
0000
0000
,
0001
0100
1000
0001
,
0010
1000
0001
0010
,
1000
0100
0010
1000
,
0001
0100
1000
0001
,
0010
1000
0001
0100
,
1000
0001
0010
0100
,
0001
0010
1000
0001
,
0010
0100
0001
0100
,
1000
0001
0010
1000
,
0001
1000
0010
0000
1100
0000
0001
0000
,
0010
1000
0100
0001
,
1000
0001
1010
0100
,
0001
0100
1000
0001
,
0010
1000
0110
0001
,
1000
0001
0010
1000
,
0001
0010
1100
0010
,
0001
0010
0100
0001
,
1000
0010
0001
0010
,
1000
0010
0001
1000
,
0010
0001
1000
0001
,
0010
1000
0001
0001
,
1000
0001
0010
1000
,
0001
0010
0100
0001
,
0010
1000
0010
0001
,
1000
0010
0001
1000
,
0002
0000
0000
0003
1000
0000
0001
0000
,
1000
0010
0001
0010
,
1000
0001
0010
0100
,
0001
0010
0100
0001
,
0020
0000
0000
0030
0001
0000
0010
0000
,
1000
0010
0001
1000
,
0001
0010
1000
0100
,
0001
0010
0100
0010
,
1000
0001
0010
0100
,
0001
0010
0100
0001
,
0010
0100
0010
0010
,
0100
0000
0000
0000
;

//---------------dance-single - ----------------
#NOTES:
     dance-single:
     :
     Hard:
     7:
     0.422,0.331,0.121,0.013,0.030:
0000
0000
0000
0100
,
1010
0000
0100
0010
0001
0010
0100
0000
,
0011
0000
0100
0010
0100
0001
0010
0000
,
1010
0000
0100
0010
1001
0100
0010
0100
,
0001
1000
0010
0001
1000
0010
0001
1000
,
0010
0100
1000
0010
0001
1000
0010
0001
,
1000
0010
0001
1000
0010
0001
1000
0010
,
0001
1000
0010
0001
1000
0010
0001
0000
,
0010
0001
1000
0010
0001
1000
0010
0001
,
1000
0010
0001
1000
0010
0001
1000
0010
,
0001
1000
0010
0001
1000
0010
0001
0000
,
0010
0001
0100
0001
0010
0001
0100
0001
,
1000
0000
0001
0000
0010
1000
0100
0000
,
1001
0100
0000
0001
0100
0001
1000
0001
,
0010
1000
0001
0010
0100
1000
0001
0100
,
1010
0100
0000
0001
0100
1000
0010
1000
,
0000
0001
0010
1000
0100
1000
0001
0100
,
1010
0100
0000
0001
0100
1000
0001
0010
,
1000
0010
0001
1000
0100
0001
1000
0100
,
0011
1000
0000
0001
1000
0010
0001
1000
,
0010
0001
1000
0010
0001
1000
0100
0000
,
1000
0000
0000
0001
0000
0000
0010
0000
0000
0100
0000
0000
1000
0000
0010
0000
,
0001
0000
0100
0000
1000
0010
0001
1000
,
0010
0001
1000
0010
0001
1000
0010
0001
,
1000
0001
0100
1000
0010
0001
1000
0010
,
0001
1000
0100
0001
1000
0010
0001
1000
,
0010
0001
1000
0010
0001
0010
0100
0001
,
1000
0010
0001
1000
0010
0001
0100
1000
,
0001
1000
0010
0100
1000
0010
0001
1000
,
0010
0001
0100
1000
0001
0010
0100
0001
,
1000
0010
0001
1000
0010
0000
1000
0000
,
0001
1000
0010
0001
1100
0010
0000
0001
,
0010
0001
1000
0001
0100
0010
0001
0100
,
1000
0010
0001
0100
1010
0100
0000
0010
,
0001
0010
0100
0001
1000
0010
0001
1000
,
0010
0100
1000
0001
0110
1000
0000
0001
,
1000
0010
0001
1000
0010
0100
1000
0010
,
0001
1000
0010
0001
1100
0010
0000
1000
,
0001
0000
1000
0000
0010
0000
1000
0000
0100
0000
0000
1000
0000
0000
0010
0000
,
0000
0100
0000
0000
0010
0000
1000
0000
0110
0000
0000
0000
1000
0000
0001
0000
,
1000
0001
0010
0100
1000
0001
0110
0000
,
0100
0010
0000
0000
1001
0000
0000
0000
0001
1000
0000
0000
0110
0000
0000
0000
,
0010
0001
0000
0000
1100
0000
0000
0000
0001
1000
0000
0000
0011
0000
0000
0000
,
1000
0001
0000
0000
1000
0000
0001
0000
0010
0000
0100
0000
1000
0000
0010
0000
,
0001
1000
0010
1000
0100
1000
0001
1000
,
0010
0001
1000
0001
0010
1000
0001
0010
,
1000
0001
0010
1000
0001
0010
1000
0010
,
0002
0000
1000
0003
1000
0010
0001
0010
,
1000
0001
0010
1000
0001
1000
0010
0001
,
1000
0010
0001
1000
0010
0001
0100
1000
,
0001
1000
0010
0001
0100
1000
0001
1000
,
0020
0000
0001
0000
0031
1000
0010
0100
,
1000
1000
0010
1000
0001
0010
1000
0100
,
0001
0100
0010
0100
1000
0001
0100
1000
,
0001
1000
0010
0001
0100
1000
0010
0001
,
1000
0010
0001
1000
0010
0001
0100
1000
,
0001
1000
0010
0001
0100
1000
0001
1000
,
0010
0001
0100
1000
0010
0100
0010
0001
,
0100
0000
0000
0000
;
