#TITLE:Blessed Be Your Name;
#ARTIST:Tree63;
#BANNER:Blessed Be Your Name - Tree63.png;
#BACKGROUND:Blessed Be Your Name - Tree63-bg.png;
#LYRICSPATH:Blessed Be Your Name - Tree63.lrc;
#CDTITLE:.\CDTITLES\DP2TREE.png;
#MUSIC:Blessed Be Your Name - Tree63.mp3;
#OFFSET:-2.447;
#SAMPLESTART:47.3;
#SAMPLELENGTH:12;
#BPMS:0=120;
#BGCHANGES:0=Blessed Be Your Name - Tree63.AVI=1=1=1=0,999=-=1=0=0=0;

//---------------dance-single - ----------------
#NOTES:
     dance-single:
     :
     Easy:
     2:
     0.146,0.146,0.014,0.028,0:
0000
1000
0000
0001
,
0000
1000
0000
0100
,
0000
0010
0000
0100
,
0000
0010
0000
0100
,
0000
0010
0000
0100
,
0000
1000
0000
0001
,
0000
0010
0000
1000
,
0000
0001
0000
1000
,
0000
0010
0000
0001
,
0000
1000
0000
0010
,
0000
0001
0000
0100
,
0000
1000
0000
0001
,
0000
1000
0000
0001
,
0000
1000
0000
0100
,
0000
0010
0000
0100
,
1001
0100
0000
0010
,
0000
1000
0000
0001
,
0000
0010
0000
0100
,
0000
0001
0000
0010
,
0000
1000
0000
0100
,
0000
0010
0000
0100
,
0000
1000
0000
0001
,
0000
1000
0000
0001
,
1100
0010
0000
0100
,
0000
1000
0000
0010
,
0002
0000
0003
1000
,
0000
0010
0000
0001
,
0000
1000
0000
0010
,
0000
0001
0000
1000
,
0000
0010
0000
0001
,
2000
0000
3000
0001
,
0000
0010
0000
1000
,
0000
0001
0000
0010
,
0000
1000
0000
0100
,
0000
0001
0000
0010
,
0000
1000
0000
0001
,
0000
0010
0000
1000
,
0000
0001
0000
0010
,
0000
1000
0000
0001
,
0000
0010
0000
1000
,
0000
0001
0000
0010
,
0000
1000
0000
0001
,
0000
0010
0000
0001
,
0000
1000
0000
0100
,
0000
0001
0000
0010
,
0000
1000
0000
0001
,
0000
0010
0000
0001
,
0000
1000
0000
0010
,
0000
0001
0000
1000
,
0000
0010
0000
1000
,
0000
0001
0000
1000
,
0000
0010
0000
0001
,
0000
1000
0000
0001
,
0000
0010
0000
1000
,
0000
0001
0000
1000
,
0000
0010
0000
0001
,
0000
1000
0000
0001
,
0020
0000
0000
0030
,
0000
0001
0000
0100
,
0000
0010
0000
0001
,
0000
1000
0000
0001
,
0000
0010
0000
0001
,
0000
1000
0000
0100
,
0000
0001
0000
1000
,
0000
0010
0000
0001
,
0000
1000
0000
1000
,
0000
0010
0000
1000
,
0000
0001
0000
1000
,
0000
0010
0000
0001
,
0000
1000
0000
0001
,
0020
0000
0030
0000
;

//---------------dance-single - ----------------
#NOTES:
     dance-single:
     :
     Challenge:
     7:
     0.367,0.391,0.262,0.152,0:
0000
0000
0000
0000
,
0000
0000
0000
0000
,
0000
0000
0000
0000
,
0000
0000
0000
0000
,
0000
0000
0000
0000
,
0000
0000
0000
0000
,
0000
0000
0000
0000
0000
0000
0000
0001
,
2000
0000
0100
0000
0000
0000
0100
0100
,
0100
0000
0010
0000
0000
0000
0001
0001
,
3002
0000
1000
0000
0000
0000
0010
0010
,
0010
0000
0100
0000
0000
0000
0100
0100
,
0103
0000
0010
0000
0000
0000
1000
0001
,
1000
0000
0100
0000
0000
0000
0010
0100
,
1000
0001
0000
0110
,
0002
1000
1003
0100
,
1000
0000
0001
1000
0001
0000
0001
0000
,
1000
0101
1000
0101
,
1000
0100
0001
0000
0100
0010
0100
0000
,
2000
3001
0200
0310
,
0001
0000
1000
0001
1000
0000
1000
0000
,
0101
1100
0010
0101
,
1000
0010
0100
0001
,
1001
0000
0000
0000
1000
0010
1000
0001
,
0100
0000
0010
1000
0200
0000
1300
0001
,
0010
0000
0100
0000
0010
1000
0001
0100
,
0010
1100
0010
1100
,
0010
0000
0001
0000
0100
0010
1000
0010
,
0100
0000
0001
1000
0020
0000
0130
0001
,
1000
0000
0100
0000
0010
0100
1000
0100
,
0010
0002
1003
0101
,
2020
0000
0000
3030
,
0001
0000
1000
0100
1000
0000
0100
0001
,
0100
1000
0010
0101
,
1000
0000
0010
0001
0010
0000
1000
0010
,
1000
0001
0010
1100
,
0010
0000
0001
0100
0010
0000
0010
0100
,
0001
0000
0001
0100
0010
0000
1001
0000
,
0100
0000
1000
0010
0100
0000
0100
0010
,
1000
0000
0001
0000
1000
0010
0001
0010
,
1000
0100
0101
1100
,
0010
0001
1000
0011
,
1000
0001
0200
0000
0310
0000
0002
0000
,
1003
0000
0100
1000
0001
1000
0100
0000
,
0010
1001
0010
0101
,
0100
0010
2000
0000
3002
0000
0103
0000
,
1000
0100
0010
0100
1000
0001
0100
0000
,
0010
0000
1010
0000
0101
1000
0100
0000
,
2000
0000
0001
0001
0001
0000
0010
0000
,
0001
0100
0001
3010
,
0100
1001
0110
1001
,
0010
1000
0010
0000
0100
0001
0100
0000
,
0002
0000
1000
1000
1000
0000
0100
0000
,
0010
1000
0010
0103
,
0010
1000
0100
0010
0100
0100
0100
0000
,
1001
0000
0101
0000
1000
0010
0100
0010
,
1000
0000
0001
1000
0200
0000
0310
0001
,
1000
0000
0010
0000
0100
0001
0010
0100
,
1000
0000
0001
1000
0010
1000
0001
0000
,
1010
0000
0001
0000
1000
0100
0010
0001
,
1000
0000
0010
1000
0002
0000
0103
0010
,
1000
0000
0100
0000
0010
0100
1000
0001
,
0100
0000
0010
1000
0001
1000
0010
0100
,
0001
0000
2000
0000
3000
0001
0100
0000
,
1001
0000
1001
0000
1001
0000
0000
0010
,
0100
0000
0001
0000
1000
0100
0001
0100
,
1000
0000
0110
0000
0110
0000
1000
0010
,
0100
0000
0010
0000
1000
0001
1000
0000
,
0101
0000
1100
0000
0101
0000
0010
1000
,
0002
0010
1000
0103
,
0011
1010
0011
2000
,
0020
0000
0000
0000
,
3030
0000
0000
0000
;

//---------------dance-single - ----------------
#NOTES:
     dance-single:
     :
     Hard:
     5:
     0.336,0.340,0.234,0.048,0:
0000
0000
1000
0001
,
1000
0001
0010
0000
0100
0000
0010
0000
,
0100
0010
0100
0010
,
0001
0010
0100
1000
0010
0000
1001
0000
,
0100
1000
0010
0001
,
1000
0001
0010
1000
0002
0000
0000
0003
,
0001
1000
0010
0001
,
1000
0010
0001
0000
0001
1000
0000
0001
,
1000
0010
0001
0000
0010
0000
1000
0000
,
0001
0010
1000
0000
0001
0000
1000
0000
,
0010
0001
1000
0000
0001
0000
1000
0000
,
0100
1000
0001
0000
1000
0001
0000
1000
,
0001
0010
0001
0000
1000
0000
0001
1000
,
0001
0010
1000
0000
0000
0000
0100
1000
,
0001
0010
0000
0100
,
1001
0100
1001
0010
,
0001
1000
0010
0001
,
1000
0010
1000
0100
,
1000
0001
1000
0010
,
0001
0000
1000
0010
0001
0000
0100
0000
,
0001
0010
1000
0110
,
0001
1000
0010
0001
,
0010
0100
1001
0011
,
1100
0010
1000
0100
,
1001
0010
1100
0011
,
0002
0000
0000
0000
0010
0000
0000
0000
0000
0003
0000
0000
0010
0000
0000
0000
,
1000
0010
1100
0101
,
1001
0010
0100
0010
,
1001
0100
1010
0011
,
1001
0010
1000
0001
,
2001
0000
0000
0000
0000
0000
0000
0000
0000
3000
0000
0000
0001
0000
0000
0000
,
1000
0010
1000
0001
,
1000
0010
1001
0010
,
0001
1000
0001
0100
,
1000
0001
1000
1010
,
0001
1000
0010
0001
,
1000
0000
0010
0000
1000
0000
0001
1000
,
0010
1000
0001
0010
0000
0000
0010
0000
,
0001
0000
1000
0000
0010
0000
0001
0010
,
1000
0010
0001
1000
,
0010
0001
1000
0010
,
0001
1000
0010
0001
,
1000
0010
1000
0001
,
0010
1000
0001
0100
,
1000
0000
0001
0000
1000
0000
0010
1000
,
0001
0010
1000
0000
0010
0000
0001
0000
,
1000
0010
1000
0001
,
0010
0000
1000
0010
0001
0000
0010
0000
,
1000
0001
0010
1000
,
0001
0010
0001
1000
,
0010
0001
0010
1000
,
0001
0000
0010
0001
1000
0000
0001
0000
,
0010
1000
0010
1001
,
0100
0010
0001
1000
,
0110
0010
1001
0110
,
1001
0100
0010
0001
,
1001
0010
1010
0101
,
0020
0000
0000
0000
1000
0000
0000
0000
0000
0030
0000
0000
1000
0000
0000
0000
,
0010
0001
1001
0110
,
1001
0010
1000
0010
,
1001
0100
0011
0101
,
2000
0000
3010
0001
,
0020
0000
0000
0000
0030
0000
0100
0001
,
1000
0000
0001
0000
0010
0000
1000
0010
,
0001
0000
0010
0000
1000
0000
0001
1000
,
0010
0000
1000
0000
0001
0000
1000
0010
,
0001
0000
0010
0000
0001
0000
1000
0001
,
0010
0000
0001
0000
0010
0000
1000
0010
,
0001
0000
1000
0000
0010
0000
0001
1000
,
0010
1000
0010
0001
,
0020
0000
0030
0000
;

//---------------dance-single - ----------------
#NOTES:
     dance-single:
     :
     Medium:
     4:
     0.260,0.292,0.124,0.048,0:
0000
1000
0001
1000
,
0010
0100
0010
0100
,
0010
0100
0010
0000
,
1000
0010
0001
0100
,
1000
0000
0010
0000
0001
0000
1000
0001
,
0010
1000
0002
0000
0000
0003
0001
0000
,
0000
0000
0010
0000
0000
0000
1000
0010
,
0001
0000
0001
0000
0000
0000
1000
0010
,
0001
0000
0010
0000
0000
0000
0001
0010
,
1000
0000
0001
0000
0000
0000
0010
0001
,
1000
0000
0001
0000
0000
0000
0100
1000
,
0001
0000
1000
0000
0000
0000
0001
0010
,
0001
0000
1000
0000
0000
0000
0001
1000
,
0001
0000
1000
0000
0000
0000
0100
1000
,
0001
0010
0000
0100
,
1001
0100
1000
0010
,
0001
1000
0010
0001
,
0000
0010
1000
0100
,
1000
0001
0000
0010
,
0000
1000
0001
0100
,
0001
0010
1000
0100
,
0000
1000
0010
0001
,
0010
0000
1001
0011
,
1100
0010
1000
0100
,
1001
0010
0100
0010
,
0002
0000
0000
0003
,
1000
0000
1100
0101
,
1001
0010
0100
0010
,
1001
0000
1010
0011
,
1001
0010
1000
0001
,
2000
0000
0000
0000
0000
3000
0001
0000
,
0000
0010
0001
1000
,
0010
0001
1000
0000
,
0001
1000
0001
0100
,
1000
0001
1000
0000
,
0001
1000
0010
0001
,
1000
0010
1000
0000
,
0010
0001
1000
0010
,
0000
0000
1000
0000
0000
0000
0001
0010
,
1000
0010
0001
1000
,
0010
0001
1000
0000
,
0001
1000
0010
0001
,
1000
0010
1000
0001
,
0010
1000
0001
0100
,
1000
0001
1000
0010
,
0001
1000
0010
0001
,
0000
0010
0000
0001
,
0000
1000
0001
0010
,
1000
0001
0010
1000
,
0000
0010
0001
1000
,
0010
0001
0000
1000
,
0000
0010
1000
0001
,
0010
1000
0010
0001
,
0000
0010
0001
1000
,
0110
0000
1001
0110
,
1001
0000
0010
0001
,
1001
0000
1000
0001
,
0020
0000
0000
0000
,
0030
0001
1000
0100
,
0001
0010
1000
0010
,
1001
0000
0010
0001
,
2000
0000
0000
3000
0010
0000
0001
0000
,
0020
0000
0000
0000
0000
0030
0100
0000
,
1000
0001
0010
1000
,
0001
0010
0000
0001
,
0010
1000
0001
1000
,
0001
0010
0000
1000
,
0010
0001
0010
1000
,
0001
0000
1000
0001
,
0010
1000
0010
0001
,
0020
0000
0030
0000
;
