#TITLE:Believe;
#ARTIST:Britt Nicole;
#BANNER:Believe - Britt Nicole.png;
#BACKGROUND:Believe - Britt Nicole-bg.png;
#LYRICSPATH:Believe - Britt Nicole.lrc;
#CDTITLE:.\CDTITLES\DP2BRITT.png;
#MUSIC:Believe - Britt Nicole.mp3;
#OFFSET:-2.006;
#SAMPLESTART:37.3;
#SAMPLELENGTH:12;
#BPMS:0=124;
#BGCHANGES:0=Believe - Britt Nicole.AVI=1=1=1=0,999=-=1=0=0=0;

//---------------dance-single - ----------------
#NOTES:
     dance-single:
     :
     Easy:
     2:
     0.154,0.225,0.062,0,0:
0000
0000
0000
0000
,
0001
0000
1000
0000
,
0001
0000
0010
1000
0000
0001
0010
0000
,
1001
0000
0100
0000
,
0010
0000
0001
0000
,
1000
0000
0100
0000
,
0010
0000
0001
0000
,
1000
0000
0010
0000
,
0001
0000
0100
0000
,
0010
0000
1000
0000
,
0001
0000
0100
0000
,
0010
0000
0001
0000
,
1000
0000
0100
0000
,
0010
0000
1000
0000
,
0001
0000
0010
0000
,
1000
0000
0001
0000
,
0010
0000
0001
0000
,
1000
0000
0100
0000
,
0001
0000
1000
0000
,
0110
0000
0001
0000
,
1010
0000
0100
0000
,
0010
0000
0100
0000
,
1001
0000
0010
0000
,
0101
0000
0001
0000
,
1000
0000
0010
0000
,
0001
0000
0100
0000
,
0010
0000
1000
0000
,
0001
0000
0100
0000
,
0010
0000
0001
0000
,
1000
0000
0010
0000
,
0001
0000
0100
0000
,
0010
0000
0001
0000
,
1000
0000
0010
0000
,
0001
0000
0100
0000
,
0010
0000
0100
0000
,
0001
0000
1000
0000
,
0010
0000
0100
0000
,
1000
0000
0010
0000
,
0001
0000
0100
0000
,
0010
0000
0100
0000
,
1000
0000
0001
0000
,
0010
0000
1000
0000
,
0001
0000
1000
0000
,
0010
0000
0010
0000
,
1000
0000
0001
0000
,
0010
0000
1000
0000
,
0001
0000
1000
0000
,
0010
0000
0001
0000
,
1000
0000
0100
0000
,
0010
0000
0100
0000
,
1001
0000
0010
0000
,
0101
0000
1000
0000
,
0001
0000
1000
0000
,
0110
0000
0001
0000
,
1100
0000
1000
0000
,
0010
0000
0100
0000
,
0001
0000
1000
0000
,
0010
0000
0001
0000
,
1000
0000
0001
0000
,
0010
0000
1000
0000
,
0001
0000
1000
0000
,
0010
0000
0100
0000
,
0001
0000
1000
0000
,
0010
0000
1000
0000
,
0001
0000
0010
0000
,
1000
0000
0001
0000
,
0010
0000
0001
0000
,
1000
0000
0001
0000
,
0010
0000
0001
0000
,
1000
0000
0010
0000
,
0001
0000
0100
0000
,
1000
0000
0010
0000
,
0001
0000
0100
0000
,
0010
0000
0000
0000
;

//---------------dance-single - ----------------
#NOTES:
     dance-single:
     :
     Challenge:
     8:
     0.465,0.429,0.404,0.055,0.017:
0000
0000
0000
0000
,
0000
0000
0000
0000
1001
0010
0100
2002
,
0000
0000
3003
0110
,
1000
0001
1000
0001
1000
0001
0100
0000
,
0001
0100
1000
0000
1000
0100
0001
0000
,
1000
0000
0001
0000
1000
1000
1000
1000
,
0000
0100
1000
0100
0000
0010
1001
0000
,
0100
0010
0100
0010
0100
0001
1000
0000
,
0001
0010
1000
0000
1000
0010
0001
0000
,
1000
0000
0001
0000
0100
0100
0100
0010
,
0000
1000
0100
0000
0010
0001
1001
0000
,
0010
1000
0100
0000
0001
1000
0100
0000
,
0011
1000
0101
1100
,
0010
0001
0100
0000
1000
0001
0100
0000
,
0010
0000
1001
0000
0010
1000
0100
0010
,
0001
0000
1000
0000
0001
0100
0100
0000
,
1010
0000
0101
0000
1000
0100
0100
0000
,
0001
0010
0001
1000
0001
0010
0001
1000
,
0000
0100
0002
0000
1003
0000
0000
0000
,
0010
1000
0001
0000
0010
0001
1000
0000
,
0001
0100
0001
1000
0100
1000
0001
0000
,
0110
0000
1001
0000
0010
0100
1001
0000
,
0100
0010
1000
0000
0100
0010
0001
0000
,
1000
0010
1000
0001
0010
0001
0100
0010
,
1000
0000
0101
0000
1100
0000
0010
1000
,
0001
0000
1100
0000
0010
0001
0100
0000
,
1000
0000
0101
0000
0010
1000
0101
0000
,
1000
0001
0100
0000
1000
0100
0001
0000
,
0010
0100
1000
0100
0010
0001
1000
0010
,
0200
0000
0000
0300
,
0010
0000
0010
0000
0100
0000
0010
1001
,
0000
0100
0101
0000
1000
0100
1100
0000
,
0000
0000
0000
0000
0110
0000
0000
0000
0001
1000
0000
0001
1000
0000
0100
0000
,
0000
0000
0100
0000
1000
0100
0000
0000
0010
0000
0001
0000
1000
0000
0000
0000
,
0011
0000
0110
0000
1001
0000
0010
1000
,
0100
0010
0100
1000
0001
0100
1000
0000
,
0100
0000
0010
0000
0100
0100
0100
0001
,
0000
1000
0001
0100
0000
1001
0000
0000
,
1010
0000
0110
0000
1001
0000
0100
0001
,
0010
1000
0010
0001
0100
0010
1000
0000
,
0100
0000
0010
0000
0001
0001
0001
1000
,
0000
0000
0100
0000
0010
0000
0001
0000
1000
0000
0001
0000
1000
0010
0100
0000
,
0001
0000
0110
0000
1000
0001
0010
0100
,
0000
1100
0000
0011
0000
0100
1000
0001
,
0100
0000
1001
0000
0110
0110
0000
1001
,
0000
0100
0000
1001
0000
0010
1000
0100
,
0001
0000
0100
0000
0010
0010
0010
0000
,
1000
0001
0100
0000
1001
0010
0101
0000
,
1000
0010
0100
0010
1000
0010
0100
0001
,
1000
0100
0010
0100
1001
0000
1001
0000
,
0010
1000
0100
0001
0100
1000
0011
0000
,
0010
0001
0100
1000
0100
0001
1010
0000
,
0001
0100
0001
0000
1001
0000
0110
0000
,
0100
0001
0010
1000
0010
0001
1100
0000
,
0100
1000
0010
0001
0010
1000
0101
0000
,
1000
0000
0000
0000
0001
0000
0000
0000
1000
0100
0000
0000
0010
0000
0001
0000
,
0001
0000
0101
0000
0010
1000
0001
1000
,
1000
0000
1100
0000
0010
0001
1000
0000
,
0010
0001
0100
0001
0010
0100
1000
0001
,
1000
0010
0100
0001
1000
0010
0100
0001
,
1000
0000
1000
1000
0000
1001
0101
0000
,
1000
0000
0001
1000
0000
1000
0002
0000
,
0100
0000
1000
0000
0000
0100
0103
0000
,
0001
0000
1000
0001
0000
0001
2000
0010
,
0000
0000
0001
0000
0000
0010
3010
0000
,
0100
0000
0000
1000
0000
0001
1000
0010
,
0100
0000
0000
1000
0001
0010
0100
1000
,
0001
0000
0000
0100
0000
0010
0100
0001
,
1000
0000
0110
0000
0000
0100
1001
0000
,
0010
0100
0001
0100
0000
1000
0100
0000
,
1001
0100
0010
1000
0001
0010
0100
0000
,
0010
0100
1000
0100
0000
0001
0100
0000
,
1001
0010
0100
0001
1100
0000
0011
0000
,
2002
0000
0000
3003
;

//---------------dance-single - ----------------
#NOTES:
     dance-single:
     :
     Medium:
     4:
     0.306,0.325,0.219,0.034,0:
0000
0000
1000
0001
,
1000
0001
0010
1000
,
0001
0000
0010
1000
0000
0001
0010
0000
,
0011
1100
1001
0100
,
0010
1000
0001
2000
,
0000
0000
0000
3000
0100
0000
0001
0000
,
0010
0000
0001
0000
,
1010
0101
0110
1000
,
0001
0010
0100
2000
,
0000
0000
0000
3000
0100
0000
0010
0000
,
0001
1000
0001
1000
,
0010
0100
0001
0010
,
1000
0010
0100
1000
,
0010
0001
1000
0010
,
0001
1000
0010
0001
,
1000
0010
0001
0100
,
0010
1000
0001
0000
,
1000
0001
0100
2000
,
0000
0000
0000
3000
0001
0000
1000
0000
,
0110
1100
0011
0000
,
1010
0101
0110
0000
,
0001
0010
1000
0000
,
1001
0110
1001
0000
,
0101
1010
0101
0000
,
1000
0001
0010
1000
,
0001
1000
0100
0001
,
0010
0100
1000
0100
,
0001
1000
0100
0002
,
0000
0003
1000
0000
0001
0000
0010
0000
,
1000
0100
0010
1000
,
0001
0000
1000
0000
0100
0010
0000
0000
,
0010
1000
0001
0010
,
1000
0001
0010
1000
,
0001
0010
0100
1000
,
0110
1001
0110
1000
,
0001
0010
1000
0100
,
0010
0001
0100
0010
,
1000
0001
0010
1000
,
0011
1100
0110
1000
,
0010
0001
0100
0020
,
0000
0000
0100
0030
0001
0000
1000
0000
,
0010
0001
1000
0010
,
0001
0100
1000
0001
,
0010
0100
0010
0001
,
1000
0010
0001
1000
,
0010
0001
1000
0001
,
0010
0100
0010
0001
,
0010
0100
0001
0010
,
1000
0010
0100
0001
,
0010
0100
0100
0010
,
1001
0100
0011
1000
,
0101
0010
1100
0010
,
0001
0010
1000
0001
,
0110
0001
1100
0010
,
1100
0010
0101
1000
,
0010
0001
0100
1000
,
0001
0010
1000
0100
,
0010
1000
0001
0010
,
1000
0100
0001
1000
,
0010
0001
1000
0010
,
0001
0100
1000
0001
,
0010
1000
0100
0010
,
0001
0100
1000
0001
,
0010
0001
1000
0010
,
0001
0100
0010
0001
,
1000
0010
0001
0100
,
0010
0100
0001
0010
,
1000
0100
0001
1000
,
0010
0100
0001
0010
,
1000
0100
0010
0100
,
0001
0010
0100
0001
,
1000
0100
0010
0100
,
0001
0010
0100
1000
,
0010
0000
0000
0000
;

//---------------dance-single - ----------------
#NOTES:
     dance-single:
     :
     Hard:
     7:
     0.426,0.425,0.240,0.034,0:
0000
0000
0000
0000
1000
0100
0001
0010
,
1000
0000
0001
0000
0010
0000
1000
0010
,
0001
1000
0010
1000
0000
0001
0010
0000
,
0011
1100
1001
0100
,
0010
0100
1000
0000
0001
0010
2000
0000
,
0010
0000
0000
3000
0100
1000
0001
1000
,
0010
1000
0001
0100
,
1010
0000
0101
0000
0110
0000
1000
0010
,
0001
1000
0010
0000
0100
0000
2000
0000
,
0010
3000
0000
0000
0100
1000
0010
1000
,
0001
0000
1000
0000
0001
0010
1000
0010
,
0001
0000
0100
0000
0001
1000
0010
0001
,
0000
1000
0010
0000
0100
0001
1000
0001
,
0010
0000
0001
0000
1000
0001
0010
1000
,
0000
0001
1000
0000
0010
1000
0001
0010
,
1000
0000
0010
0000
0001
1000
0100
1000
,
0010
1000
0001
1000
,
1000
0010
0001
1000
0100
0001
2000
0000
,
0000
0000
0000
3000
0001
0000
1000
0000
,
0110
1100
0011
0100
,
1010
0101
0110
1000
,
0001
0010
1000
0010
,
1001
0110
1001
0010
,
0101
1010
0101
0010
,
1000
0000
0001
1000
0010
0001
1000
0000
,
0001
0000
1000
0001
0100
1000
0001
0000
,
0010
0100
1000
0100
,
0001
0000
1000
0000
0100
1000
0002
0000
,
0010
0000
1003
0000
0001
1000
0010
0001
,
1000
0001
0100
1000
0010
0001
1000
0000
,
0001
0000
1000
0000
0100
0010
0100
1000
,
0010
0000
1000
0010
0001
1000
0010
0000
,
1000
0000
0001
0000
0010
0001
1000
0010
,
0001
0010
0100
1000
,
0110
0000
1001
0000
0110
0000
0001
1000
,
0010
0001
1000
0010
0000
1000
0001
0000
,
1100
0010
0001
0000
0100
1000
0010
0001
,
1000
0010
0001
0000
0010
0001
1000
1000
,
0100
0010
1100
0000
0110
0000
1000
0001
,
0010
0001
0100
0020
,
1000
0000
0100
0030
0001
0010
1000
0001
,
0010
0000
0001
0010
1000
0001
0010
0000
,
0001
1000
0100
0000
1000
0010
0001
0010
,
0000
1000
0100
0000
0010
1000
0001
0000
,
1000
0001
0010
0000
0001
0010
1000
0001
,
0010
1000
0001
0000
1000
0000
1001
0000
,
1000
0000
0110
0000
0010
1000
0001
1000
,
0010
0000
0100
0000
0001
1000
0010
0000
,
1000
0000
0010
0000
0100
1000
0001
1000
,
0100
1000
0010
1000
0100
1000
0001
1000
,
0010
1001
0100
0000
0011
0100
1000
0000
,
0100
0001
0010
0000
1100
0000
0010
0000
,
0001
0010
0000
0000
1010
0001
0010
0001
,
0110
0000
0001
0000
1100
0001
0010
0001
,
1100
0010
0101
1000
,
0010
0001
0100
1000
,
0001
0000
0010
0001
1000
0000
0100
0000
,
0010
1000
0001
0010
,
1000
0000
0100
0000
0001
0010
1000
0000
,
0010
0000
0001
0000
1000
0001
0010
0000
,
0001
1000
0100
0000
1000
0010
0001
1000
,
0010
0000
1000
1001
0001
0100
0000
0010
,
0000
0001
0000
0100
0000
1000
0010
0001
,
0000
0010
0001
0100
1000
0100
0010
0000
,
0001
0000
0100
0000
0010
1000
0001
0000
,
1000
0000
0010
1000
0001
1000
0100
0000
,
0010
0000
0100
0000
0001
1000
0010
0000
,
1000
0000
0100
1000
0001
0010
1000
0000
,
0010
0000
0100
0000
0001
1000
0010
0000
,
1000
0000
0100
1000
0010
1000
0100
0000
,
0001
0000
0010
1000
0100
1000
0001
0000
,
1000
0000
0100
1000
0010
1000
0100
0000
,
0001
0000
0010
0001
0100
0001
1000
0000
,
0010
0000
0000
0000
;
