#TITLE:Awaken;
#ARTIST:Natalie Grant;
#BANNER:Awaken - Natalie Grant.png;
#BACKGROUND:Awaken - Natalie Grant-bg.png;
#LYRICSPATH:Awaken - Natalie Grant.lrc;
#CDTITLE:.\CDTITLES\DP2NATALIE.png;
#MUSIC:Awaken - Natalie Grant.mp3;
#OFFSET:-2.369;
#SAMPLESTART:43.3;
#SAMPLELENGTH:12;
#DISPLAYBPM:113;
#BPMS:0=112.71,74=119,76=112.5,108=113.06,158=112.2,192=112.5,224=112.7,264=113.2;
#BGCHANGES:0=Awaken - Natalie Grant.AVI=1=1=1=0,999=-=1=0=0=0;

//---------------dance-single - ----------------
#NOTES:
     dance-single:
     :
     Easy:
     1:
     0.144,0.182,0.095,0.007,0:
0000
0000
0000
0000
,
0100
0000
0010
0000
,
0001
0000
1000
0000
,
0010
0000
0001
0000
,
1000
0000
0010
0000
,
0001
0000
1000
0000
,
0010
0000
0001
0000
,
1000
0000
0010
0000
,
0001
0000
1000
0000
,
0010
0000
0001
0000
,
1000
0000
0010
0000
,
0001
0000
1000
0000
,
1000
0000
0010
0000
,
1000
0000
0001
0000
,
1000
0000
0001
0000
,
1000
0000
0010
0000
,
1000
0000
0010
0000
,
0100
0000
0000
2000
0000
0000
3000
0000
,
0001
0000
0100
0000
,
1001
0000
0010
0000
,
1000
0000
0101
0000
,
0010
0000
1010
0000
,
0100
0000
0001
0000
,
0010
0000
1001
0000
,
0100
0000
0001
0000
,
1000
0000
0010
0000
,
0001
0000
1000
0000
,
0100
0000
0010
0000
,
1100
0000
0001
0000
,
1000
0000
0010
0000
,
0001
0000
1000
0000
,
0001
0000
0010
0000
,
1000
0000
0001
0000
,
1000
0000
0010
0000
,
0001
0000
1000
0000
,
0001
0000
0010
0000
,
1000
0000
0001
0000
,
1000
0000
0010
0000
,
0001
0000
1000
0000
,
0001
0000
0010
0000
,
1001
0000
0101
0000
,
0010
0000
1010
0000
,
0100
0000
1001
0000
,
0010
0000
1000
0000
,
0100
0000
0011
0000
,
0010
0000
1000
0000
,
0100
0000
0001
0000
,
0010
0000
1000
0000
,
0100
0000
0101
0000
,
0010
0000
1100
0000
,
0100
0000
1001
0000
,
0100
0000
0010
0000
,
0001
0000
1100
0000
,
0001
0000
0010
0000
,
1000
0000
0001
0000
,
1000
0000
0010
0000
,
0010
0000
1000
0000
,
0001
0000
0010
0000
,
1000
0000
0001
0000
,
1000
0000
0010
0000
,
0001
0000
1000
0000
,
0010
0000
0001
0000
,
0100
0000
1000
0000
,
0010
0000
0001
0000
,
0100
0000
1000
0000
,
0001
0000
0010
0000
,
1000
0000
0001
0000
,
1000
0000
0000
0000
;

//---------------dance-single - ----------------
#NOTES:
     dance-single:
     :
     Challenge:
     6:
     0.346,0.363,0.150,0.251,0.014:
0000
0000
0000
0000
,
0000
0000
0000
0000
,
0000
0000
0000
0000
,
2000
3100
0002
0103
,
1000
0000
0001
0100
1000
0000
0001
0000
,
0200
0010
0010
0010
,
0310
0000
1000
0001
0100
0000
1001
0000
,
0200
1300
0010
0001
,
1000
0010
1000
0000
0001
0000
0100
0000
,
0020
0100
0130
1000
,
0002
1000
1000
1003
,
0100
0000
0010
0100
0000
0001
1000
0000
,
0010
1000
0001
0100
,
0020
1030
0200
0301
,
2000
3000
0001
1000
,
0100
1000
0100
0000
0010
0001
1000
0000
,
0002
0013
2000
3010
,
0100
0011
0100
1010
,
2002
0000
0000
3003
,
0010
0100
0010
0100
0000
0001
0100
0000
,
1001
0000
0100
0000
1000
0100
1000
0001
,
0200
0000
0300
0000
0010
0100
0001
1000
,
0001
1100
0001
1100
,
0001
1000
0001
1000
0000
0001
0010
0001
,
0100
0010
1010
0101
,
2000
0010
3002
2003
,
3100
0000
0000
0010
0000
0000
0002
0000
0000
0000
0000
0000
0000
0000
0000
0000
,
0000
0000
0003
0000
0000
1000
0000
1000
,
0001
0100
0010
1000
,
0002
0010
0010
0013
,
0100
1000
0001
0000
0200
0000
0300
0000
,
0020
0030
2000
3001
,
0100
0100
0100
0100
,
0010
1000
0010
0000
0010
0001
0010
0000
,
1000
1001
0000
0110
,
1000
1100
0001
0011
,
1000
0000
0001
1000
0000
0010
0000
0100
,
0001
0000
1000
0000
0001
1000
0100
1000
,
0001
0100
1000
0010
,
2002
0000
0000
0000
3003
0000
0010
0100
,
0001
0000
1000
0010
0000
1000
0001
1000
,
0001
0000
0100
0000
0001
0010
0001
1000
,
0100
0110
1000
0101
,
0010
1000
0001
0000
0010
0100
0010
0001
,
2000
0010
0001
3100
,
0020
0000
0001
0000
0130
0000
1000
0001
,
0100
0010
0100
0000
0001
1000
0001
0010
,
0100
0000
0000
0100
0000
0000
0200
0000
0000
0000
0000
0000
0300
0000
0000
0000
,
1000
0001
0100
0000
0100
0001
1000
0000
,
0002
0000
0013
0000
1000
0100
0100
0000
,
0010
1001
0100
1001
,
0010
0000
1000
0000
0010
0100
0001
1000
,
0200
0320
0032
2003
,
3002
0100
0010
0103
,
2000
0010
3002
2003
,
3100
0000
0000
0010
0000
0000
0001
0000
1000
0000
0000
0000
0001
0000
0000
0000
,
0100
0010
0100
0010
0100
1000
0100
0001
,
0100
0001
1000
1001
,
0010
0100
0010
0100
0010
0001
0010
1000
,
0010
0100
0010
0100
0010
0000
1001
0000
,
0010
1000
0002
1000
,
0103
0000
0000
0000
0010
0000
0000
0000
0100
0000
0000
0001
0000
0000
1000
0000
,
0100
0000
0010
0000
0001
1000
0001
0000
,
0101
0100
1010
0010
,
1000
0100
1000
0000
0100
0001
0100
0000
,
0001
0010
0001
0000
0010
1000
0010
0100
,
0000
0001
1000
0001
;

//---------------dance-single - ----------------
#NOTES:
     dance-single:
     :
     Hard:
     5:
     0.292,0.323,0.109,0.068,0:
0000
0010
1000
0001
,
0100
1000
0010
1000
,
0001
0010
1000
0001
,
0010
0000
1000
0000
0001
1000
0010
0000
,
1000
0000
0001
0000
0010
0000
1000
0010
,
0001
0010
0000
0001
,
0010
1000
0011
0020
,
0000
0000
0000
0030
0010
0001
1000
0000
,
0001
0010
0000
0001
,
0020
0000
0000
0030
0001
0010
2000
0000
,
0000
0000
0000
3000
0000
0000
0010
1000
,
0001
0010
1000
0001
,
1000
0010
0001
0000
0010
0000
0001
0000
,
1000
0010
0001
0100
,
1000
0010
0001
0000
,
1000
0000
0000
0000
0010
1000
0001
0010
,
1000
0000
0001
0000
0010
0001
1000
0000
,
0100
0000
0000
2000
0000
0000
0000
3000
,
0001
1000
0010
0001
0100
0000
0010
0000
,
1001
0000
0110
1000
0001
0000
0010
0000
,
1000
0000
0000
0000
0101
0010
1000
0000
,
0010
0000
0100
0000
1010
0100
0001
0000
,
0100
0010
0001
1000
,
0010
0000
0100
0000
1001
0000
0010
1000
,
0100
0010
0001
0100
,
2000
0000
0000
3000
0010
0000
1000
0000
,
0001
0010
2000
0000
,
0000
3000
0001
0000
0010
0000
0001
0000
,
1100
0000
0010
0000
0002
0000
0000
0003
,
1000
0001
0000
1000
,
0001
0010
1000
0100
,
0001
1000
0010
0000
,
1000
0000
0001
0100
,
1000
0100
0010
1000
,
0001
0100
1000
0010
,
0001
1000
0010
0100
,
1000
0000
0010
0000
0001
0010
0100
0000
,
1000
0001
0010
1000
,
0001
0000
0010
0000
1000
0000
0100
1000
,
0001
0000
1000
0000
0010
0000
0100
0010
,
1001
0010
0101
1000
,
0010
0000
0100
0000
1010
0100
0001
0000
,
0100
0000
0010
0000
1001
0010
0100
0000
,
0010
0000
0100
0000
1000
0010
0001
0000
,
0100
0000
1000
0000
0011
0000
1000
0001
,
0010
0000
0002
0000
0000
0003
0010
0000
,
0100
0000
0010
0000
0001
0000
1000
0001
,
0010
1000
0001
0000
1000
0000
0001
0000
,
0100
0000
0010
0000
0101
0000
1000
0001
,
0010
0000
0001
0000
1100
0000
0001
0010
,
0100
0000
0000
0000
1001
0000
0010
1000
,
0100
0000
0001
0000
0010
0100
1000
0000
,
0001
0000
0010
0001
1100
0000
0010
0000
,
0001
0000
2000
0000
0000
3000
0001
0000
,
1000
0010
0001
0100
,
1000
0001
0010
1000
,
0010
0000
0001
0010
1000
0000
0010
0000
,
0001
1000
0010
0001
,
1000
0001
0010
0000
0001
0000
0100
0000
,
1000
0001
0010
1000
,
0001
0010
1000
0001
,
0010
0000
1000
0000
0001
0000
0010
1000
,
0100
0000
0001
0010
1000
0000
0001
1000
,
0010
1000
0001
0010
,
0200
0001
0000
0001
,
0000
0001
0000
0001
,
0310
0000
0000
0000
,
0000
0000
0000
0001
0000
0100
0000
0001
;

//---------------dance-single - ----------------
#NOTES:
     dance-single:
     :
     Medium:
     4:
     0.251,0.277,0.102,0.068,0:
0000
0010
1000
0000
,
0100
0000
0010
1000
,
0001
0010
1000
0001
,
0010
1000
0001
0010
,
1000
0001
0010
1000
,
0001
0010
0000
0001
,
0010
1000
0001
0020
,
0000
0030
0010
1000
,
0001
0010
0000
0001
,
0020
0000
0000
0030
0001
0000
2000
0000
,
0000
0000
3000
0010
,
0001
0010
1000
0001
,
1000
0001
0010
0001
,
1000
0010
0001
0100
,
1000
0010
0001
0000
,
1000
0000
0010
0001
,
1000
0001
0010
1000
,
0100
0000
0000
2000
0000
0000
0000
3000
,
0001
0010
0100
0010
,
1001
0110
0001
0010
,
1000
0000
0101
1000
,
0010
0100
1010
0001
,
0100
0010
0001
1000
,
0010
0100
1001
0010
,
0100
0010
0001
0100
,
2000
0000
0000
3000
0010
0000
1000
0000
,
0001
0010
2000
0000
,
3000
0001
0010
0001
,
1100
0000
0010
0000
0002
0000
0000
0003
,
1000
0001
0000
1000
,
0001
0010
1000
0100
,
0001
1000
0010
0000
,
1000
0000
0001
0100
,
1000
0100
0010
1000
,
0001
0100
1000
0010
,
0001
1000
0010
0100
,
1000
0010
0001
0100
,
1000
0001
0010
1000
,
0001
0010
1000
0100
,
0001
1000
0010
0100
,
1001
0010
0101
1000
,
0010
0100
1010
0001
,
0100
0010
1001
0100
,
0010
0100
1000
0001
,
0100
1000
0011
1000
,
0010
0002
0003
0010
,
0100
0010
0001
1000
,
0010
0001
1000
0001
,
0100
0010
0101
1000
,
0010
0001
1100
0001
,
0100
0000
1001
0010
,
0100
0001
0010
1000
,
0001
0010
1100
0010
,
0001
2000
3000
0001
,
1000
0010
0001
0100
,
1000
0001
0010
1000
,
0010
0001
1000
0010
,
0001
1000
0010
0001
,
1000
0010
0001
0100
,
1000
0001
0010
1000
,
0001
0010
1000
0001
,
0010
1000
0001
0010
,
0100
0001
1000
0001
,
0010
1000
0001
0010
,
0200
0000
0000
0000
,
0000
0000
0000
0000
,
0300
0000
0000
0000
,
0000
0000
0000
0010
0000
1000
0000
0010
;
