#TITLE:Already Over;
#ARTIST:Red;
#BANNER:Already Over - Red.png;
#BACKGROUND:Already Over - Red-bg.png;
#LYRICSPATH:Already Over - Red.lrc;
#CDTITLE:.\CDTITLES\DP2RED.png;
#MUSIC:Already Over - Red.mp3;
#OFFSET:-1.996;
#SAMPLESTART:42.5;
#SAMPLELENGTH:12;
#DISPLAYBPM:105;
#BPMS:0=103,190=107;
#BGCHANGES:0=Already Over - Red.AVI=1=1=1=0,999=-=1=0=0=0;

//---------------dance-single - ----------------
#NOTES:
     dance-single:
     :
     Easy:
     2:
     0.143,0.144,0.183,0,0:
0000
0000
0000
0000
,
1000
0000
0001
0000
,
0010
0000
0100
0000
,
1000
0000
0001
0000
,
0010
0000
0001
0000
,
1000
0000
0100
0000
,
0010
0000
1000
0000
,
0001
0000
1000
0000
,
0011
0000
0010
0000
,
1000
0000
0001
0000
,
1010
0000
0100
0000
,
0001
0000
0100
0000
,
1001
0000
0100
0000
,
0001
0000
0010
0000
,
1100
0000
0010
0000
,
0001
0000
0010
0000
,
1001
0000
0100
0000
,
0010
0000
1000
0000
,
0011
0000
0010
0000
,
1000
0000
0001
0000
,
1010
0000
0100
0000
,
0001
0000
0100
0000
,
1001
0000
0100
0000
,
0010
0000
0001
0000
,
1100
0000
0010
0000
,
0001
0000
1000
0000
,
0110
0000
0001
0000
,
1000
0000
0100
0000
,
0011
0000
1000
0000
,
0001
0000
0100
0000
,
1010
0000
0001
0000
,
1000
0000
0100
0000
,
0011
0000
1000
0000
,
0010
0000
0001
0000
,
1100
0000
0001
0000
,
0010
0000
1000
0000
,
0101
0000
1000
0000
,
0010
0000
0100
0000
,
1010
0000
0100
0000
,
0010
0000
0100
0000
,
1001
0000
0100
0000
,
0010
0000
1000
0000
,
0011
0000
1000
0000
,
0010
0000
1000
0000
,
0101
0000
1000
0000
,
0010
0000
0100
0000
,
1001
0000
0100
0000
,
0010
0000
0001
0000
,
1100
0000
0001
0000
,
0010
0000
0001
0000
,
1010
0000
0001
0000
,
0010
0000
0100
0000
,
1001
0000
0001
0000
,
0100
0000
0001
0000
,
0110
0000
0001
0000
,
1000
0000
0100
0000
,
0011
0000
1000
0000
,
0010
0000
0001
0000
,
1100
0000
0100
0000
;

//---------------dance-single - ----------------
#NOTES:
     dance-single:
     :
     Medium:
     4:
     0.256,0.247,0.183,0.021,0:
0000
0000
0010
0000
,
1000
0001
1000
0001
,
0010
0100
0010
0100
,
1000
0010
0001
1000
,
0010
1000
0001
0010
,
1000
0001
0100
1000
,
0010
0001
1000
0010
,
0001
0100
1000
0100
,
0011
1000
0010
0001
,
1000
0010
0001
0100
,
1010
0001
0100
1000
,
0001
0010
0100
0010
,
1001
0010
0100
1000
,
0001
1000
0010
0001
,
1100
0001
0010
1000
,
0001
0100
0010
0100
,
1001
0010
0100
0001
,
0010
0001
1000
0100
,
0011
1000
0010
0001
,
1000
0010
0001
0100
,
1010
0001
0100
0010
,
0001
1000
0100
0010
,
2002
0000
0000
3003
0100
0000
0001
0000
,
0010
1000
0001
0010
,
1100
0001
0010
1000
,
0001
0010
1000
0001
,
0110
1000
0001
0010
,
1000
0001
0100
1000
,
0011
0100
1000
0010
,
0001
0010
0100
0001
,
1010
0100
0001
0010
,
1000
0000
0000
0001
0000
0100
0000
1000
,
0000
0011
0000
0100
2000
0000
0000
0000
,
0000
3000
0001
0010
,
1100
0010
0001
1000
,
0010
0100
1000
0010
,
0101
0010
1000
0001
,
0010
0001
0100
0001
,
1010
0001
0100
1000
,
0010
0010
0100
0010
,
1001
0010
0100
0001
,
0010
0100
1000
0100
,
0011
0100
1000
0001
,
0010
0001
1000
0010
,
0101
0010
1000
0001
,
0010
0001
0100
0010
,
1001
0010
0100
1000
,
0010
0100
0001
0010
,
1100
0010
0001
1000
,
0010
0001
0100
0100
,
1010
0100
0001
1000
,
0010
0001
0100
0010
,
1001
0010
0001
0000
,
0100
1000
0001
1000
,
0110
1000
0001
0010
,
1000
0001
0100
1000
,
0011
0000
1000
0001
,
0010
1000
0001
0010
,
1100
0010
0100
0000
;

//---------------dance-single - ----------------
#NOTES:
     dance-single:
     :
     Hard:
     7:
     0.367,0.350,0.183,0.049,0:
0000
0000
0010
0001
,
1000
0010
0001
0000
1000
0000
0010
0001
,
0010
1000
0100
0000
0010
0000
0100
0000
,
1000
0001
0010
1000
0001
0010
1000
0001
,
0010
0000
1000
0000
0001
1000
0010
0001
,
1000
0010
0001
1000
0100
0001
1000
0001
,
0010
0000
0001
0010
1000
0000
0010
0000
,
0001
1000
0100
0001
1000
0001
0100
0000
,
0011
0000
1000
0000
0010
1000
0001
0000
,
1000
0001
0010
1000
0001
0010
0100
0000
,
1010
0000
0001
0000
0100
0001
1000
0010
,
0001
0000
0010
1000
0100
1000
0010
0000
,
1001
0000
0010
0000
0100
0001
1000
0010
,
0001
0010
1000
0000
0010
1000
0001
0010
,
1100
0010
0001
0000
0010
0001
1000
0000
,
0002
0000
0000
0003
0020
0000
0000
0030
,
0200
0000
0000
0300
2000
0000
0000
0000
,
0000
0000
3001
0010
1000
0001
0100
1000
,
0011
0000
0000
1000
0010
1000
0001
0010
,
1000
0000
0010
0000
0001
1000
0100
0001
,
1010
0000
0001
0000
0100
1000
0010
0000
,
0001
0010
1000
0001
0100
1000
0010
0000
,
2002
0000
0000
3003
0100
1000
0001
1000
,
0010
0001
1000
0000
0001
1000
0010
0001
,
1100
0000
0001
0000
0010
0001
1000
0010
,
0001
1000
0010
0001
1000
0010
0001
0000
,
0110
0001
1000
0010
0001
0000
0010
0000
,
1000
0000
0001
0000
0000
0100
1001
0100
,
0011
0100
1000
0010
,
0001
1000
0010
0000
0100
0000
0001
0000
,
1010
0100
0001
0010
,
1000
0000
0001
0000
0100
0001
1000
0000
,
0011
0000
1000
0100
0000
2000
0001
0000
,
0000
0001
3001
0010
,
1100
0000
0010
0000
0001
0010
1000
0000
,
0010
0100
1000
0010
,
0101
0010
1000
0001
,
0010
0001
0100
0001
,
1010
0100
0001
0010
0100
0001
1000
0000
,
0010
1000
0010
0001
0100
0001
0010
0000
,
1001
0100
0010
0001
0100
0000
0001
0000
,
0010
1000
0100
0001
1000
0001
0100
1000
,
0011
1000
0100
0001
1000
0010
0001
0000
,
0010
1000
0001
0010
1000
0100
0010
0000
,
0101
1000
0010
0001
1000
0010
0001
0000
,
0010
1000
0001
0010
0100
1000
0010
0100
,
1000
0001
0010
0000
0100
0001
0001
1000
,
0100
0010
0001
1100
0001
0000
0010
0000
,
1100
0000
0010
0000
0001
0010
1000
0000
,
0010
0000
0000
0000
0001
0010
0100
0010
,
1001
0000
0100
0000
0001
0010
1000
0001
,
0010
0000
0001
0000
0100
1000
0010
0100
,
1001
0000
0010
0000
1000
0001
1000
0001
,
0100
0000
1000
0000
0001
0010
1000
0001
,
0110
0000
1000
0000
0001
1000
0010
0001
,
1000
0010
0001
0010
0100
0000
1000
0000
,
0011
0000
0000
1000
0010
0001
1000
0010
,
0001
1000
0001
0010
,
1100
0010
0001
0000
;

//---------------dance-single - ----------------
#NOTES:
     dance-single:
     :
     Challenge:
     7:
     0.334,0.354,0.176,0.246,0.074:
0000
0000
0000
0000
,
0000
0000
0000
0000
,
0000
0000
0000
0000
0000
0000
0000
0000
0000
0010
0100
0000
0000
1001
0000
0000
,
0200
1000
0001
1300
,
0020
0100
0001
0130
,
2000
0001
0010
3001
,
0200
0010
1000
0310
,
1000
0000
0001
0000
0100
0010
1000
0100
,
0001
0000
0100
0000
1000
0001
0010
1000
,
0001
0000
0100
0000
0010
1000
0100
0000
,
0010
1000
0001
0000
0100
0001
1000
0000
,
0002
1000
0020
0033
,
2000
0000
0020
3030
,
1000
0001
0100
0010
0100
1000
0001
0000
,
1000
0000
0110
0000
0001
0010
0100
0000
,
2000
0000
0002
3000
,
0203
0000
0020
0300
,
0000
0000
0030
1000
0100
0000
1001
0000
,
0010
0000
0000
0010
1000
0000
0000
0000
0100
0000
0010
0000
0100
0000
0000
0000
,
0010
0000
0000
0010
0001
0000
0000
0000
1000
0000
0001
0000
0100
0000
0010
0000
,
1000
1100
0001
0101
,
1000
0010
0200
0001
0300
1001
0000
0000
,
0100
0000
0000
0100
0001
0000
0000
0000
0010
0000
0100
0000
0010
0000
0000
0000
,
0100
0000
0000
0100
1000
0000
0000
0000
0001
0000
1000
0000
0010
0000
0100
0000
,
1000
0000
0101
0000
1000
0001
0100
0000
,
0001
0010
0200
1000
0300
1001
0000
0000
,
0020
0000
0000
0030
,
0000
1000
0001
0000
0000
0110
0000
0000
1000
0000
0000
0000
0001
0000
0000
0000
,
0010
0100
1000
0000
0010
0000
0100
0000
,
1000
0100
0001
0000
1000
0010
0100
0010
,
1000
0001
0010
0100
1000
0000
0202
0000
,
0000
0000
0000
0000
0303
0000
0000
0000
0000
1000
0100
0000
0001
0000
0000
0000
,
2000
0010
3100
0010
,
0002
0000
0100
0000
0013
0000
1000
0010
,
0100
0000
0001
0000
1000
0001
0010
0001
,
0100
1000
0001
0000
0220
0000
0330
0000
,
0000
1100
0000
0000
0011
0000
0000
0000
0220
0000
0000
0000
0330
0000
0000
0000
,
0000
1010
0000
0000
0101
0000
0000
0000
1000
0000
0001
0000
1000
0000
0001
0000
,
0100
0000
0000
0000
1001
0000
0000
0000
0010
0000
0000
0010
1000
0000
0001
0000
,
0100
0000
0001
0000
1000
0000
0000
0000
0100
0000
0000
0100
0010
0000
0001
0000
,
1000
0001
0100
0010
2000
0000
0001
0000
,
3010
0100
0001
0000
0010
0100
1000
0001
,
0100
0000
0000
0000
1001
0000
0000
0000
0100
0000
0000
0100
0001
0000
1000
0000
,
0001
0000
0010
0000
0100
0000
0000
0000
1000
0000
0000
1000
0010
0000
0100
0000
,
0010
1000
0001
0100
0002
0000
1000
0000
,
0013
0000
0100
0000
1000
0000
0000
0000
0010
0000
0000
0100
0001
0000
1000
0000
,
0100
0000
0010
0000
1001
0000
0000
0000
0110
0000
0000
1000
0001
0000
0000
0000
,
0010
0100
1001
0000
2000
0000
3000
0001
,
0020
0230
2300
0000
,
0000
0000
3000
0000
0001
0000
1000
0020
,
0100
0000
1000
0000
0130
0000
0001
0010
,
0100
1001
0200
0000
,
0000
0000
0300
0000
0010
1000
0100
0001
,
1000
0000
0001
0000
0100
0000
0000
0000
0010
0000
0000
0001
0000
0000
1000
0000
,
0101
0000
0000
0000
1010
0000
0000
0000
0100
0000
0000
1000
0000
0000
0001
0000
,
1000
0010
0000
0000
0100
0001
0000
0000
2000
0000
0000
0000
0000
0000
0000
0000
,
0000
0000
3000
0000
0010
0001
0100
1000
,
0001
1000
0100
0000
2002
0000
0000
0000
,
0000
3003
0020
0000
,
0000
0030
0000
0000
;
