#TITLE:All About You;
#ARTIST:nate sallie;
#BANNER:All About You - nate sallie.png;
#BACKGROUND:All About You - nate sallie-bg.png;
#LYRICSPATH:All About You - nate sallie.lrc;
#CDTITLE:.\CDTITLES\DP2NATE.png;
#MUSIC:All About You - nate sallie.mp3;
#OFFSET:-2.176;
#SAMPLESTART:41.1;
#SAMPLELENGTH:12;
#BPMS:0=152.74;

//---------------dance-single - ----------------
#NOTES:
     dance-single:
     :
     Easy:
     2:
     0.174,0.184,0.069,0.007,0:
0000
0000
0000
0000
,
1000
0000
0001
0000
,
1000
0000
0001
0000
,
0010
0000
0100
0000
,
0010
0000
0100
0000
,
0001
0000
1000
0000
,
0001
0000
1000
0000
,
2000
0000
0000
0000
,
3000
0000
0001
0000
,
0010
1000
0000
0000
,
1000
0001
0000
0000
,
0010
1000
0000
0000
,
0001
1000
0000
0000
,
1000
0001
0000
0000
,
0010
1000
0000
0000
,
1000
0001
0000
0000
,
0001
1000
0000
0000
,
0010
0100
0000
0000
,
1000
0001
0000
0000
,
0010
0100
0000
0000
,
0001
1000
0000
0000
,
0010
0100
0000
0000
,
1000
0001
0000
0000
,
0010
0100
0000
0000
,
1000
0001
0000
0000
,
0010
0010
0000
0000
,
0001
0001
0000
0000
,
0010
0010
0000
0000
,
1001
0000
0000
0000
,
0010
0010
0000
0000
,
0001
0001
0000
0000
,
0010
0010
0000
0000
,
1000
1000
0000
0000
,
0010
0100
0000
0000
,
1000
0001
0000
0000
,
0001
1000
0000
0000
,
0110
0000
0000
0000
,
1000
0001
0000
0000
,
0011
0000
0000
0000
,
1000
0001
0000
0000
,
1010
0000
0000
0000
,
0001
1000
0000
0000
,
0110
0000
0000
0000
,
0001
1000
0000
0000
,
0010
1000
0000
0000
,
0010
0001
0000
0000
,
1000
0001
0000
0000
,
0010
1000
0000
0000
,
0001
1000
0000
0000
,
0010
0100
0000
0000
,
1000
0001
0000
0000
,
0010
0100
0000
0000
,
0001
1000
0000
0000
,
0010
0100
0000
0000
,
0001
1000
0000
0000
,
0010
0100
0000
0000
,
1000
0001
0000
0000
,
0010
0100
0000
0000
,
1000
0001
0000
0000
,
0010
0100
0000
0000
,
0001
1000
0000
0000
,
0010
0100
0000
0000
,
1000
0001
0000
0000
,
0010
1000
0000
0000
,
1000
0001
0000
0000
,
1001
0000
0000
0000
,
0010
1000
0000
0000
,
0001
1000
0000
0000
,
0010
0100
0000
0000
,
1000
0001
0000
0000
,
0010
0100
0000
0000
,
0001
1000
0000
0000
,
0010
1000
0000
0000
,
1010
0000
0000
0000
,
0010
1000
0000
0000
,
0011
0000
0000
0000
,
0010
0100
0000
0000
,
1001
0000
0000
0000
,
0010
0100
0000
0000
,
0011
0000
0000
0000
,
0010
0100
0000
0000
,
1000
0001
0000
0000
,
0010
0100
0000
0000
,
0001
1000
0000
0000
,
1000
0001
0000
0000
,
0010
0100
0000
0000
,
0001
1000
0000
0000
,
1000
0100
0000
0000
,
0010
0010
0000
0000
,
1000
0001
0000
0000
;

//---------------dance-single - ----------------
#NOTES:
     dance-single:
     :
     Challenge:
     9:
     0.562,0.521,0.503,0.076,0:
0000
0000
0000
0000
,
0000
0000
0000
0000
,
0000
0000
0000
0000
,
1000
0010
1000
0010
1000
0001
1000
0100
,
1000
0100
1000
0001
1000
0010
0100
0000
,
0001
0010
0001
1000
0001
0100
0001
0100
,
0001
0100
1001
0010
,
0220
0000
0000
0330
,
1000
0000
0101
0000
1000
0100
0001
0000
,
0001
0000
1100
0000
0001
0100
1000
0000
,
0001
0100
1000
0000
1000
0100
0001
0000
,
0100
0100
1001
0010
,
0001
0000
1100
0000
0001
0100
1000
0000
,
1000
0000
0101
0000
1000
0100
0001
0000
,
1000
0001
0110
1001
,
0100
0001
1000
0100
0001
0100
1000
0000
,
0010
0100
0010
0100
0010
0000
1001
0000
,
0100
0010
0100
0010
0100
0000
1001
0000
,
0100
0000
0010
0000
0001
0100
1000
0000
,
0010
0100
0010
0100
0010
0000
1001
0000
,
0110
0000
1000
0100
0001
0010
1000
0000
,
0110
0000
0001
0100
1000
0010
0001
0000
,
0010
1000
0100
0000
0010
0001
0100
0000
,
0010
0000
1001
0000
0100
0001
1000
0000
,
0001
0100
1000
0000
0100
0100
0100
0000
,
0001
1000
0110
0000
1000
0001
0110
0000
,
1000
0001
1000
0001
1000
0100
1001
0000
,
0010
1000
0100
0000
0101
0000
1100
0000
,
1001
0000
0000
1000
0001
0100
0010
0000
,
0101
0000
1100
0000
0010
1000
0100
0000
,
0010
1000
0001
0100
1000
0001
0100
0000
,
1002
0000
1000
0000
0100
0100
0103
0000
,
2001
0000
0010
0000
0100
0100
3100
0000
,
0010
0001
1000
0000
0010
1000
0001
0000
,
1010
0000
0101
0000
0010
0100
1000
0001
,
0200
0000
0310
1001
,
0100
1000
0001
0000
0100
0001
1000
0000
,
0010
1000
0100
0001
0010
1000
0001
0000
,
0010
0001
1000
0000
0010
1000
0001
0000
,
0100
0001
0010
1000
0100
0001
1000
0000
,
0110
0000
1001
0000
0010
0010
0010
0000
,
1000
0100
0001
0100
1000
0010
0100
0000
,
1001
0000
0110
0000
0100
0100
0100
0000
,
0001
0100
1000
0100
0001
0100
0001
1000
,
0100
0001
0010
1000
0100
0010
0100
1000
,
0001
0100
1001
0100
,
0010
1000
0110
1001
,
0010
0001
0100
0000
0010
1000
0100
0000
,
0001
0100
1000
0010
0001
0000
0110
0000
,
0001
1100
0010
0101
,
0010
0010
1001
0100
,
0010
1000
0100
0000
0010
0001
0100
0000
,
1000
0100
0001
0010
1000
0000
0110
0000
,
0001
0100
1000
0000
0001
0100
1000
0000
,
1000
0000
0101
0000
1000
0100
0001
0000
,
1000
0101
0010
1100
,
0001
0100
0010
1000
0100
0100
0100
0000
,
1000
0100
0001
0000
1000
0100
0001
0000
,
0001
0000
1100
0000
0001
0100
1000
0000
,
0001
0100
0001
0100
1000
0100
1000
0100
,
0001
0010
1000
0001
0100
1000
0001
0000
,
1000
0010
0100
0001
1000
1000
1000
0000
,
0001
1000
0110
0000
1000
0001
0110
0000
,
0001
1000
0001
1000
0001
0010
1100
0000
,
0010
0001
0100
0000
1100
0000
0101
0000
,
1001
0000
0000
0001
1000
0010
0100
0000
,
1010
0000
0011
0000
0100
0001
1000
0000
,
0100
0001
1000
0010
0001
0100
0010
0000
,
2001
0000
0001
0000
0100
0100
3100
0000
,
1002
0000
1000
0000
0010
0010
0013
0000
,
1100
0011
0101
1010
,
0001
1000
0100
0010
0001
1000
0010
0100
,
0001
0000
0000
1000
0001
1000
0100
0000
,
1001
0000
0110
0000
1000
0010
0100
0000
,
0010
1000
0100
0001
0010
1000
0001
0000
,
0100
0010
1000
0000
0100
0010
0001
0000
,
0100
0010
1000
0001
0010
0100
1001
0000
,
0110
0101
1010
1001
,
0010
0001
1000
0010
0100
1000
0001
0000
,
0110
1010
0101
0110
,
0001
1000
0010
0001
0010
1000
0100
0001
,
1000
0010
0100
0001
1000
0001
0100
0010
,
2000
0010
0100
3001
,
0002
0000
0010
0000
1000
1000
1003
0000
,
0010
0100
0100
0000
1001
0000
0100
0000
,
0010
0000
1100
0000
0010
0001
1000
0000
,
0002
0100
0010
2003
,
0010
0000
0100
0000
0001
0001
3001
0000
,
0100
0010
1000
0000
0001
0000
0110
0000
,
1001
0000
0000
0000
;

//---------------dance-single - ----------------
#NOTES:
     dance-single:
     :
     Hard:
     8:
     0.372,0.429,0.083,0.090,0:
0000
0000
1000
0010
,
0000
1000
0010
0001
,
0000
1000
0010
0001
,
0000
0010
1000
0100
,
0001
0010
1000
0100
,
1000
0001
0010
1000
,
0010
0001
0100
1000
,
0001
2000
0000
0000
,
0000
3000
0000
1000
0001
1000
0010
0000
,
0000
0000
0001
0010
,
0000
0000
0000
1000
0001
1000
0001
1000
,
0001
0010
0100
1000
0010
0001
1000
0000
,
0000
0000
0000
0010
0001
0010
0100
0000
,
0000
0000
1000
0001
,
0000
0000
0000
0000
0010
0001
0010
0100
,
0001
1000
0010
0001
0010
1000
0001
0000
,
0000
0000
0000
0010
0001
0010
0100
0000
,
0000
0000
0010
0100
,
0000
0000
0000
0010
1000
0001
1000
0001
,
0010
1000
0100
0001
0010
1000
0010
0000
,
0000
0000
0000
0010
0001
0010
0100
0000
,
0000
0000
0000
0000
0010
0100
1000
0000
,
0000
0000
0000
0000
0010
1000
0001
0010
,
1000
0010
0001
0100
1000
0010
0002
0000
,
0000
0000
0000
0000
0000
0000
0000
0003
,
0010
1000
0010
0000
0010
1000
0010
0000
,
0001
0010
0001
0010
0001
0010
0001
0000
,
0000
0000
0000
0000
1000
0010
1000
0010
,
1000
0000
0000
0000
0010
0001
0010
0001
,
0010
0000
0000
0000
0001
1000
0001
1000
,
0002
0000
0000
0000
1003
1000
0100
0010
,
0002
0000
0000
0003
2000
0000
0000
0000
,
3002
0000
0000
0000
0000
0003
1000
0000
,
0010
0000
0200
0000
0000
0300
0001
0010
,
1000
0010
0001
0000
0010
1000
0010
0000
,
0002
0000
0000
0003
0001
1000
0010
1000
,
0110
1000
0000
0000
,
1000
0000
0000
0000
0001
1000
0010
0100
,
0011
1000
0000
0000
,
1000
0000
0000
0010
1000
0100
0001
0010
,
1010
0100
0000
0000
,
0001
0000
0000
0010
0001
1000
0001
0010
,
0110
1000
0000
0000
,
0001
1000
0100
0000
,
0010
1000
0001
0000
,
0010
0000
0000
0001
0010
0001
0100
0000
,
0000
0000
1000
0001
,
0000
0000
0000
1000
0010
0001
0010
1000
,
0001
0010
1000
0001
0010
1000
0100
0000
,
0000
0000
0000
0010
0001
0010
0100
0000
,
0000
0000
1000
0001
,
0000
0000
0000
0001
1000
0001
1000
0001
,
0010
0100
1000
0010
0001
1000
0001
0000
,
0000
0000
0000
0010
0001
0010
0100
0000
,
0000
0000
0001
1000
,
0000
0000
0000
1000
0001
0010
0100
0010
,
0100
0010
0001
0010
1000
0001
1000
0000
,
0000
0000
0000
0010
0001
0010
0100
0000
,
0000
0000
1000
0001
,
0000
0000
0000
1000
0010
1000
0010
1000
,
0010
1000
0001
1000
0001
1000
0001
0000
,
0000
0000
0000
0000
,
0001
1000
0010
0000
1000
0100
0010
0000
,
0001
0010
1000
0100
0011
1000
0001
0000
,
0000
0000
0000
0010
0001
0010
0100
0000
,
1001
0000
0000
0000
0010
1000
0001
0000
,
1010
0000
0000
0000
1000
0001
1000
0001
,
1000
0000
1000
0010
0001
1000
0010
0000
,
0002
0000
0000
0003
0020
0000
0000
0030
,
2000
0000
0000
0000
0000
3000
0001
0010
,
0000
0200
0000
0000
0000
0300
0010
1000
,
0001
0010
1000
0010
0001
0010
1000
0002
,
0000
0000
0003
0000
0011
0010
0100
0000
,
1010
0100
0000
0000
,
1000
0000
0000
0010
0001
0010
0100
0000
,
0011
1000
0000
0000
,
1000
0000
0000
0010
0001
0010
0100
0000
,
1001
0100
0000
0000
,
1000
0000
0000
0010
0001
0010
0100
0000
,
0011
0100
0000
0000
,
0010
0100
1000
0000
,
1000
0001
1000
0000
,
0010
0100
0001
0000
,
0001
1000
0010
0000
,
1000
0001
1000
0000
,
0010
0100
0001
0000
,
0001
1000
0001
0000
,
1000
0100
0010
0000
,
0010
0010
1000
0000
,
1000
0000
0000
0000
;

//---------------dance-single - ----------------
#NOTES:
     dance-single:
     :
     Medium:
     4:
     0.260,0.246,0.069,0.007,0:
0000
0000
0010
0000
,
1000
0010
0001
0000
,
1000
0010
0001
0000
,
0010
1000
0100
0000
,
0010
1000
0100
0000
,
0001
0010
1000
0000
,
0001
0100
1000
0000
,
2000
0000
0000
0000
,
3000
0000
0001
0000
,
0010
1000
0001
0000
,
1000
0001
1000
0000
,
0010
1000
0001
0000
,
0001
1000
0001
0000
,
1000
0001
1000
0000
,
0010
1000
0001
0000
,
1000
0001
1000
0000
,
0001
1000
0001
0000
,
0010
0100
0010
0000
,
1000
0001
1000
0000
,
0010
0100
0010
0000
,
0001
1000
0001
0000
,
0010
0100
0010
0000
,
1000
0001
1000
0000
,
0010
0100
0010
0000
,
1000
0001
1000
0000
,
0010
0010
0010
0000
,
0001
0001
0001
0000
,
0010
0010
0010
0000
,
1001
0010
0000
0000
,
0010
0010
1000
0000
,
0001
0001
1000
0000
,
0010
0010
1000
0000
,
1000
1000
0001
0000
,
0010
0100
1000
0000
,
1000
0001
0010
0000
,
0001
1000
0001
0000
,
0110
1000
0000
0000
,
1000
0001
1000
0000
,
0011
1000
0000
0000
,
1000
0001
1000
0000
,
1010
0100
0000
0000
,
0001
1000
0001
0000
,
0110
1000
0000
0000
,
0001
1000
0100
0000
,
0010
1000
0001
0000
,
0010
0001
1000
0000
,
1000
0001
1000
0000
,
0010
1000
0010
0000
,
0001
1000
0010
0000
,
0010
0100
0001
0000
,
1000
0001
1000
0000
,
0010
0100
1000
0000
,
0001
1000
0001
0000
,
0010
0100
0010
0000
,
0001
1000
0001
0000
,
0010
0100
0001
0000
,
1000
0001
1000
0000
,
0010
0100
0001
0000
,
1000
0001
1000
0000
,
0010
0100
0010
0000
,
0001
1000
0001
0000
,
0010
0100
1000
0000
,
1000
0001
1000
0000
,
0010
1000
0001
0000
,
1000
0001
1000
0000
,
1001
0010
0000
0000
,
0010
1000
0001
0000
,
0001
1000
0001
0000
,
0010
0100
0001
0000
,
1000
0001
1000
0000
,
0010
0100
0001
0000
,
0001
1000
0001
0000
,
0010
1000
0001
0000
,
1010
0100
0000
0000
,
0010
1000
0001
0000
,
0011
1000
0000
0000
,
0010
0100
0001
0000
,
1001
0100
0000
0000
,
0010
0100
1000
0000
,
0011
0100
0000
0000
,
0010
0100
1000
0000
,
1000
0001
1000
0000
,
0010
0100
0001
0000
,
0001
1000
0010
0000
,
1000
0001
1000
0000
,
0010
0100
0001
0000
,
0001
1000
0001
0000
,
1000
0100
0010
0000
,
0010
0010
1000
0000
,
1000
0001
0000
0000
;
