#TITLE:About You;
#ARTIST:ZOEgirl;
#BANNER:About You - ZOEgirl.png;
#BACKGROUND:About You - ZOEgirl-bg.png;
#LYRICSPATH:About You - ZOEgirl.lrc;
#CDTITLE:.\CDTITLES\DP2ZOE.png;
#MUSIC:About You - ZOEgirl.mp3;
#OFFSET:-1.223;
#SAMPLESTART:33.24;
#SAMPLELENGTH:12;
#BPMS:0=90;
#BGCHANGES:0=About You - ZOEgirl.AVI=1=1=1=0,999=-=1=0=0=0;

//---------------dance-single - ----------------
#NOTES:
     dance-single:
     :
     Easy:
     1:
     0.112,0.130,0.020,0.034,0:
0000
0000
0000
0000
,
0000
1000
0000
0000
,
0000
0010
0000
0001
,
0000
1000
0000
0010
,
0000
0001
0000
1000
,
0000
0010
0000
0001
,
0000
1000
0000
0010
,
0000
0001
0000
0100
,
0000
0010
0000
0001
,
0000
1000
0000
0010
,
0000
0001
0000
1000
,
0000
0010
0000
1000
,
0011
1000
0100
0000
,
0010
0001
0000
0010
,
0000
1000
0000
0100
,
0000
0001
0000
0100
,
0000
1000
0000
0010
,
0000
0001
0000
1000
,
0000
0010
0000
0001
,
0000
1000
0000
0001
,
0000
0020
0000
0000
0000
0000
0000
0000
,
0000
0030
1000
0000
0000
0000
0001
0000
,
0000
0010
0000
0100
,
0000
1000
0000
0001
,
0000
0010
0000
0100
,
0000
1000
0000
0001
,
0000
0010
0000
1000
,
0000
0001
0000
1000
,
0000
0010
0000
1000
,
0000
0001
0000
1000
,
0000
0010
0000
1000
,
0000
0001
0000
0100
,
1001
0010
1000
0000
,
0010
0001
0000
1000
,
0000
0010
0000
0001
,
0000
1000
0000
0010
,
0000
0001
0000
0100
,
0000
0010
0000
0001
,
0000
1000
0000
0001
,
0000
0010
0000
1000
,
0020
0000
0030
1000
,
0000
0010
0000
1000
,
0000
0001
0000
0010
,
0000
1000
0000
0100
,
0000
0000
0010
0000
0000
0000
0001
2000
,
0000
0000
0000
3000
,
0020
0000
0030
1000
,
0000
0010
0000
0001
,
0000
1000
0000
0100
,
0011
1000
0000
0100
,
0000
0001
0000
0100
,
0000
0010
0000
0010
,
0000
1000
0000
0001
,
0000
0020
0000
0000
0000
0000
0000
0000
,
0000
0030
0000
0100
,
0000
0010
0000
0000
;

//---------------dance-single - ----------------
#NOTES:
     dance-single:
     :
     Challenge:
     7:
     0.291,0.312,0.060,0.080,0.057:
0000
0000
0000
0000
,
0000
0000
0000
0000
,
1000
0010
1000
0000
0001
0100
0001
0000
,
2000
3000
0002
0003
,
1000
0100
0001
0100
,
1000
0010
0100
0000
0100
0010
1000
0000
,
0001
0010
1000
0010
,
0001
0100
0010
0000
0010
0100
0001
1000
,
0100
0000
0100
0000
0010
0100
1000
0000
,
0001
0100
1000
0000
1000
0100
0001
0000
,
1000
0001
1000
0001
1000
0010
1000
0010
,
1000
0100
0001
0100
1000
0000
0000
0000
,
1000
0001
0100
0000
0010
0100
0010
0000
,
2000
0000
0000
0000
3000
0000
0000
0001
0000
1000
0000
0001
0000
0000
0000
0000
,
0010
0100
1000
0000
0001
1000
0001
0000
,
0200
0000
0000
0000
0300
0000
0000
0000
0010
0000
0000
0010
0000
0000
1000
0000
,
0001
0000
0000
0100
0000
0000
0100
0000
0001
0000
0000
1000
0000
0000
1000
0000
,
0001
0010
0001
1000
0100
0010
0001
0000
,
1000
1000
1010
1001
,
1010
0010
0010
0100
0001
0000
0000
0000
,
1000
0000
0001
0010
0200
0000
0000
0000
,
0010
0010
0310
0000
0001
1000
0100
0000
,
1000
0010
0100
0001
1000
0000
0002
1000
,
0000
0000
1003
0000
1000
0001
1000
0000
,
0010
0100
0001
0000
0100
0010
1000
0000
,
0001
0000
1000
0000
0100
0100
0010
0000
,
0100
1000
0001
0000
1000
0001
0100
0000
,
0010
0000
0000
0100
0000
0000
0001
0000
0000
0000
0000
0000
1000
0000
0000
0000
,
0100
0010
0001
0000
0010
0100
1000
0000
,
0001
0000
1000
0000
0010
0010
0100
0000
,
0001
1000
0001
0100
0001
1000
0001
0100
,
0100
0010
1000
0001
0010
0100
1000
0001
,
0100
0000
0000
0000
0010
0000
0000
1000
0000
0000
0001
0000
0100
0000
0000
0000
,
0002
0000
0000
0000
0003
0000
0000
1000
0000
0001
0000
1000
0000
0000
0000
0000
,
0010
0000
1000
0000
0100
0000
0000
0010
0000
0000
0001
0000
1000
0000
0000
0000
,
0020
0000
0000
0000
0030
0000
0000
0000
0100
0000
0000
0100
0000
0000
0010
0000
,
1000
0000
0000
0001
0000
0000
1000
0000
0100
0000
0000
0001
0000
0000
0100
0000
,
1000
0010
0001
0010
1000
0001
0100
0000
,
0001
0001
0001
0000
0011
0000
1001
0000
,
0011
0010
0010
0010
0010
0000
1001
0000
,
1000
0000
0001
1000
0001
1000
0010
0100
,
0001
0000
0000
1000
0010
1000
0010
0100
,
0001
0000
0010
0000
1000
0100
0010
0001
,
0000
0100
0000
0010
0000
0010
0100
0000
,
1001
0000
0010
1000
0000
0001
0000
0200
,
0000
0000
0000
0300
,
0020
0030
1000
0000
,
0001
1000
0001
0000
0001
1000
0001
0010
,
0001
1000
0001
0000
0001
0000
0110
0001
,
1000
0000
0000
0010
0000
0000
0010
0000
1000
0000
0000
0100
0000
0000
0010
0000
,
0001
1000
0001
0100
0010
1000
0001
0000
,
0010
0100
0010
0100
0001
0100
0001
0100
,
0001
1000
0001
0010
1000
0010
0001
0000
,
0000
2000
0010
0000
0010
0000
0010
0000
,
0200
0000
0000
3300
;

//---------------dance-single - ----------------
#NOTES:
     dance-single:
     :
     Hard:
     6:
     0.322,0.314,0.047,0.107,0:
0000
0000
0000
0000
,
0000
1000
0001
1000
,
0001
0010
1000
0001
,
0010
0000
1000
0000
0001
0000
0010
0001
,
1000
0010
0001
0000
0010
0001
1000
0001
,
0100
0020
0000
0030
1000
0000
0001
1000
,
0010
0001
0000
1000
0001
0100
0000
0001
,
1000
0000
0001
0000
0010
0000
0100
1000
,
0100
0020
0000
0030
0100
1000
0000
0001
,
1000
0010
0000
0000
1000
0100
0010
0001
,
1000
0100
0001
1000
0001
1000
0001
0000
,
0100
0010
0100
0010
0100
0010
2000
3000
,
0011
0100
1000
0001
0100
1000
0001
1000
,
0020
0000
0000
0030
1000
0001
0010
0000
,
0001
0010
1000
0010
0001
1000
0100
0001
,
2000
0000
0000
3000
0001
1000
0100
1000
,
0001
0010
1000
0000
0001
1000
0010
0001
,
1000
0010
0001
1000
0020
0000
0030
0001
,
0100
0001
0010
0001
1000
0000
0001
1000
,
0010
0001
1000
0001
0100
0000
0001
0010
,
1000
0020
1000
0000
0000
0000
1000
0000
,
0000
0030
1000
0000
0010
1000
0001
0010
,
1000
0001
0010
0000
0001
0000
0100
1000
,
0001
0000
1000
0000
0010
0000
0001
0010
,
1000
0001
0010
0001
2000
0000
3000
0010
,
0001
0010
1000
0000
0010
0000
0001
0010
,
1000
0001
0010
1000
0001
0010
1000
0001
,
0100
0000
0001
0000
0010
0000
1000
0010
,
0001
1000
0010
1000
0100
0001
1000
0001
,
0010
1000
0001
0010
0100
0001
1000
0000
,
0001
1000
0010
0001
0100
0001
1000
0000
,
0010
1000
0001
0010
1000
0001
0100
0000
,
1001
0100
0010
0001
1000
0010
0001
1000
,
0020
0000
0000
0030
0100
0001
1000
0000
,
0001
1000
0010
0001
1000
0010
0001
1000
,
0020
0000
0000
0030
0001
1000
0010
0000
,
1000
0010
0001
0000
0010
1000
0100
0000
,
0001
1000
0010
0001
1000
0000
0001
0000
,
0010
0001
1000
0001
0100
0000
0001
0010
,
0100
1000
0010
0001
0100
0000
1000
0001
,
0020
0000
0000
1030
0001
0010
1000
0010
,
0001
0000
0010
1000
0001
0010
1000
0000
,
0010
0000
0001
0000
1000
0001
0010
0000
,
0001
0000
1000
0010
0001
0000
0100
1000
,
0001
0000
0010
0001
1000
0000
0001
2000
,
0000
0000
0000
3000
,
0020
0000
0000
0030
0000
0000
0000
1010
,
0001
0000
0020
0000
0000
0030
0000
1001
,
0010
0000
2000
3000
0001
1000
0100
0000
,
0011
0100
1000
0000
0101
1000
0010
0001
,
1000
0010
0001
1000
0010
0000
0100
0001
,
1000
0001
0010
0001
1000
0000
0010
1000
,
0001
0010
1000
0001
0010
0000
0001
0100
,
1001
0020
1000
0000
0000
0000
1000
0000
,
0000
0000
1000
0030
0001
0100
1000
0001
,
1000
0000
0000
0000
;

//---------------dance-single - ----------------
#NOTES:
     dance-single:
     :
     Medium:
     4:
     0.201,0.204,0.027,0.060,0:
0000
0000
0000
0000
,
0000
1000
0000
0001
,
0000
0010
1000
0001
,
0010
1000
0001
0010
,
1000
0001
0010
1000
,
0100
0010
1000
0001
,
0010
1000
0001
0010
,
1000
0001
0010
0100
,
0100
0010
0100
0001
,
1000
0001
1000
0010
,
1000
0001
0010
1000
,
0100
0010
0010
1000
,
0011
1000
0100
0001
,
0020
0000
0000
0030
1000
0000
0010
0000
,
0001
1000
0001
0100
,
2000
0000
0000
3000
0001
0000
0100
0000
,
0001
1000
0001
0010
,
1000
0001
0010
1000
,
0100
0010
1000
0001
,
0010
1000
0100
0001
,
1000
0020
0000
0000
0000
0000
0000
0000
,
0000
0030
1000
0000
0010
0000
0001
0000
,
1000
0010
0001
0100
,
0001
1000
0010
0001
,
1000
0010
1000
0100
,
0001
1000
0010
0001
,
1000
0010
0001
1000
,
0100
0001
0010
1000
,
0001
0010
0100
1000
,
0010
0001
0100
1000
,
0001
0010
0100
1000
,
0010
0001
1000
0100
,
1001
0010
1000
0001
,
0020
0000
0000
0030
0100
0000
1000
0000
,
0001
0010
1000
0001
,
0020
0000
0000
0030
0001
0000
0010
0000
,
1000
0001
0010
0100
,
0001
0010
1000
0001
,
0010
1000
0100
0001
,
0100
0010
0100
1000
,
0020
0000
0000
0030
0001
0000
1000
0000
,
0001
0010
0001
1000
,
0010
0001
1000
0010
,
0001
1000
0001
0100
,
0001
0000
0010
0000
1000
0000
0001
2000
,
0000
0000
0000
3000
,
0020
0000
0030
1000
,
0001
0010
1000
0001
,
0010
1000
0001
0100
,
0011
1000
0101
0010
,
1000
0001
0010
0100
,
1000
0010
1000
0010
,
0001
1000
0010
0001
,
1000
0020
0000
0000
0000
0000
0000
0000
,
0000
0000
0000
0030
0100
0000
0001
0000
,
0000
0010
0000
0000
;
