#TITLE:Yellow Head Joe;
#SUBTITLE:;
#ARTIST:S-C-U;
#TITLETRANSLIT:;
#SUBTITLETRANSLIT:;
#ARTISTTRANSLIT:;
#CREDIT:;
#BANNER:;YHJBanner.JPG
#BACKGROUND:;yhjBG.jpg
#LYRICSPATH:;
#CDTITLE:;AuthorTitle.png
#MUSIC:11. yellow head joe.mp3;
#OFFSET:0.000;
#SAMPLESTART:32.000;
#SAMPLELENGTH:11.980;
#SELECTABLE:YES;
#BPMS:0.000=187.000,90.750=93.060,94.750=274.400,94.875=373.999,99.000=373.999,216.750=187.000,272.750=93.060,276.750=373.998,277.000=373.998,388.500=573.996;
#STOPS:34.000=0.120
,216.750=0.980
;
#BGCHANGES:;

//---------------dance-single - ----------------
#NOTES:
     dance-single:
     :
     Challenge:
     18:
     1.000,1.000,0.324,0.162,1.000:
0000
0000
0000
0000
1000
0000
1001
0000
0000
0000
0110
0000
0000
0000
0100
0010
,
1000
0000
0010
0000
0100
0000
0100
0000
0010
0000
0001
0010
0100
0000
0010
0000
,
0010
0001
0010
0000
0110
0000
1001
0000
,
0100
1000
0010
0000
0001
0000
1000
0000
1000
0000
0010
0001
0010
0000
0010
0000
,
0010
0010
0100
0000
0110
0000
1001
0000
,
0100
1000
0010
0000
0001
0000
1000
0000
0001
0000
0100
0000
0010
0000
1000
0000
,
0010
0000
0100
0000
0000
0000
0110
0000
0000
0000
1001
0000
0000
0000
0100
1000
,
0010
0000
0001
0000
1000
0000
0001
0000
0100
0000
0100
0001
0010
0000
0100
0000
,
0100
0000
1000
0000
0100
0000
0000
0000
0110
0000
0000
1000
0100
0000
0010
0001
,
0000
0100
1000
0000
0010
0001
0010
0100
1000
0100
0100
0010
0000
0010
0100
0000
,
0100
0010
0000
0100
0001
0000
0010
1000
0010
0100
0010
0000
0010
0001
0000
0010
,
0100
0000
1000
0100
0000
0100
0010
0000
0001
0100
0000
1000
0010
0000
0100
0010
,
0000
0100
0001
0000
0010
1000
0000
0100
0010
0000
0100
0001
0000
0100
0010
0100
,
0100
0010
1000
0010
0100
0010
0001
1000
0100
0000
0010
0001
0000
0010
0100
0000
,
1000
0000
0100
0010
0000
0010
0001
0000
0001
0010
0000
0010
0100
0000
1000
0100
,
0000
0100
0010
0000
0001
0010
0000
0100
1000
0000
0100
0010
0000
0100
0010
0000
,
0010
0100
0000
0100
0010
0000
0010
1000
0000
0100
0001
0000
0010
0100
0000
0010
,
1000
0000
0100
0001
0000
0010
1000
0000
0100
0001
0010
1000
0000
0100
0010
0000
,
0010
0001
0000
0010
0100
0000
0100
1000
0000
0100
0010
0001
0010
0000
0100
1000
,
0000
0010
0100
0000
0100
0001
0000
0010
1000
0000
0100
0010
0000
0010
0100
0000
,
0100
0010
0000
0010
0100
0010
0001
0010
0100
1000
0000
0010
0100
0000
0001
0010
,
0000
0100
1000
0000
0100
0010
0000
0001
0010
0000
0000
0100
1000
0000
0100
0010
,
0000
0000
0000
0000
0010
0000
0001
0000
0000
0000
0100
0000
1000
0000
0000
0000
0100
0000
0010
0000
0000
0000
0010
0001
0000
0010
0100
0000
0100
1000
0000
0010
,
0100
0000
0100
0001
0000
0010
0100
0000
0100
1000
0000
1000
0100
0000
0100
0010
0000
0010
0001
0000
0010
0100
0000
0000
1000
0000
0000
0000
0000
0000
0000
0000
,
0100
0010
0001
0010
,
0100
1000
0100
0010
,
0100
0001
0010
0100
,
1000
0100
0010
0100
,
0010
0100
0020
0000
,
0130
0010
0100
0010
,
2000
0000
3010
0100
,
0010
0002
0003
0001
,
0001
1000
0010
0100
,
0010
0002
0000
0003
,
0001
0010
0200
0000
,
0310
0000
0001
0000
0010
0000
0100
0010
,
0000
1000
0100
0000
0100
0000
0010
0001
,
0000
0010
0100
0000
1000
0100
0000
0100
,
0000
0100
0010
0001
0001
0010
0010
0000
,
0100
1000
0000
1001
,
0100
0010
0001
0100
,
0010
0100
0200
0000
,
0310
0001
0010
0100
,
0010
0200
0310
0100
,
0010
0200
0000
0310
,
0100
0010
0001
0010
,
0020
0000
0130
0010
,
0001
0010
0100
2100
,
3100
0210
0301
0021
,
0130
1200
0310
0001
,
0010
0001
0100
0001
1000
0001
0100
0001
,
0010
0000
0001
0000
0100
0000
0001
0000
0010
0000
0100
0000
0000
0010
0000
0000
,
0000
0000
0000
0000
0000
0000
0000
1100
0000
0000
0000
0000
0000
0000
0000
0011
,
0000
0000
0000
0000
0000
0000
0000
1100
0000
0000
0000
0000
0000
0000
0000
0000
,
0100
0000
0000
0000
0000
0000
0000
0000
0000
0000
0000
0000
0000
0000
0000
0000
0000
0000
0000
0000
0000
0000
0000
0000
0000
0000
0000
0000
0000
0000
0000
0000
0000
0000
0000
0000
0101
0000
0000
0000
1000
0000
0000
0000
0000
0000
0000
0000
0000
0000
0000
0000
0000
0000
0100
0000
0000
0000
0000
0000
0000
0000
0000
0000
0000
0000
0000
0000
0000
0000
0000
0000
0100
0000
0000
0000
0000
0000
0000
0000
0000
0000
0000
0000
0010
0000
0000
0000
0000
0000
0000
0000
0000
0000
0000
0000
0000
0000
0000
0000
0000
0000
0000
0000
0000
0000
0000
0000
0001
0000
0000
0000
0000
0000
0000
0000
0000
0000
0000
0000
0000
0000
0000
0000
0000
0000
0000
0000
0000
0000
0000
0000
0010
0000
0000
0000
0000
0000
0000
0000
0000
0000
0000
0000
0000
0000
0000
0000
0000
0000
0000
0000
0000
0000
0000
0000
0100
0000
0000
0000
0000
0000
0000
0000
0000
0000
0000
0000
0000
0000
0000
0000
0000
0000
0000
0000
0000
0000
0000
0000
1000
0000
0000
0000
0000
0000
0000
0000
0000
0000
0000
0000
,
0000
0100
0000
0100
0010
0000
0001
0010
0000
0100
1000
0000
0000
0100
0000
0010
,
0000
0001
0000
0010
0000
0100
0000
1000
0000
0100
0000
0010
0000
0001
0000
0010
,
0000
0100
0000
2000
0000
0000
0000
0000
0000
0000
3000
0000
0000
0100
0000
1000
,
0000
1000
0000
1000
0100
0000
0100
0010
0000
0010
0001
0000
0000
0010
0000
0100
,
0000
1000
0000
0100
0010
0000
0001
0010
0000
0100
1000
0000
0000
0100
0000
0010
,
0000
0001
0000
0010
0100
0000
1000
0100
0000
0100
0010
0000
0010
0001
0000
0001
,
0010
0000
0100
1000
0000
1000
0100
0000
0010
0100
0000
0100
0010
0001
0001
0010
,
0100
1000
0000
0100
0000
0010
0001
0000
0001
0010
0000
0100
1000
0000
0000
0100
,
0000
0010
0000
0001
0000
0001
0010
0000
0100
1000
0000
1000
0100
0000
0000
0010
,
0000
0001
0000
0010
0000
0100
1000
0000
0100
0010
0000
0010
0001
0000
0000
0010
,
0000
0100
0000
2000
0000
0000
0000
0000
0000
0000
0000
3000
0000
1000
0000
1000
,
0000
1000
0000
1000
0010
0000
0100
0001
0000
0001
0010
0000
0000
0100
0000
1000
,
0000
0100
0000
0010
0001
0000
0010
0100
0000
1000
0100
0000
0000
0100
0000
0010
,
0000
0000
0001
0000
0000
0000
1000
0010
0000
0010
0001
0000
0010
0100
0000
0100
1000
0000
1000
0100
0000
0100
0010
0000
0001
0010
0100
1000
0100
0010
0001
0010
,
0200
1300
0100
0010
0001
0000
0000
0000
1000
0000
0000
0000
0100
0000
0000
0000
0000
0000
0000
0000
0010
0000
0000
0000
0001
0000
0000
0000
0000
0000
0000
0000
,
0010
0100
0000
1000
0100
0000
0100
0010
,
0000
0001
0010
0000
0100
1000
0000
0100
,
0010
0000
0001
0010
0100
1000
0100
0010
,
0000
1001
0000
1000
0100
0000
0010
0001
,
0000
0100
1000
0000
0100
0010
0000
0001
,
0010
0110
0000
0100
0010
0000
0001
0010
,
0000
0100
1000
0000
0100
0010
0001
0010
,
0000
0100
1000
0000
0100
0010
0000
0000
,
0010
0001
0000
0100
1000
0000
0100
0010
,
0000
0001
0010
0000
0100
1000
0000
1000
,
0100
0000
0100
0010
0000
0001
0010
0000
,
0100
1000
0000
0100
0100
0000
0010
0010
,
0000
0001
0001
0000
0010
0010
0000
0100
,
1000
0000
1000
0100
0000
0010
0100
0000
,
0010
0100
0001
0100
0010
1000
0010
0100
,
0010
0000
0001
0010
0000
0100
1000
0000
,
0100
0010
0000
0001
0010
0000
1000
0100
,
0010
0001
0000
0001
0010
0000
0100
1000
,
0000
0100
0010
0000
0001
0010
0100
0001
,
0010
0100
1000
0000
1000
0100
0000
0010
,
0001
0000
0010
0100
0000
1000
0100
0000
,
0010
0001
0000
0001
0010
0000
0100
1000
,
1000
0100
0010
0000
0001
0010
0100
0000
,
1001
1000
0000
1000
0100
0000
0010
0001
,
0000
0010
0010
0000
0100
0100
0000
1000
,
1000
0000
0100
0010
0000
0001
0010
0000
,
0100
0000
1000
0000
1000
0000
0010
0001
0010
0000
1000
0000
0010
0000
0010
0000
,
0000
1100
0000
0000
0000
0000
0011
0000
,
0000
0000
0000
1100
0000
0000
0000
0000
,
0110
0000
0000
0000
0000
0101
0000
0000
,
0000
1010
0000
1100
,
0000
0000
1001
0000
0000
0000
0000
1010
,
0000
0000
0000
0011
0000
0000
1100
0000
;

//---------------dance-single - ----------------
#NOTES:
     dance-single:
     :
     Hard:
     15:
     0.635,0.884,0.162,0.101,0.476:
0000
0000
1000
1001
0000
0110
0000
0100
,
1000
0010
0100
0100
0010
0001
0100
0010
,
0010
0001
0010
0000
0110
0000
1001
0000
,
0100
0010
0001
1000
1000
0010
0010
0010
,
0010
0010
0100
0000
0110
0000
1001
0000
,
0100
0010
0001
1000
0001
0100
0010
1000
,
0010
0100
0000
0110
0000
1001
0000
0100
,
0010
0001
1000
0001
0100
0100
0010
0100
,
0100
0000
1000
0000
0100
0000
0000
0000
0110
0000
0000
1000
0000
0000
0001
0000
,
0000
0100
0000
0000
0000
0001
0000
0000
1000
0000
0000
0010
0000
0000
0001
0000
,
0000
0010
0000
0000
1000
0000
0000
1000
0000
0100
0000
0000
0000
0001
0000
0000
,
0100
1000
0000
0010
0001
0000
0010
0100
,
0000
0001
0010
0000
0010
0100
0000
0010
,
0100
1000
0100
0001
0100
0010
0000
0100
,
1000
0100
0000
0001
0001
0000
0100
1000
,
0000
0010
0001
0000
1000
0100
0000
0010
,
0010
0000
0010
0010
0000
0001
0010
0000
,
1000
0100
0000
1000
0100
0010
0000
0010
,
0010
0000
0100
0100
0000
0010
0010
0100
,
0000
0100
0100
0000
1000
0100
0000
0100
,
0100
0000
0100
0001
0100
0000
0100
0001
,
0000
1000
0100
0000
0010
0000
1000
0100
,
0000
0000
0010
0000
0000
0000
1000
0000
0100
0000
0000
0010
0000
0100
0100
0000
,
0100
0100
0000
0100
0100
0000
0100
0100
0000
0001
0010
0000
1000
0000
0000
0000
,
0000
0010
0000
0010
,
0000
1000
0000
0010
,
0000
0001
0000
0100
,
0000
0100
0010
0100
,
0010
0100
0020
0000
,
0130
0010
0100
0010
,
2000
0000
3010
0100
,
0010
0002
0003
0001
,
0000
1000
0000
0100
,
0000
0002
0000
0003
,
0001
0000
0200
0000
,
0300
0000
0010
0100
,
0000
0100
0100
0010
,
0000
0100
1000
0000
,
0000
0010
0001
0010
,
0100
1000
0000
1001
,
0000
0010
0000
0100
,
0000
0200
0000
0000
,
0310
0000
0010
0000
,
0010
0100
0010
0100
,
0010
0200
0000
0310
,
0100
0010
0001
0010
,
0020
0000
0130
0010
,
0001
0010
0100
1000
,
0000
0001
0000
0100
,
0000
1000
0010
0001
,
0010
0100
1000
0100
,
0010
0000
0000
0000
0100
0000
0000
0000
0010
0000
0000
0000
0000
0010
0000
0000
,
0000
0000
0000
0000
0000
0000
0000
1100
0000
0000
0000
0000
0000
0000
0000
0011
,
0000
0000
0000
0000
0000
0000
0000
1100
0000
0000
0000
0000
0000
0000
0000
0000
,
0100
0000
0000
0000
0000
0000
0000
0000
0000
0101
1000
0000
0000
0000
0000
0000
0000
0000
0100
0000
0000
0000
0000
0000
0000
0000
0000
0001
0000
0000
0000
0000
0000
0010
0000
0000
0000
0000
0000
0100
0000
0000
0000
0000
0000
1000
0000
0000
,
0000
0100
0000
0100
0000
0000
0010
0000
0000
0100
0000
0000
0000
0100
0000
0010
,
0000
0001
0000
0010
0000
0100
0000
0000
0000
0100
0000
0010
0000
0001
0000
0010
,
0000
0100
0000
2000
0000
0000
0000
0000
0000
0000
3000
0000
0000
0100
0000
1000
,
0000
1000
0000
1000
0000
0000
0100
0000
0000
0010
0000
0000
0000
0010
0000
0100
,
0000
1000
0000
0100
0000
0000
0001
0000
0000
0100
0000
0000
0000
0100
0000
0010
,
0000
0001
0000
0100
0000
0000
0100
0000
0000
0010
0000
0000
0001
0000
0000
0000
,
0010
0000
0000
1000
0000
0000
0100
0000
0010
0000
0000
0000
0010
0000
0001
0010
,
0100
1000
0000
0100
0000
0000
0001
0000
0000
0100
0000
0000
0000
1000
0000
0100
,
0000
0010
0000
0000
0001
0000
0000
0010
0000
1000
0000
0000
0100
0000
0000
0010
,
0000
0001
0000
0010
0000
0100
0000
1000
0000
0010
0000
0010
0000
0001
0000
0010
,
0000
0100
0000
2000
0000
0000
0000
0000
0000
0000
0000
3000
0000
1000
0000
1000
,
0000
1000
0000
1000
0000
0000
0100
0000
0000
0001
0000
0001
0000
0100
0000
1000
,
0000
0100
0000
0010
0000
0000
0010
0000
0000
0000
0100
0000
0000
0100
0000
0010
,
0000
0001
0000
1000
0000
0001
0010
0000
1000
1000
0000
0010
0001
0100
0100
0001
,
1000
0100
0001
0000
1000
0000
0000
0000
0000
0000
0000
0000
0001
0000
0000
0000
,
0010
0000
0100
0100
,
0000
0010
0100
0000
,
0010
0001
0100
0100
,
0000
1001
0000
1000
0000
0000
0000
0001
,
0000
0100
0000
0000
0000
0010
0000
0001
,
0000
0110
0000
0100
0000
0000
0000
0010
,
0000
0100
0000
0000
0000
0010
0000
0010
,
0000
0100
0000
0000
0000
0010
0000
0000
,
0000
0001
0000
0100
0000
0000
0000
0010
,
0000
0001
0000
0000
0000
1000
0000
1000
,
0000
0000
0000
0010
0000
0001
0000
0000
,
0000
1000
0000
0100
0000
0000
0000
0010
,
0000
0001
0000
0000
0000
0010
0000
0100
,
0000
0000
0000
0100
0000
0010
0000
0000
,
0000
0100
0000
0100
0000
1000
0000
0100
,
0000
0000
0000
0010
0000
0100
0000
0000
,
0000
0010
0000
0001
0000
0000
0000
0100
,
0000
0001
0000
0001
0000
0000
0000
1000
,
0000
0100
0000
0000
0000
0010
0000
0001
,
0000
0100
0000
0000
0000
0100
0000
0010
,
0000
0000
0000
0100
0000
1000
0000
0000
,
0000
0001
0000
0001
0000
0000
0000
1000
,
0000
0100
0000
0000
0000
0010
0000
0000
,
0000
1000
0000
1000
0000
0000
0000
0001
,
0000
0010
0000
0000
0000
0100
0000
1000
,
0000
0000
0000
0010
0000
0001
0000
0000
,
0000
1000
0000
0010
0000
1000
0000
0010
,
0000
0010
0000
0000
0000
0000
0010
0000
,
0000
0000
0000
0010
0000
0000
0000
0000
,
0010
0000
0000
0000
0000
0100
0000
0000
,
0000
0100
0000
0100
,
0000
0000
0100
0000
0000
0000
0000
0100
,
0000
0000
0000
0010
0000
0000
0010
0000
;

//---------------dance-single - ----------------
#NOTES:
     dance-single:
     :
     Medium:
     11:
     0.402,0.572,0.061,0.020,0.339:
0000
0000
1000
1000
0000
0100
0000
0000
,
1000
0100
0010
0100
,
0010
0000
0010
0010
0010
0000
0001
0000
,
0100
0001
1000
0010
,
0010
0000
0100
0010
0010
0000
1000
0000
,
0100
0001
0001
0010
,
0010
0000
0000
0010
0000
1000
0000
0100
,
0000
0001
0000
0001
0000
0100
0000
0100
,
0000
0000
1000
0000
0000
0000
0000
0000
0100
0000
0000
1000
0000
0000
0000
0000
,
0000
0100
0000
0000
0000
0001
0000
0000
0000
0000
0000
0010
0000
0000
0000
0000
,
0000
0010
0000
0000
0000
0000
0000
1000
0000
0000
0000
0000
0000
0001
0000
0000
,
0100
0000
0001
0010
,
0000
0010
0010
0000
,
0100
0100
0100
0000
,
1000
0000
0001
0100
,
0000
0001
1000
0000
,
0010
0010
0000
0010
,
1000
0000
0100
0000
,
0010
0100
0000
0010
,
0000
0100
1000
0000
,
0100
0100
0100
0100
,
0000
0100
0010
1000
,
0000
0000
0000
0000
0000
0000
0000
0000
0100
0000
0000
0010
0000
0100
0000
0000
,
0100
0000
0000
0000
0100
0000
0000
0100
0000
0001
0000
0000
1000
0000
0000
0000
,
0000
0010
0000
0010
,
0000
1000
0000
0010
,
0000
0001
0000
0100
,
0000
0100
0010
0100
,
0010
0100
0010
0000
,
0100
0010
0100
0010
,
1000
0000
0010
0100
,
0010
0001
0000
0001
,
0000
1000
0000
0100
,
0000
0001
0000
0000
,
0001
0000
0100
0000
,
0000
0000
0010
0100
,
0000
0100
0100
0010
,
0000
0100
1000
0000
,
0000
0010
0000
0010
,
0000
1000
0000
1001
,
0000
0010
0000
0100
,
0000
0100
0000
0000
,
0010
0000
0010
0000
,
0010
0000
0010
0000
,
0010
0100
0000
0010
,
0000
0010
0000
0010
,
0010
0000
0100
0010
,
0000
0010
0000
1000
,
0000
0001
0000
0100
,
0000
1000
0010
0000
,
0010
0000
1000
0000
,
0010
0000
0000
0000
0100
0000
0000
0000
0000
0000
0000
0000
0000
0010
0000
0000
,
0000
0000
0000
0000
0000
0000
0000
1100
0000
0000
0000
0000
0000
0000
0000
0011
,
0000
0000
0000
0000
0000
0000
0000
1100
0000
0000
0000
0000
0000
0000
0000
0000
,
0000
0000
0000
0000
0000
0000
0000
0000
0000
0101
1000
0000
0000
0000
0000
0000
0000
0000
0100
0000
0000
0000
0000
0000
0000
0000
0000
0001
0000
0000
0000
0000
0000
0000
0000
0000
0000
0000
0000
0000
0000
0000
0000
0000
0000
1000
0000
0000
,
0000
0100
0000
0100
0000
0000
0010
0000
0000
0100
0000
0000
0000
0000
0000
0000
,
0000
0001
0000
0010
0000
0000
0000
0000
0000
0000
0000
0010
0000
0001
0000
0010
,
0000
0100
0000
2000
0000
0000
0000
0000
0000
0000
3000
0000
0000
0100
0000
1000
,
0000
1000
0000
1000
0000
0000
0100
0000
0000
0000
0000
0000
0000
0000
0000
0100
,
0000
1000
0000
0100
0000
0000
0001
0000
0000
0100
0000
0000
0000
0000
0000
0000
,
0000
0000
0000
0100
0000
0000
0100
0000
0000
0010
0000
0000
0001
0000
0000
0000
,
0010
0000
0000
1000
0000
0000
0100
0000
0010
0000
0000
0000
0010
0000
0001
0000
,
0100
0000
0000
0100
0000
0000
0001
0000
0000
0100
0000
0000
0000
0000
0000
0000
,
0000
0000
0000
0000
0001
0000
0000
0010
0000
1000
0000
0000
0100
0000
0000
0010
,
0000
0000
0000
0000
0000
0000
0000
1000
0000
0000
0000
0010
0000
0001
0000
0000
,
0000
0100
0000
2000
0000
0000
0000
0000
0000
0000
0000
3000
0000
1000
0000
1000
,
0000
1000
0000
1000
0000
0000
0100
0000
0000
0001
0000
0000
0000
0100
0000
1000
,
0000
0100
0000
0010
0000
0000
0010
0000
0000
0000
0100
0000
0000
0000
0000
0000
,
0000
0001
0000
1000
0000
0001
0000
0000
0000
1000
0000
0010
0000
0100
0000
0001
,
0000
0100
0000
0000
1000
0000
0000
0000
0000
0000
0000
0000
0001
0000
0000
0000
,
0010
0000
0100
0000
,
0000
0010
0100
0000
,
0010
0001
0100
0000
,
0000
1001
0000
1000
0000
0000
0000
0001
,
0000
0100
0000
0000
0000
0010
0000
0000
,
0000
0000
0000
0100
0000
0000
0000
0010
,
0000
0000
0000
0000
0000
0000
0000
0010
,
0000
0000
0000
0000
0000
0010
0000
0000
,
0000
0000
0000
0100
0000
0000
0000
0010
,
0000
0000
0000
0000
0000
1000
0000
0000
,
0000
0000
0000
0010
0000
0000
0000
0000
,
0000
1000
0000
0000
0000
0000
0000
0010
,
0000
0000
0000
0000
0000
0010
0000
0000
,
0000
0000
0000
0000
0000
0010
0000
0000
,
0000
0000
0000
0100
0000
0000
0000
0100
,
0000
0000
0000
0010
0000
0000
0000
0000
,
0000
0010
0000
0000
0000
0000
0000
0100
,
0000
0000
0000
0001
0000
0000
0000
1000
,
0000
0000
0000
0000
0000
0010
0000
0000
,
0000
0100
0000
0000
0000
0100
0000
0000
,
0000
0000
0000
0100
0000
0000
0000
0000
,
0000
0001
0000
0000
0000
0000
0000
1000
,
0000
0000
0000
0000
0000
0010
0000
0000
,
0000
1000
0000
0000
0000
0000
0000
0001
,
0000
0000
0000
0000
0000
0100
0000
0000
,
0000
0000
0000
0010
0000
0000
0000
0000
,
0000
1000
0000
0000
0000
1000
0000
0000
,
0000
0010
0000
0000
0000
0000
0000
0000
,
0000
0000
0000
0010
0000
0000
0000
0000
,
0000
0000
0000
0000
0000
0100
0000
0000
,
0000
0000
0000
0100
,
0000
0000
0000
0000
0000
0000
0000
0100
,
0000
0000
0000
0010
0000
0000
0010
0000
;

//---------------dance-single - ----------------
#NOTES:
     dance-single:
     :
     Easy:
     6:
     0.278,0.468,0.010,0.010,0.197:
0000
0000
1000
0000
0000
0100
0000
0000
,
1000
0100
0010
0100
,
0010
0010
0010
0001
,
0100
0001
1000
0010
,
0010
0100
0010
1000
,
0100
0001
0001
0010
,
0010
0000
0000
0010
0000
1000
0000
0100
,
0000
0001
0000
0001
0000
0100
0000
0100
,
0000
0000
1000
0000
0000
0000
0000
0000
0100
0000
0000
1000
0000
0000
0000
0000
,
0000
0000
0000
0000
0000
0001
0000
0000
0000
0000
0000
0000
0000
0000
0000
0000
,
0000
0010
0000
0000
0000
0000
0000
0000
0000
0000
0000
0000
0000
0001
0000
0000
,
0000
0000
0001
0000
,
0000
0010
0000
0000
,
0100
0000
0100
0000
,
1000
0000
0001
0100
,
0000
0001
1000
0000
,
0010
0010
0000
0010
,
1000
0000
0100
0000
,
0010
0100
0000
0010
,
0000
0100
1000
0000
,
0100
0000
0100
0000
,
0000
0100
0000
1000
,
0000
0000
0000
0000
0000
0000
0000
0000
0100
0000
0000
0000
0000
0100
0000
0000
,
0000
0000
0000
0000
0000
0000
0000
0100
0000
0000
0000
0000
1000
0000
0000
0000
,
0000
0000
0000
0000
,
0000
1000
0000
0000
,
0000
0001
0000
0100
,
0000
0100
0000
0100
,
0000
0100
0000
0000
,
0100
0000
0100
0000
,
1000
0000
0010
0000
,
0010
0000
0000
0001
,
0000
1000
0000
0100
,
0000
0001
0000
0000
,
0001
0000
0100
0000
,
0000
0000
0010
0100
,
0000
0100
0000
0010
,
0000
0100
0000
0000
,
0000
0010
0000
0010
,
0000
1000
0000
1001
,
0000
0010
0000
0100
,
0000
0100
0000
0000
,
0010
0000
0010
0000
,
0010
0000
0010
0000
,
0010
0000
0000
0010
,
0000
0010
0000
0010
,
0000
0000
0100
0000
,
0000
0010
0000
1000
,
0000
0001
0000
0100
,
0000
1000
0010
0000
,
0010
0000
1000
0000
,
0010
0000
0000
0000
0100
0000
0000
0000
0000
0000
0000
0000
0000
0010
0000
0000
,
0000
0000
0000
0000
0000
0000
0000
1000
0000
0000
0000
0000
0000
0000
0000
0001
,
0000
0000
0000
0000
0000
0000
0000
1000
0000
0000
0000
0000
0000
0000
0000
0000
,
0000
0000
0000
0001
0000
0000
0000
0000
0000
0001
0000
0000
0000
0000
0000
0000
,
0000
0000
0000
0010
0000
0000
0000
0000
,
0000
0001
0000
0010
0000
0000
0000
0000
0000
0000
0000
0010
0000
0000
0000
0010
,
0000
0000
0000
2000
0000
0000
0000
0000
0000
0000
3000
0000
0000
0100
0000
0000
,
0000
1000
0000
0000
0000
0000
0100
0000
0000
0000
0000
0000
0000
0000
0000
0100
,
0000
0000
0000
0100
0000
0000
0000
0000
0000
0100
0000
0000
0000
0000
0000
0000
,
0000
0000
0000
0100
0000
0000
0000
0000
0000
0010
0000
0000
0000
0000
0000
0000
,
0010
0000
0000
0100
0000
0000
0010
0000
,
0100
0000
0000
0001
0000
0000
0000
0000
,
0000
0000
0000
0000
0001
0000
0000
0000
0000
1000
0000
0000
0000
0000
0000
0010
,
0000
0000
0000
0000
0000
0000
0000
1000
0000
0000
0000
0000
0000
0001
0000
0000
,
0000
0100
0000
0000
0000
0000
0000
0000
0000
0000
0000
0000
0000
1000
0000
0000
,
0000
1000
0000
0000
0000
0000
0100
0000
0000
0001
0000
0000
0000
0000
0000
1000
,
0000
0000
0000
0010
0000
0000
0000
0000
0000
0000
0100
0000
0000
0000
0000
0000
,
0000
0001
0000
0000
0000
0001
0000
0000
0000
1000
0000
0000
0000
0100
0000
0001
,
0000
1000
0000
0000
,
0010
0000
0000
0000
,
0000
0010
0000
0000
,
0010
0000
0100
0000
,
0000
1000
0000
0000
0000
0000
0000
0001
,
0000
0000
0000
0000
0000
0010
0000
0000
,
0000
0000
0000
0000
0000
0000
0000
0010
,
0000
0000
0000
0000
0000
0000
0000
0010
,
0000
0000
0000
0000
,
0000
0000
0000
0100
0000
0000
0000
0000
,
0000
0000
0000
0000
0000
1000
0000
0000
,
0000
0000
0000
0000
,
0000
1000
0000
0000
0000
0000
0000
0010
,
0000
0000
0000
0000
0000
0010
0000
0000
,
0000
0000
0000
0000
0000
0010
0000
0000
,
0000
0000
0000
0100
0000
0000
0000
0000
,
0000
0000
0000
0010
0000
0000
0000
0000
,
0000
0000
0000
0000
0000
0000
0000
0100
,
0000
0000
0000
0000
0000
0000
0000
1000
,
0000
0000
0000
0000
0000
0010
0000
0000
,
0000
0000
0000
0000
0000
0100
0000
0000
,
0000
0000
0000
0000
,
0000
0001
0000
0000
0000
0000
0000
1000
,
0000
0000
0000
0000
,
0000
1000
0000
0000
0000
0000
0000
0001
,
0000
0000
0000
0000
0000
0100
0000
0000
,
0000
0000
0000
0010
0000
0000
0000
0000
,
0000
1000
0000
0000
0000
1000
0000
0000
,
0000
0010
0000
0000
0000
0000
0000
0000
,
0000
0000
0000
0010
0000
0000
0000
0000
,
0000
0000
0000
0000
0000
0100
0000
0000
,
0000
0000
0000
0100
,
0000
0000
0000
0000
0000
0000
0000
0100
,
0000
0000
0000
0010
;

//---------------dance-single - ----------------
#NOTES:
     dance-single:
     :
     Beginner:
     4:
     0.247,0.366,0.020,0.030,0.177: // measure 1
0000
1000
0000
0000
,  // measure 2
1000
0000
0010
0000
,  // measure 3
0010
0000
0010
0000
,  // measure 4
0100
0000
1000
0000
,  // measure 5
0010
0000
0010
1000
,  // measure 6
0000
0001
0000
0010
,  // measure 7
0000
0000
0000
0010
0000
0000
0000
0100
,  // measure 8
0000
0000
0000
0001
0000
0100
0000
0000
,  // measure 9
0000
0000
1000
0000
0000
0000
0000
0000
0000
0000
0000
1000
0000
0000
0000
0000
,  // measure 10
0000
0000
0000
0000
0000
0001
0000
0000
0000
0000
0000
0000
0000
0000
0000
0000
,  // measure 11
0000
0010
0000
0000
0000
0000
0000
0000
0000
0000
0000
0000
0000
0001
0000
0000
,  // measure 12
0000
0000
0001
0000
,  // measure 13
0000
0010
0000
0000
,  // measure 14
0100
0000
0100
0000
,  // measure 15
1000
0000
0001
0100
,  // measure 16
0000
0001
1000
0000
,  // measure 17
0010
0010
0000
0010
,  // measure 18
1000
0000
0100
0000
,  // measure 19
0010
0100
0000
0010
,  // measure 20
0000
0100
1000
0000
,  // measure 21
0100
0000
0100
0000
,  // measure 22
0000
0100
0000
1000
,  // measure 23
0000
0000
0000
0000
0000
0000
0000
0000
0100
0000
0000
0000
0000
0100
0000
0000
,  // measure 24
0000
0000
0000
0000
0000
0000
0000
0100
0000
0000
0000
0000
1000
0000
0000
0000
,  // measure 25
0000
0000
0000
0000
,  // measure 26
0000
1000
0000
0000
,  // measure 27
0000
0001
0000
0100
,  // measure 28
0000
0100
0000
0100
,  // measure 29
0000
0100
0000
0000
,  // measure 30
0100
0000
0100
0000
,  // measure 31
1000
0000
0010
0000
,  // measure 32
0010
0000
0000
0001
,  // measure 33
0000
1000
0000
0100
,  // measure 34
0000
0001
0000
0000
,  // measure 35
0001
0000
0100
0000
,  // measure 36
0000
0000
0010
0100
,  // measure 37
0000
0100
0000
0010
,  // measure 38
0000
0100
0000
0000
,  // measure 39
0000
0010
0000
0010
,  // measure 40
0000
1000
0000
1001
,  // measure 41
0000
0010
0000
0100
,  // measure 42
0000
0100
0000
0000
,  // measure 43
0010
0000
0010
0000
,  // measure 44
0010
0000
0010
0000
,  // measure 45
0010
0000
0000
0010
,  // measure 46
0000
0010
0000
0010
,  // measure 47
0000
0000
0100
0000
,  // measure 48
0000
0010
0000
1000
,  // measure 49
0000
0001
0000
0100
,  // measure 50
0000
1000
0010
0000
,  // measure 51
0010
0000
1000
0000
,  // measure 52
0010
0000
0000
0000
0100
0000
0000
0000
0000
0000
0000
0000
0000
0010
0000
0000
,  // measure 53
0000
0000
0000
0000
,  // measure 54
0000
0000
0000
0000
,  // measure 55
0000
0000
0000
0000
0000
0000
0000
0000
0000
0001
0000
0000
0000
0000
0000
0000
,  // measure 56
0000
0000
0000
0010
0000
0000
0000
0000
,  // measure 57
0000
0001
0000
0010
0000
0000
0000
0000
0000
0000
0000
0010
0000
0000
0000
0010
,  // measure 58
0000
0000
0000
2000
0000
0000
0000
0000
0000
0000
3000
0000
0000
0100
0000
0000
,  // measure 59
0000
1000
0000
0000
0000
0000
0100
0000
0000
0000
0000
0000
0000
0000
0000
0100
,  // measure 60
0000
0000
0000
0100
0000
0000
0000
0000
0000
0100
0000
0000
0000
0000
0000
0000
,  // measure 61
0000
0000
0000
0100
0000
0000
0000
0000
0000
0010
0000
0000
0000
0000
0000
0000
,  // measure 62
0010
0000
0000
0100
0000
0000
0010
0000
,  // measure 63
0100
0000
0000
0001
0000
0000
0000
0000
,  // measure 64
0000
0000
0000
0000
0001
0000
0000
0000
0000
1000
0000
0000
0000
0000
0000
0010
,  // measure 65
0000
0000
0000
0000
0000
0000
0000
1000
0000
0000
0000
0000
0000
0001
0000
0000
,  // measure 66
0000
0100
0000
0000
0000
0000
0000
0000
0000
0000
0000
0000
0000
1000
0000
0000
,  // measure 67
0000
1000
0000
0000
0000
0000
0100
0000
0000
0001
0000
0000
0000
0000
0000
1000
,  // measure 68
0000
0000
0000
0010
0000
0000
0000
0000
0000
0000
0100
0000
0000
0000
0000
0000
,  // measure 69
0000
0001
0000
0000
0000
0001
0000
0000
0000
1000
0000
0000
0000
0100
0000
0001
,  // measure 70
0000
1000
0000
0000
,  // measure 71
0010
0000
0000
0000
,  // measure 72
0000
0010
0000
0000
,  // measure 73
0010
0000
0100
0000
,  // measure 74
0000
1000
0000
0000
0000
0000
0000
0001
,  // measure 75
0000
0000
0000
0000
0000
0010
0000
0000
,  // measure 76
0000
0000
0000
0000
0000
0000
0000
0010
,  // measure 77
0000
0000
0000
0000
0000
0000
0000
0010
,  // measure 78
0000
0000
0000
0000
,  // measure 79
0000
0000
0000
0100
0000
0000
0000
0000
,  // measure 80
0000
0000
0000
0000
0000
1000
0000
0000
,  // measure 81
0000
0000
0000
0000
,  // measure 82
0000
1000
0000
0000
0000
0000
0000
0010
,  // measure 83
0000
0000
0000
0000
0000
0010
0000
0000
,  // measure 84
0000
0000
0000
0000
0000
0010
0000
0000
,  // measure 85
0000
0000
0000
0100
0000
0000
0000
0000
,  // measure 86
0000
0000
0000
0010
0000
0000
0000
0000
,  // measure 87
0000
0000
0000
0000
0000
0000
0000
0100
,  // measure 88
0000
0000
0000
0000
0000
0000
0000
1000
,  // measure 89
0000
0000
0000
0000
0000
0010
0000
0000
,  // measure 90
0000
0000
0000
0000
0000
0100
0000
0000
,  // measure 91
0000
0000
0000
0000
,  // measure 92
0000
0001
0000
0000
0000
0000
0000
1000
,  // measure 93
0000
0000
0000
0000
,  // measure 94
0000
1000
0000
0000
0000
0000
0000
0001
,  // measure 95
0000
0000
0000
0000
0000
0100
0000
0000
,  // measure 96
0000
0000
0000
0010
0000
0000
0000
0000
,  // measure 97
0000
1000
0000
0000
0000
1000
0000
0000
,  // measure 98
0000
2002
0000
0000
0000
0000
0000
0000
,  // measure 99
0000
0000
0000
0000
,  // measure 100
0000
0000
0000
0000
,  // measure 101
0000
0000
0000
0000
,  // measure 102
0000
0000
0000
0000
,  // measure 103
0000
0000
0000
0000
,  // measure 104
0000
3003
0000
0000
;
