#TITLE:Fascination Maxx 300;
#SUBTITLE:;
#ARTIST:100-200-300-400;
#TITLETRANSLIT:;
#SUBTITLETRANSLIT:;
#ARTISTTRANSLIT:;
#CREDIT:;
#BANNER:Fascination MAXX 300.PNG;
#BACKGROUND:Fascination MAXX 300 -bg.PNG;
#LYRICSPATH:;
#CDTITLE:;
#MUSIC:Fascination Maxx 300.mp3;
#OFFSET:0.000;
#SAMPLESTART:0.050;
#SAMPLELENGTH:11.940;
#SELECTABLE:YES;
#BPMS:0.000=301.640,2.500=301.660,128.500=400.858,144.500=401.978,145.000=200.580,145.500=217.800,145.750=231.040,146.000=400.398,156.000=202.400,157.500=402.018,172.000=399.178,175.500=201.160,176.500=401.578,188.000=300.579,346.000=300.959,346.500=200.559,348.000=100.939,350.500=202.159,359.000=200.699,360.000=200.599,364.500=304.218,368.500=300.238,369.000=300.719,435.000=200.879,454.500=402.897,455.000=400.497,455.500=400.537,456.000=402.137,476.500=402.117;
#STOPS:350.000=0.540
,357.000=0.140
;
#BGCHANGES:;

//---------------dance-single - ----------------
#NOTES:
     dance-single:
     :
     Beginner:
     2:
     0.168,0.233,0.039,0.029,0.000: // measure 1
1001
0000
0000
0000
,  // measure 2
1000
0000
0000
0000
,  // measure 3
0001
0000
0000
0000
,  // measure 4
1000
0000
0000
0000
,  // measure 5
0001
0000
0000
0000
,  // measure 6
1000
0000
0000
0000
,  // measure 7
0001
0000
0000
0000
,  // measure 8
1000
0000
0000
0000
,  // measure 9
0100
0000
0000
0000
,  // measure 10
0010
0000
0000
0000
,  // measure 11
0001
0000
0000
0000
,  // measure 12
0010
0000
0000
0000
,  // measure 13
0100
0000
0000
0000
,  // measure 14
1000
0000
0000
0000
,  // measure 15
0001
0000
0000
0000
,  // measure 16
0100
0000
0000
0000
,  // measure 17
1001
0000
0000
0000
,  // measure 18
0100
0000
0000
0000
,  // measure 19
1000
0000
0000
0000
,  // measure 20
0001
0000
0000
0000
,  // measure 21
1000
0000
0000
0000
,  // measure 22
0001
0000
0000
0000
,  // measure 23
0010
0000
0000
0000
,  // measure 24
0001
0000
0000
0000
,  // measure 25
0010
0000
0000
0000
,  // measure 26
0100
0000
0000
0000
,  // measure 27
1000
0000
0000
0000
,  // measure 28
0100
0000
0000
0000
,  // measure 29
1000
0000
0000
0000
,  // measure 30
0010
0000
0000
0000
,  // measure 31
0001
0000
0000
0000
,  // measure 32
0010
0000
0000
0000
,  // measure 33
0001
0000
0000
0000
,  // measure 34
0010
0000
0000
0000
,  // measure 35
0100
0000
0000
0000
,  // measure 36
1000
0000
0000
0000
,  // measure 37
0100
0000
0000
0000
,  // measure 38
0010
0000
0000
0000
,  // measure 39
0001
0000
0000
0000
,  // measure 40
0010
0000
0000
0000
,  // measure 41
0000
1000
0000
0000
,  // measure 42
0000
0001
0000
0000
,  // measure 43
0000
0010
0000
0000
,  // measure 44
0000
0100
0000
0000
,  // measure 45
0000
1000
0000
0000
,  // measure 46
0000
0001
0000
0000
,  // measure 47
0000
0100
0000
0000
,  // measure 48
0010
0000
0000
0000
,  // measure 49
0001
0000
0000
0000
,  // measure 50
0010
0000
0000
0000
,  // measure 51
0100
0000
0000
0000
,  // measure 52
1000
0000
0000
0000
,  // measure 53
0100
0000
0000
0000
,  // measure 54
0010
0000
0000
0000
,  // measure 55
0001
0000
0000
0000
,  // measure 56
0010
0000
0000
0000
,  // measure 57
0001
0000
0000
0000
,  // measure 58
0010
0000
0000
0000
,  // measure 59
0100
0000
0000
0000
,  // measure 60
1000
0000
0000
0000
,  // measure 61
0100
0000
0000
0000
,  // measure 62
0010
0000
0000
0000
,  // measure 63
0100
0000
0000
0000
,  // measure 64
1000
0000
0000
0000
,  // measure 65
0100
0000
0000
0000
,  // measure 66
0010
0000
0000
0000
,  // measure 67
1000
0000
0000
0000
,  // measure 68
0100
0000
0000
0000
,  // measure 69
0010
0000
0000
0000
,  // measure 70
1000
0000
0000
0000
,  // measure 71
0100
0000
0000
0000
,  // measure 72
0010
0000
0000
0000
,  // measure 73
0001
0000
0000
0000
,  // measure 74
0010
0000
0000
0000
,  // measure 75
0100
0000
0000
0000
,  // measure 76
0001
0000
0000
0000
,  // measure 77
0010
0000
0000
0000
,  // measure 78
0100
0000
0000
0000
,  // measure 79
0001
0000
0000
0000
,  // measure 80
0010
0000
0000
0000
,  // measure 81
0100
0000
0000
0000
,  // measure 82
0001
0000
0000
0000
,  // measure 83
0010
0000
0000
0000
,  // measure 84
0001
0000
0000
0000
,  // measure 85
0010
0000
0000
0000
,  // measure 86
0100
0000
0000
0000
,  // measure 87
0002
0000
0000
0000
,  // measure 88
0000
0000
0003
0000
,  // measure 89
1000
0000
0000
0000
,  // measure 90
0100
0000
0000
0001
,  // measure 91
0000
0000
0000
0000
0000
0001
0000
0000
,  // measure 92
0000
0000
0000
0000
,  // measure 93
0000
0000
0000
0001
,  // measure 94
0000
0000
0000
0001
,  // measure 95
0000
0000
0000
0001
,  // measure 96
0000
0000
0000
0010
,  // measure 97
0000
0000
0000
0100
,  // measure 98
0000
0000
0000
1000
,  // measure 99
0000
0000
0000
1000
,  // measure 100
0000
0000
0000
1000
,  // measure 101
0000
0000
0000
1000
,  // measure 102
0000
0000
0000
0001
,  // measure 103
0000
0000
0000
0010
,  // measure 104
0000
0000
0000
0100
,  // measure 105
0000
0000
0000
1000
,  // measure 106
0000
0000
0000
0100
,  // measure 107
0000
0000
0000
0010
,  // measure 108
0000
0000
0000
0001
,  // measure 109
0000
0000
1001
0000
,  // measure 110
0000
0000
0000
0000
,  // measure 111
0000
0000
0000
0000
,  // measure 112
0000
0000
0000
0000
,  // measure 113
0000
0000
0000
0000
,  // measure 114
0000
0000
0000
0000
0000
1000
0000
0000
,  // measure 115
0000
0000
0000
0000
0000
0001
0000
0000
,  // measure 116
0000
0000
0000
0000
0000
0100
0000
0000
,  // measure 117
0000
0000
0000
0000
0000
0010
0000
0000
,  // measure 118
0000
0000
0000
0000
0000
0001
0000
0000
,  // measure 119
0000
0000
0000
0000
0000
0000
0000
2002
,  // measure 120
0000
0000
0000
3003
0000
0000
0000
0000
;

//---------------dance-single - ----------------
#NOTES:
     dance-single:
     :
     Easy:
     5:
     0.383,0.526,0.068,0.331,0.000: // measure 1
2002
0000
3003
0000
,  // measure 2
1000
0100
1000
0000
,  // measure 3
0001
0010
0001
0000
,  // measure 4
1000
0100
1000
0000
,  // measure 5
0001
0010
0001
0000
,  // measure 6
1000
0100
1000
0000
,  // measure 7
0001
0010
0001
0000
,  // measure 8
1000
0100
1000
0000
,  // measure 9
0100
0010
0100
0000
,  // measure 10
0010
0001
0010
0010
,  // measure 11
0001
0010
0000
0001
,  // measure 12
0010
0001
0000
0000
,  // measure 13
0100
1000
0100
0000
,  // measure 14
1000
0100
1000
0000
,  // measure 15
0001
0100
0001
0000
,  // measure 16
0100
0010
1000
0000
,  // measure 17
2002
0000
3003
0000
,  // measure 18
0100
0100
0100
0001
,  // measure 19
0001
1000
1000
0001
,  // measure 20
0001
0000
0100
0000
0000
0000
0000
1001
,  // measure 21
0000
0002
0000
0000
,  // measure 22
0000
0000
0000
0003
,  // measure 23
0020
0030
0000
0000
,  // measure 24
0002
0000
0003
0020
,  // measure 25
0030
0000
0200
0000
,  // measure 26
0000
0300
0000
0000
,  // measure 27
2000
3000
0000
0000
,  // measure 28
0200
0000
0000
0300
,  // measure 29
2000
3000
0000
0020
,  // measure 30
0030
0000
0000
0002
,  // measure 31
0003
0000
0000
0020
,  // measure 32
0030
0000
0000
0000
,  // measure 33
1001
0000
0000
0020
,  // measure 34
0030
0000
0000
0000
,  // measure 35
0200
0300
0000
0000
,  // measure 36
2000
3000
0000
0000
,  // measure 37
0200
0000
0300
0000
,  // measure 38
0020
0030
0000
0000
,  // measure 39
0002
0003
0000
0000
,  // measure 40
0020
0000
0030
0000
,  // measure 41
0000
2000
3000
0000
,  // measure 42
0000
0002
0003
0000
,  // measure 43
0000
0020
0030
0000
,  // measure 44
0200
0000
0000
0000
,  // measure 45
0000
0300
1000
0000
0000
0000
0000
0000
,  // measure 46
0000
0001
0000
0000
,  // measure 47
0000
0100
0000
0000
,  // measure 48
0010
0000
0010
0000
,  // measure 49
0001
1000
0000
0000
,  // measure 50
0001
0010
0000
0000
,  // measure 51
0001
0100
0000
0001
,  // measure 52
1000
0200
0000
0000
,  // measure 53
0000
0000
0000
0300
,  // measure 54
0010
0002
0000
0003
,  // measure 55
0001
0020
0000
0030
,  // measure 56
0010
0200
0000
0300
,  // measure 57
0001
0020
0000
0030
,  // measure 58
0010
0000
0000
0000
,  // measure 59
0100
0100
0000
0000
,  // measure 60
1000
1000
0000
0000
,  // measure 61
0100
0100
0000
0000
,  // measure 62
0010
0010
0000
0000
,  // measure 63
0100
0100
0000
0000
,  // measure 64
1000
1000
0000
0000
,  // measure 65
0100
0100
0000
0000
,  // measure 66
0010
0010
0000
0000
,  // measure 67
1000
1000
0000
0000
,  // measure 68
0100
0100
0000
0000
,  // measure 69
0010
0010
0000
0000
,  // measure 70
1000
1000
0000
0000
,  // measure 71
0100
0100
0000
0000
,  // measure 72
0010
0010
0000
0000
,  // measure 73
0001
0001
0000
0000
,  // measure 74
0010
0010
0000
0000
,  // measure 75
0100
0100
0000
0000
,  // measure 76
0001
0001
0000
0000
,  // measure 77
0010
0010
0000
0000
,  // measure 78
0100
0100
0000
0000
,  // measure 79
0001
0001
0000
0000
,  // measure 80
0010
0010
0000
0000
,  // measure 81
0100
0100
0000
0000
,  // measure 82
0001
0001
0000
0000
,  // measure 83
0010
0010
0000
0000
,  // measure 84
0001
0001
0000
0000
,  // measure 85
0010
0010
0000
0000
,  // measure 86
0100
0100
0000
0000
,  // measure 87
1002
0000
0000
0000
,  // measure 88
1000
0000
1003
0000
,  // measure 89
1000
0100
1000
0001
,  // measure 90
0100
0010
1000
0001
,  // measure 91
0100
0000
0010
0000
1000
0001
0000
0000
,  // measure 92
0001
0010
0001
0010
,  // measure 93
0100
0000
0000
0001
,  // measure 94
0001
0000
0000
0001
,  // measure 95
0001
0000
0000
0001
,  // measure 96
0001
0000
0000
0010
,  // measure 97
0010
0000
0000
0100
,  // measure 98
0100
0000
0000
1000
,  // measure 99
1000
0000
0000
1000
,  // measure 100
1000
0000
0000
1000
,  // measure 101
1000
0000
0000
1000
,  // measure 102
1000
0000
0000
0001
,  // measure 103
0001
0000
0000
0010
,  // measure 104
0010
0000
0000
0100
,  // measure 105
0100
0000
0000
1000
,  // measure 106
1000
0000
0000
0100
,  // measure 107
0100
0000
0000
0010
,  // measure 108
0010
0000
0000
0001
,  // measure 109
0001
0000
2002
0000
,  // measure 110
3003
0000
0000
0000
,  // measure 111
0000
0000
0000
0000
,  // measure 112
0000
0000
0000
0000
,  // measure 113
1000
0100
1000
0100
,  // measure 114
0010
0001
0010
0001
,  // measure 115
0010
0000
0010
0000
,  // measure 116
0100
0000
0100
0000
,  // measure 117
0100
0000
0100
0000
,  // measure 118
0100
0000
0100
0000
,  // measure 119
0100
0000
0010
0000
,  // measure 120
0010
0000
0000
0000
0010
0000
0000
1001
;

//---------------dance-single - ----------------
#NOTES:
     dance-single:
     :
     Medium:
     10:
     0.939,0.993,0.156,0.351,0.000: // measure 1
2002
0000
3003
0100
,  // measure 2
1000
0100
1000
0010
,  // measure 3
0001
0010
0001
0010
,  // measure 4
1000
0100
1000
0000
,  // measure 5
0001
0010
0001
0010
,  // measure 6
1000
0100
1000
0100
,  // measure 7
0001
0010
0001
0100
,  // measure 8
1000
0100
1000
0000
,  // measure 9
0100
0010
0100
0001
,  // measure 10
0010
0001
0010
0010
,  // measure 11
0001
0010
1000
0001
,  // measure 12
0010
0001
1000
0010
,  // measure 13
0100
1000
0100
0001
,  // measure 14
1000
0100
1000
0100
,  // measure 15
0001
0000
0100
0000
0001
0000
0001
1000
,  // measure 16
0100
0001
0010
0001
1000
0000
0000
0000
,  // measure 17
2002
0000
3003
0000
,  // measure 18
0100
1000
0100
0010
0100
1000
0001
0010
,  // measure 19
0001
0100
1000
0100
1000
0010
0001
0010
,  // measure 20
0001
1000
0100
0010
0001
0010
0100
1001
,  // measure 21
0000
1000
0002
1000
0000
1000
0000
1000
,  // measure 22
0000
1000
0000
1000
0000
1000
0003
1000
,  // measure 23
0020
0001
0030
0000
0000
0000
0000
0000
,  // measure 24
0002
1000
0000
1000
0003
0000
0020
0001
,  // measure 25
0030
0000
0000
0000
0200
1000
0000
0001
,  // measure 26
0000
1000
0300
0000
0000
0000
0000
0000
,  // measure 27
2000
0001
3000
0000
0000
0000
0000
0000
,  // measure 28
0200
0001
0000
1000
0000
0001
0300
0000
,  // measure 29
2000
0001
3000
0000
0000
0000
0020
1000
,  // measure 30
0030
0000
0000
0000
0000
0000
0002
1000
,  // measure 31
0003
0000
0000
0000
0000
0000
0020
0001
,  // measure 32
0030
0000
0000
0000
,  // measure 33
1001
0000
0001
0010
0100
1000
0020
0000
,  // measure 34
0030
0001
0010
0100
0001
0010
0100
1000
,  // measure 35
0200
0000
0300
0001
0010
0100
0001
0010
,  // measure 36
2000
3000
0000
0000
,  // measure 37
0202
0000
0303
0000
,  // measure 38
0020
0100
0000
1030
0000
0000
0000
0000
,  // measure 39
0002
0013
0100
0001
,  // measure 40
0020
0100
1030
0001
,  // measure 41
0010
2100
3000
0000
,  // measure 42
0000
0002
0013
0100
,  // measure 43
1000
0120
0031
0010
,  // measure 44
0200
1000
0001
1000
,  // measure 45
0001
0300
1000
0000
0100
0000
0010
0000
,  // measure 46
0001
0001
0010
0100
,  // measure 47
1000
0100
0010
0001
,  // measure 48
0010
0100
1010
0001
,  // measure 49
0001
1000
0100
0010
,  // measure 50
0001
0010
0001
0100
,  // measure 51
0001
0100
1000
0001
,  // measure 52
1000
0200
0001
0000
,  // measure 53
1000
0000
0001
0300
,  // measure 54
1010
1002
1000
1003
,  // measure 55
0001
1020
0001
1030
,  // measure 56
0010
0201
1000
0301
,  // measure 57
0001
1020
0001
1030
,  // measure 58
0010
0001
0010
0100
1000
0100
0010
0001
,  // measure 59
0100
1000
0100
0010
0001
0010
0100
0001
,  // measure 60
1000
0001
1000
0001
0010
0100
1000
0001
,  // measure 61
0100
0010
0100
0001
1000
0100
0010
0001
,  // measure 62
0010
0001
0010
0001
0010
0100
1000
0001
,  // measure 63
0100
0001
0100
0001
0010
0100
1000
0100
,  // measure 64
1000
0100
1000
0001
0010
0100
1000
0001
,  // measure 65
0100
0010
0100
0001
0010
0100
0001
0000
,  // measure 66
0010
0001
0010
0001
0010
0100
1000
0100
,  // measure 67
1000
0100
1000
0010
0000
0001
0010
0000
,  // measure 68
0100
0010
0100
0010
1000
0001
0100
0001
,  // measure 69
0010
1000
0010
0001
0100
0010
0001
0010
,  // measure 70
1000
0010
1000
0001
0010
0100
1000
0001
,  // measure 71
0100
0001
0100
0001
0010
0100
1000
0001
,  // measure 72
0010
1000
0010
0001
0100
0010
1000
0100
,  // measure 73
0001
0010
0001
0010
0100
1000
0001
0000
,  // measure 74
0010
1000
0010
0001
0010
0100
0001
1000
,  // measure 75
0100
0010
0100
0001
0010
0100
1000
0010
,  // measure 76
0001
0010
0001
0010
0001
0010
0001
1000
,  // measure 77
0010
0001
0010
1000
0001
0010
0100
1000
,  // measure 78
0100
0010
0100
0001
0010
0100
1000
0010
,  // measure 79
0001
0010
0001
0010
0100
1000
0100
0001
,  // measure 80
0010
0001
0010
0001
0010
0100
1000
0010
,  // measure 81
0100
0001
0100
1000
0100
0010
1000
0000
,  // measure 82
0001
0010
0001
0010
0001
0010
0100
1000
,  // measure 83
0010
0001
0010
0001
0010
0100
1000
0100
,  // measure 84
0001
0010
0001
0000
0001
0010
0100
1000
,  // measure 85
0010
0001
0010
0000
0001
0010
0100
1000
,  // measure 86
0100
1000
0100
1000
0100
0010
0001
0000
,  // measure 87
1002
0000
0000
1000
0000
0000
1000
0000
,  // measure 88
1000
0000
0000
0000
1003
0000
1000
0100
,  // measure 89
1000
0001
0100
0010
1000
0100
0001
0010
,  // measure 90
0100
1000
0010
0001
1000
0100
0001
0010
,  // measure 91
0100
1000
0010
0001
1000
0001
1000
0100
,  // measure 92
0001
1000
0010
1000
0001
1000
0010
1000
,  // measure 93
0100
0001
0000
0010
0000
0100
0001
1000
,  // measure 94
0001
1000
0100
0010
0001
0010
0001
0010
,  // measure 95
0001
0000
0000
0000
0000
0000
0001
0010
,  // measure 96
0001
0010
0001
0010
0001
1000
0010
0100
,  // measure 97
0010
0001
0010
0100
0001
0010
0100
1000
,  // measure 98
0100
0010
0001
0010
0100
0000
1000
0100
,  // measure 99
0010
0001
0100
0000
1000
0100
1000
0100
,  // measure 100
1000
0100
0010
0001
0010
0100
1000
0100
,  // measure 101
1000
0100
0010
0001
0010
0100
1000
0100
,  // measure 102
1000
0100
0010
0001
0010
0100
1000
0100
,  // measure 103
0010
0001
0010
0001
0010
0001
0010
0001
,  // measure 104
0010
0001
0010
0001
0010
0001
0100
1000
,  // measure 105
0100
0001
0000
0010
0000
0100
1000
0001
,  // measure 106
1000
0010
0000
0100
0001
0000
0100
0000
,  // measure 107
0100
0000
0000
0010
,  // measure 108
0010
0000
0000
0000
0000
0000
0001
1000
,  // measure 109
0001
1000
0100
0010
2002
0000
0000
0000
,  // measure 110
3003
0000
0000
0000
,  // measure 111
0000
0000
0000
0000
,  // measure 112
0000
0000
0000
0000
,  // measure 113
0000
0000
0000
0000
,  // measure 114
0000
0000
0000
0000
0000
1000
0100
0010
,  // measure 115
0000
0000
0000
0000
1000
0100
0010
0000
,  // measure 116
0000
0000
0001
0010
0100
0000
0001
0010
,  // measure 117
0100
0000
0000
1000
0100
0010
0000
1000
,  // measure 118
0100
0010
0000
0000
2000
3100
0010
0001
,  // measure 119
0000
0001
0010
0100
1000
0010
0001
0010
,  // measure 120
0100
0001
0010
0000
0001
0010
0100
1001
;

//---------------dance-single - ----------------
#NOTES:
     dance-single:
     :
     Hard:
     11:
     0.975,0.992,0.156,0.351,0.000: // measure 1
2002
0000
3003
0100
,  // measure 2
1000
0100
1000
0010
,  // measure 3
0001
0010
0001
0010
,  // measure 4
1000
0100
1000
0000
,  // measure 5
0001
0010
0001
0010
,  // measure 6
1000
0100
1000
0100
,  // measure 7
0001
0010
0001
0100
,  // measure 8
1000
0100
1000
0000
,  // measure 9
0100
0010
0100
0001
,  // measure 10
0010
0001
0010
0010
,  // measure 11
0001
0010
1000
0001
,  // measure 12
0010
0001
1000
0010
,  // measure 13
0100
1000
0100
0001
,  // measure 14
1000
0100
1000
0100
,  // measure 15
0001
0000
0100
0000
0001
0000
0001
1000
,  // measure 16
0100
0001
0010
0001
1000
0000
0000
0000
,  // measure 17
2002
0000
3003
0000
,  // measure 18
0100
1000
0100
0010
0100
1000
0001
0010
,  // measure 19
0001
0100
1000
0100
1000
0010
0001
0010
,  // measure 20
0001
1000
0100
0010
0001
0010
0100
1001
,  // measure 21
0000
1000
0002
1000
0000
1000
0000
1000
,  // measure 22
0000
1000
0000
1000
0000
1000
0003
1000
,  // measure 23
0020
0001
0030
0000
0000
0000
0000
0000
,  // measure 24
0002
1000
0000
1000
0003
0000
0020
0001
,  // measure 25
0030
0000
0000
0000
0200
1000
0000
0001
,  // measure 26
0000
1000
0300
0000
0000
0000
0000
0000
,  // measure 27
2000
0001
3000
0000
0000
0000
0000
0000
,  // measure 28
0200
0001
0000
1000
0000
0001
0300
0000
,  // measure 29
2000
0001
3000
0000
0000
0000
0020
1000
,  // measure 30
0030
0000
0000
0000
0000
0000
0002
1000
,  // measure 31
0003
0000
0000
0000
0000
0000
0020
0001
,  // measure 32
0030
0000
0000
0000
,  // measure 33
1001
0000
0001
0010
0100
1000
0020
0000
,  // measure 34
0030
0001
0010
0100
0001
0010
0100
1000
,  // measure 35
0200
0000
0300
0001
0010
0100
0001
0010
,  // measure 36
2000
3000
0000
0000
,  // measure 37
0202
0000
0303
0000
,  // measure 38
0020
0100
0000
1030
0000
0000
0000
0000
,  // measure 39
0002
0013
0100
0001
,  // measure 40
0020
0100
1030
0001
,  // measure 41
0010
2100
3000
0000
,  // measure 42
0000
0002
0013
0100
,  // measure 43
1000
0120
0031
0010
,  // measure 44
0200
1000
0001
1000
,  // measure 45
0001
0300
1000
0000
0100
0000
0010
0000
,  // measure 46
0001
0001
0010
0100
,  // measure 47
1000
0100
0010
0001
,  // measure 48
0010
0100
1010
0001
,  // measure 49
0001
1000
0100
0010
,  // measure 50
0001
0010
0001
0100
,  // measure 51
0001
0100
1000
0001
,  // measure 52
1000
0200
0001
0000
,  // measure 53
1000
0000
0001
0300
,  // measure 54
1010
1002
1000
1003
,  // measure 55
0001
1020
0001
1030
,  // measure 56
0010
0201
1000
0301
,  // measure 57
0001
1020
0001
1030
,  // measure 58
0010
0001
0010
0100
1000
0100
0010
0001
,  // measure 59
0100
1000
0100
0010
0001
0010
0100
0001
,  // measure 60
1000
0001
1000
0001
0010
0100
1000
0001
,  // measure 61
0100
0010
0100
0001
1000
0100
0010
0001
,  // measure 62
0010
0001
0010
0001
0010
0100
1000
0001
,  // measure 63
0100
0001
0100
0001
0010
0100
1000
0100
,  // measure 64
1000
0100
1000
0001
0010
0100
1000
0001
,  // measure 65
0100
0010
0100
0001
0010
0100
0001
0000
,  // measure 66
0010
0001
0010
0001
0010
0100
1000
0100
,  // measure 67
1000
0100
1000
0010
0000
0001
0010
0000
,  // measure 68
0100
0010
0100
0010
1000
0001
0100
0001
,  // measure 69
0010
1000
0010
0001
0100
0010
0001
0010
,  // measure 70
1000
0010
1000
0001
0010
0100
1000
0001
,  // measure 71
0100
0001
0100
0001
0010
0100
1000
0001
,  // measure 72
0010
1000
0010
0001
0100
0010
1000
0100
,  // measure 73
0001
0010
0001
0010
0100
1000
0001
0000
,  // measure 74
0010
1000
0010
0001
0010
0100
0001
1000
,  // measure 75
0100
0010
0100
0001
0010
0100
1000
0010
,  // measure 76
0001
0010
0001
0010
0001
0010
0001
1000
,  // measure 77
0010
0001
0010
1000
0001
0010
0100
1000
,  // measure 78
0100
0010
0100
0001
0010
0100
1000
0010
,  // measure 79
0001
0010
0001
0010
0100
1000
0100
0001
,  // measure 80
0010
0001
0010
0001
0010
0100
1000
0010
,  // measure 81
0100
0001
0100
1000
0100
0010
1000
0000
,  // measure 82
0001
0010
0001
0010
0001
0010
0100
1000
,  // measure 83
0010
0001
0010
0001
0010
0100
1000
0100
,  // measure 84
0001
0010
0001
0000
0001
0010
0100
1000
,  // measure 85
0010
0001
0010
0000
0001
0010
0100
1000
,  // measure 86
0100
1000
0100
1000
0100
0010
0001
0000
,  // measure 87
1002
0000
0000
1000
0000
0000
1000
0000
,  // measure 88
1000
0000
0000
0000
1003
0000
1000
0100
,  // measure 89
1000
0001
0100
0010
1000
0100
0001
0010
,  // measure 90
0100
1000
0010
0001
1000
0100
0001
0010
,  // measure 91
0100
1000
0010
0001
1000
0001
1000
0100
,  // measure 92
0001
1000
0010
1000
0001
1000
0010
1000
,  // measure 93
0100
0001
0000
0010
0000
0100
0001
1000
,  // measure 94
0001
1000
0100
0010
0001
0010
0001
0010
,  // measure 95
0001
0000
0000
0000
0000
0000
0001
0010
,  // measure 96
0001
0010
0001
0010
0001
1000
0010
0100
,  // measure 97
0010
0001
0010
0100
0001
0010
0100
1000
,  // measure 98
0100
0010
0001
0010
0100
0000
1000
0100
,  // measure 99
0010
0001
0100
0000
1000
0100
1000
0100
,  // measure 100
1000
0100
0010
0001
0010
0100
1000
0100
,  // measure 101
1000
0100
0010
0001
0010
0100
1000
0100
,  // measure 102
1000
0100
0010
0001
0010
0100
1000
0100
,  // measure 103
0010
0001
0010
0001
0010
0001
0010
0001
,  // measure 104
0010
0001
0010
0001
0010
0001
0100
1000
,  // measure 105
0100
0001
0000
0010
0000
0100
1000
0001
,  // measure 106
1000
0010
0001
0100
0001
1000
0100
0001
,  // measure 107
0100
0001
1000
0100
0010
0001
0010
0001
,  // measure 108
0010
0001
0010
0100
1000
0010
0001
1000
,  // measure 109
0001
1000
0100
0010
2002
0000
0000
0000
,  // measure 110
3003
0000
0000
0000
,  // measure 111
0000
0000
0000
0000
,  // measure 112
0000
0000
0000
0000
,  // measure 113
0000
0000
0000
0000
,  // measure 114
0000
0000
0000
0000
1000
0100
0010
0001
,  // measure 115
0010
0100
0001
1000
0100
0010
0001
0010
,  // measure 116
0100
1000
0010
0100
1000
0001
0010
0100
,  // measure 117
0001
0000
1000
0100
0010
0001
1000
0100
,  // measure 118
0010
0001
0010
2000
3100
0010
0001
0000
,  // measure 119
0001
0010
0100
1000
0010
0001
0010
0100
,  // measure 120
0001
0010
0000
0001
0010
0100
1001
0000
;
