#TITLE:AFRONOiA;
#SUBTITLE:;
#ARTIST:Unknown artist;
#TITLETRANSLIT:;
#SUBTITLETRANSLIT:;
#ARTISTTRANSLIT:;
#CREDIT:;
#BANNER:;
#BACKGROUND:;
#LYRICSPATH:;
#CDTITLE:;
#MUSIC:AFRONOiA.mp3;
#OFFSET:0.000;
#SAMPLESTART:0.050;
#SAMPLELENGTH:11.960;
#SELECTABLE:YES;
#BPMS:0.000=122.020,8.000=122.800,16.000=210.001;
#STOPS:16.000=0.100
;
#BGCHANGES:0.000=AFRONOia-1.png=1.000=0=0=1,
41.000=AFRONOia-1.png=1.000=0=0=1,
99999=-nosongbg-=1.000=0=0=0 // don't automatically add -songbackground-
;

//---------------dance-single - ----------------
#NOTES:
     dance-single:
     :
     Beginner:
     3:
     0.256,0.335,0.053,0.000,0.000: // measure 1
0000
0000
1000
0000
,  // measure 2
0001
0000
1000
0000
,  // measure 3
0000
0100
0000
0000
,  // measure 4
0010
0000
0000
0001
,  // measure 5
0000
0000
1000
0000
,  // measure 6
1000
0000
0100
0000
,  // measure 7
0000
0000
0010
0000
,  // measure 8
0010
0000
0010
0000
,  // measure 9
0010
0000
0100
0000
,  // measure 10
0100
0000
0100
0000
,  // measure 11
0001
0000
0010
0000
,  // measure 12
0100
0000
0010
0000
,  // measure 13
0010
0000
0001
0000
,  // measure 14
0100
0000
1000
0000
,  // measure 15
0001
0000
0000
0100
,  // measure 16
0000
0010
0000
0100
,  // measure 17
0000
0010
0000
0100
,  // measure 18
0000
0001
0000
1000
,  // measure 19
0000
0100
0000
0010
,  // measure 20
0000
0001
0000
1000
,  // measure 21
0000
0100
0000
0010
,  // measure 22
0000
0100
0000
0010
,  // measure 23
0000
0001
0000
1000
,  // measure 24
0000
0010
0010
0010
,  // measure 25
0010
0010
0010
0010
,  // measure 26
0000
0100
0100
0100
,  // measure 27
0100
0100
0100
0100
,  // measure 28
0000
0000
0010
0010
,  // measure 29
0010
0010
0010
0010
,  // measure 30
0010
0000
0100
0100
,  // measure 31
0100
0100
0100
0100
,  // measure 32
0100
0100
0000
0000
,  // measure 33
1001
0000
1001
0000
,  // measure 34
1001
0000
0100
0000
,  // measure 35
0010
0000
0100
0000
,  // measure 36
0010
0000
0001
0000
,  // measure 37
0100
0000
0001
0000
,  // measure 38
0100
0000
1000
0000
,  // measure 39
0001
0000
0100
0000
,  // measure 40
0010
0000
0001
1000
,  // measure 41
0000
0100
0000
0001
,  // measure 42
0000
0010
0000
1000
,  // measure 43
0000
0100
0000
0001
,  // measure 44
0000
0010
0000
1000
,  // measure 45
0000
1000
0000
0100
,  // measure 46
0000
0010
0000
0001
,  // measure 47
0000
0001
0000
0001
,  // measure 48
0000
0001
0000
0010
,  // measure 49
0000
0010
0000
0100
,  // measure 50
0000
1000
0000
0001
,  // measure 51
0000
1000
0000
0100
,  // measure 52
0000
0010
0000
0001
,  // measure 53
0000
0000
0010
0000
,  // measure 54
0100
0000
1000
0000
,  // measure 55
0100
0000
0010
0000
,  // measure 56
0001
0000
0100
0000
,  // measure 57
1000
0000
0100
0000
,  // measure 58
0010
0000
0001
0000
,  // measure 59
0001
0000
0010
0000
,  // measure 60
0100
0000
1000
0000
,  // measure 61
0100
0000
0010
0000
,  // measure 62
0001
0000
0001
0000
,  // measure 63
0010
0000
0100
0000
,  // measure 64
1000
0000
0100
0000
,  // measure 65
0010
0000
0001
0000
,  // measure 66
0001
0000
0010
0000
,  // measure 67
0010
0000
0100
0000
,  // measure 68
0100
0000
1000
0000
,  // measure 69
0001
0000
1000
0000
,  // measure 70
0001
0000
1000
0000
,  // measure 71
0001
0000
0100
0000
,  // measure 72
0010
0000
0001
0000
,  // measure 73
1000
0000
0001
0000
,  // measure 74
1000
0000
0100
0000
,  // measure 75
0010
0000
1000
0000
,  // measure 76
0001
0000
0000
1001
,  // measure 77
0000
0000
0000
1000
,  // measure 78
0000
0001
0000
0001
,  // measure 79
0000
0000
1001
0000
;

//---------------dance-single - Copied from----------------
#NOTES:
     dance-single:
     Copied from:
     Easy:
     9:
     0.529,0.544,0.224,0.277,0.016:
0000
0000
1000
1000
,
0001
0001
1000
1000
,
0100
0100
0010
0001
,
0010
1000
0100
0001
,
0010
0000
1000
0010
,
1000
0001
0100
0100
,
0100
0000
0100
1001
,
1001
0100
1001
1001
,
0001
1001
0100
1000
,
0100
0001
0100
1000
,
0001
0100
0010
0001
,
0100
1000
0010
0002
,
0013
2000
3001
0002
,
0103
0002
1003
2000
,
3001
0000
2000
3100
,
0002
0013
2000
3100
,
0002
0013
2000
3100
,
0020
0031
0200
1300
,
2000
3100
0002
0013
,
2000
3001
0002
1003
,
2000
3100
0002
0013
,
2000
3100
0002
0013
,
2000
3001
0002
1003
,
0000
0110
1001
0010
,
0100
0010
0100
1001
,
0000
1001
0010
0100
,
0010
0100
0010
1001
,
0000
0000
1001
0100
,
0010
0100
0010
0100
,
1001
1001
0100
0020
,
0130
0100
0020
0130
,
1001
0000
1000
0100
,
1001
0100
1001
0010
,
1001
0010
0100
0001
,
0010
1000
0100
0001
,
1000
0100
0101
0001
,
0100
1000
0001
0100
,
0100
0200
1300
0010
,
0001
0100
0100
0001
,
0010
1000
0001
1000
,
0100
0100
0001
0001
,
1000
0010
0001
1000
,
0100
0100
0010
0001
,
0010
0010
0100
1000
,
0001
1000
0010
0100
,
0001
0010
0001
0001
,
1000
0001
0001
1000
,
0001
0001
1000
0010
,
0001
0010
0100
0100
,
0001
1000
1000
0001
,
0010
1000
0100
0100
,
0001
0010
1000
0001
,
0001
0100
0010
0001
,
0100
1000
1000
0100
,
0100
0001
0010
0001
,
0001
1000
0100
0001
,
1000
0100
0100
0010
,
0010
1000
0001
1000
,
0001
0001
0010
1000
,
0100
0001
1000
0001
,
0100
0001
0010
1000
,
0001
1000
0001
0001
,
0010
0001
0100
0010
,
1000
0001
0100
1000
,
0010
0100
0001
0100
,
0001
0100
0010
0001
,
0010
1000
0100
0001
,
0100
0100
1000
1000
,
0001
0001
1000
1000
,
0001
0001
1000
1000
,
0001
0001
0100
1000
,
0010
0001
0001
1000
,
1000
0001
0001
0200
,
1000
0300
0100
0001
,
0010
1001
1000
0100
,
0011
0100
0100
1001
,
0000
0000
0000
0000
,
0000
0000
0000
0000
0000
0000
0000
0000
0000
0000
0000
0000
0001
0000
0000
0010
0000
0000
0000
0000
1000
0000
0000
0000
,
0000
0000
0010
0000
0000
0000
0000
0000
0000
1000
0000
0000
0000
0000
0000
0000
0000
0000
1000
0000
0000
0000
0000
0000
0100
0000
0000
0000
0000
0000
0000
0000
0000
0000
0000
0000
0000
0000
0000
0000
0000
0000
0000
0000
0000
0000
0000
0000
;

//---------------dance-single - ----------------
#NOTES:
     dance-single:
     :
     Medium:
     15:
     0.835,0.796,0.629,0.288,0.059:
0000
0000
0000
0000
1000
0100
1000
0000
,
0001
0100
0001
0000
1000
0010
1000
0000
,
0100
0010
0100
1000
0010
1000
0001
0000
,
0010
0001
1000
0010
0100
0000
0001
1000
,
0010
0000
0001
0100
1000
0001
0010
0100
,
1000
0100
0001
0010
0100
0010
0100
0010
,
0100
0001
0000
0000
0100
0000
0100
0000
,
1100
0101
1001
1001
,
1100
0000
1001
0000
0100
0001
1000
0001
,
0100
1000
0001
0100
0100
0001
1000
0100
,
0001
0001
0100
1000
0010
0100
0001
0010
,
0100
0001
1000
1000
0010
0001
0002
0000
,
0013
0100
2000
0000
3001
1000
0002
0000
,
0103
0100
0002
0000
1003
0001
2000
0000
,
3001
1000
0001
1000
2000
0000
3100
0001
,
0002
0000
0013
0100
2000
0000
3100
0000
,
0002
0000
0013
0100
2000
0000
3100
0000
,
0020
0031
0201
1300
,
2001
3100
1002
0013
,
2002
0003
3001
0000
1002
0000
1003
0000
,
2001
3100
0102
0013
,
2100
3100
0012
0013
,
2010
0000
3001
0000
0102
0000
1003
1000
,
0000
0110
1001
1100
,
1001
0011
0110
1001
,
0110
0000
1001
1100
,
1001
0101
0110
1001
,
0110
0000
1001
1100
,
1001
0101
0110
1001
,
0110
0000
0000
0000
0100
1000
0100
0010
,
0100
0001
0100
1000
0100
0010
0100
0001
,
1000
0000
0000
0000
1000
0010
0100
0000
,
1001
0100
1001
0010
,
1001
0000
0010
0001
0100
0000
0001
1000
,
0010
0000
1000
0001
0100
0000
0001
0100
,
1000
0000
0100
1000
0101
1000
0001
0010
,
0100
0001
1000
0100
0001
0010
0100
0001
,
0100
1000
0200
0000
1300
0000
0010
1000
,
0001
0000
0100
0010
0100
0000
0001
1000
,
0010
0000
1000
0100
0001
0000
1000
0001
,
0100
1000
0100
0010
0001
0100
0001
0010
,
1000
0100
0010
1000
0001
0100
1000
0010
,
0100
0001
0100
1000
0010
0100
0001
0100
,
0010
0100
0010
0001
0100
0001
1000
0010
,
0001
0100
1000
0001
0010
1000
0100
0010
,
0001
1000
0010
0000
0001
0100
0001
0000
,
1000
0100
0001
0010
0001
0100
1000
0100
,
0001
0010
0001
0100
1000
0100
0010
1000
,
0001
0100
0010
0001
0100
1000
0100
0010
,
0001
0010
1000
0100
1000
0010
0001
0000
,
0010
0001
1000
0001
0100
0001
0100
0000
,
0001
1000
0010
0100
1000
0100
0001
0100
,
0001
0010
0100
1000
0010
0100
0001
1000
,
0100
0010
1000
0010
1000
0010
0100
0010
,
0100
0010
0001
0100
0010
0100
0001
0100
,
0001
0100
1000
0010
0100
0010
0001
0010
,
1000
0010
0100
0010
0100
0000
0010
0000
,
0010
0000
1010
0000
0001
0010
1000
0010
,
0001
0010
0001
0100
0010
0100
1000
0010
,
0100
0010
0001
0010
1000
0010
0001
0010
,
0100
0010
0001
0000
0010
0100
1000
0100
,
0001
0100
1000
0100
0001
0100
0001
0100
,
0010
0100
0001
0000
0100
0000
0110
0000
,
1100
0101
0100
1100
,
0110
0100
0101
0100
,
0101
0100
0110
0101
,
0110
1000
0100
0101
,
0100
0100
1020
1000
,
0001
0001
1000
1000
,
0001
0001
1000
1000
,
0001
0001
0100
1000
,
0000
0001
0001
1000
,
1000
0000
0001
0030
0001
0000
0200
0001
,
1000
0000
0300
0000
0100
1000
0001
0100
,
0010
0000
1001
0100
1000
0001
0100
0000
,
0011
0000
0100
1000
0100
0000
1001
0000
,
0000
0000
0000
0000
0000
0000
0000
0000
2000
3000
0000
0100
0000
0000
0010
0000
0001
0000
0100
0000
0010
0000
0100
0001
0000
1000
0000
0001
0000
0010
0000
0000
,
0000
0000
0000
0000
0000
0000
0000
0000
0000
0000
0000
0000
0001
0000
0000
0010
0000
0000
0000
0000
1000
0000
0000
0000
,
0000
0000
0010
0000
0000
0000
0000
0000
0000
1000
0000
0000
0000
0000
0000
0000
0000
0000
1000
0000
0000
0000
0000
0000
0100
0000
0000
0000
0000
0000
0000
0000
0000
0000
0000
0000
0000
0000
0000
0000
0000
0000
0000
0000
0000
0000
0000
0000
;

//---------------dance-single - ----------------
#NOTES:
     dance-single:
     :
     Hard:
     15:
     0.879,1.000,0.725,0.288,0.165:
0000
0000
0000
0000
0000
0000
0000
0000
0000
0000
0000
0000
1000
0000
0001
0100
0000
0000
1000
0000
0000
0000
0100
0000
,
0001
0000
0010
0100
0000
0000
0001
0000
0001
0000
0000
0000
1000
0000
0100
0010
0000
0000
1001
0000
0010
0000
0000
0000
,
0100
0000
1000
0010
0000
0000
0101
0000
0000
1000
0001
0000
0010
0000
0100
1000
0000
0000
0101
0000
1000
0000
0001
0000
,
1010
0000
0100
0001
0010
0000
1000
0000
0000
0010
0000
0000
0100
0000
1000
0000
0100
0000
0011
0000
0000
1000
0000
0000
,
0010
0000
1000
0000
0010
0000
0001
0000
0000
0100
0001
0000
1000
0000
0000
0001
1000
0000
0010
0000
0000
0100
0000
0000
,
1001
0000
0000
0100
0000
0000
0001
0000
1000
0010
0000
0000
0101
0000
0000
0010
0000
0000
1100
0000
0000
0010
0000
0000
,
0101
0001
0000
0000
0100
0000
0100
0000
,
1100
0101
1001
1001
,
1100
0000
1001
0000
0100
0001
1000
0001
,
0100
1000
0001
0100
0100
0001
1000
0100
,
0001
0001
0100
1000
0010
0100
0001
0010
,
0100
0001
1000
1000
0010
0001
0002
0000
,
0013
0100
2000
0000
3001
1000
0002
0000
,
0103
0100
0002
0000
1003
0001
2000
0000
,
3001
1000
0001
1000
2000
0000
3100
0001
,
0002
0000
0013
0100
2000
0000
3100
0000
,
0002
0000
0013
0100
2000
0000
3100
0000
,
0020
0031
0201
1300
,
2001
3100
1002
0013
,
2002
0003
3001
0000
1002
0000
1003
0000
,
2001
3100
0102
0013
,
2100
3100
0012
0013
,
2010
0000
3001
0000
0102
0000
1003
1000
,
0000
0110
1001
1100
,
1001
0011
0110
1001
,
0110
0000
1001
1100
,
1001
0101
0110
1001
,
0110
0000
1001
1100
,
1001
0101
0110
1001
,
0110
0000
0000
0000
0100
1000
0100
0010
,
0100
0001
0100
1000
0100
0010
0100
0001
,
1000
0000
0000
0000
1000
0010
0100
0000
,
1001
0100
1001
0010
,
1001
0000
0010
0001
0100
0000
0001
1000
,
0010
0000
1000
0001
0100
0000
0001
0100
,
1000
0000
0100
1000
0101
1000
0001
0010
,
0100
0001
1000
0100
0001
0010
0100
0001
,
0100
1000
0200
0000
1300
0000
0010
1000
,
0001
0000
0100
0010
0100
0000
0001
1000
,
0010
0000
1000
0100
0001
0000
1000
0001
,
0100
1000
0100
0010
0001
0100
0001
0010
,
1000
0100
0010
1000
0001
0100
1000
0010
,
0100
0001
0100
1000
0010
0100
0001
0100
,
0010
0100
0010
0001
0100
0001
1000
0010
,
0001
0100
1000
0001
0010
1000
0100
0010
,
0001
1000
0010
0000
0001
0100
0001
0000
,
1000
0100
0001
0010
0001
0100
1000
0100
,
0001
0010
0001
0100
1000
0100
0010
1000
,
0001
0100
0010
0001
0100
1000
0100
0010
,
0001
0010
1000
0100
1000
0010
0001
0000
,
0010
0001
1000
0001
0100
0001
0100
0000
,
0001
1000
0010
0100
1000
0100
0001
0100
,
0001
0010
0100
1000
0010
0100
0001
1000
,
0100
0010
1000
0010
1000
0010
0100
0010
,
0100
0010
0001
0100
0010
0100
0001
0100
,
0001
0100
1000
0010
0100
0010
0001
0010
,
1000
0010
0100
0010
0100
0000
0010
0000
,
0010
0000
1010
0000
0001
0010
1000
0010
,
0001
0010
0001
0100
0010
0100
1000
0010
,
0100
0010
0001
0010
1000
0010
0001
0010
,
0100
0010
0001
0000
0010
0100
1000
0100
,
0001
0100
1000
0100
0001
0100
0001
0100
,
0010
0100
0001
0000
0100
0000
0110
0000
,
1100
0101
0100
1100
,
0110
0100
0101
0100
,
0101
0100
0110
0101
,
0110
1000
0100
0101
,
0100
0100
1020
1000
,
0001
0001
1000
1000
,
0001
0001
1000
1000
,
0001
0001
0100
1000
,
0000
0001
0001
1000
,
1000
0000
0001
0030
0001
0000
0200
0001
,
1000
0000
0300
0000
0100
1000
0001
0100
,
0010
0000
1001
0100
1000
0001
0100
0000
,
0011
0000
0100
1000
0100
0000
1001
0000
,
0000
0000
0000
0000
0000
0000
0000
0000
2000
3000
0000
0100
0000
0000
0010
0000
0001
0000
0100
0000
0010
0000
0100
0001
0000
1000
0000
0001
0000
0010
0000
0000
,
0000
0000
0000
0000
0000
0000
0000
0000
0000
0000
0000
0000
0001
0000
0000
0010
0000
0000
0000
0000
1000
0000
0000
0000
,
0000
0000
0010
0000
0000
0000
0000
0000
0000
1000
0000
0000
0000
0000
0000
0000
0000
0000
1000
0000
0000
0000
0000
0000
0100
0000
0000
0000
0000
0000
0000
0000
0000
0000
0000
0000
0000
0000
0000
0000
0000
0000
0000
0000
0000
0000
0000
0000
;

//---------------dance-solo - Copied from----------------
#NOTES:
     dance-solo:
     Copied from:
     Easy:
     3:
     0.256,0.335,0.053,0.000,0.000:
000000
000000
100000
000000
,
000100
000000
100000
000000
,
000000
010000
000000
000000
,
001000
000000
000000
000100
,
000000
000000
100000
000000
,
100000
000000
010000
000000
,
000000
000000
001000
000000
,
001000
000000
001000
000000
,
001000
000000
010000
000000
,
010000
000000
010000
000000
,
000100
000000
001000
000000
,
010000
000000
001000
000000
,
001000
000000
000100
000000
,
010000
000000
100000
000000
,
000100
000000
000000
010000
,
000000
001000
000000
010000
,
000000
001000
000000
010000
,
000000
000100
000000
100000
,
000000
010000
000000
001000
,
000000
000100
000000
100000
,
000000
010000
000000
001000
,
000000
010000
000000
001000
,
000000
000100
000000
100000
,
000000
001000
001000
001000
,
001000
001000
001000
001000
,
000000
010000
010000
010000
,
010000
010000
010000
010000
,
000000
000000
001000
001000
,
001000
001000
001000
001000
,
001000
000000
010000
010000
,
010000
010000
010000
010000
,
010000
010000
000000
000000
,
100100
000000
100100
000000
,
100100
000000
010000
000000
,
001000
000000
010000
000000
,
001000
000000
000100
000000
,
010000
000000
000100
000000
,
010000
000000
100000
000000
,
000100
000000
010000
000000
,
001000
000000
000100
100000
,
000000
010000
000000
000100
,
000000
001000
000000
100000
,
000000
010000
000000
000100
,
000000
001000
000000
100000
,
000000
100000
000000
010000
,
000000
001000
000000
000100
,
000000
000100
000000
000100
,
000000
000100
000000
001000
,
000000
001000
000000
010000
,
000000
100000
000000
000100
,
000000
100000
000000
010000
,
000000
001000
000000
000100
,
000000
000000
001000
000000
,
010000
000000
100000
000000
,
010000
000000
001000
000000
,
000100
000000
010000
000000
,
100000
000000
010000
000000
,
001000
000000
000100
000000
,
000100
000000
001000
000000
,
010000
000000
100000
000000
,
010000
000000
001000
000000
,
000100
000000
000100
000000
,
001000
000000
010000
000000
,
100000
000000
010000
000000
,
001000
000000
000100
000000
,
000100
000000
001000
000000
,
001000
000000
010000
000000
,
010000
000000
100000
000000
,
000100
000000
100000
000000
,
000100
000000
100000
000000
,
000100
000000
010000
000000
,
001000
000000
000100
000000
,
100000
000000
000100
000000
,
100000
000000
010000
000000
,
001000
000000
100000
000000
,
000100
000000
000000
100100
,
000000
000000
000000
100000
,
000000
000100
000000
000100
,
000000
000000
100100
000000
;

//---------------dance-double - Copied from----------------
#NOTES:
     dance-double:
     Copied from:
     Easy:
     3:
     0.256,0.335,0.053,0.000,0.000:
00000000
00000000
10000000
00000000
,
00010000
00000000
10000000
00000000
,
00000000
01000000
00000000
00000000
,
00100000
00000000
00000000
00010000
,
00000000
00000000
10000000
00000000
,
10000000
00000000
01000000
00000000
,
00000000
00000000
00100000
00000000
,
00100000
00000000
00100000
00000000
,
00100000
00000000
01000000
00000000
,
01000000
00000000
01000000
00000000
,
00010000
00000000
00100000
00000000
,
01000000
00000000
00100000
00000000
,
00100000
00000000
00010000
00000000
,
01000000
00000000
10000000
00000000
,
00010000
00000000
00000000
01000000
,
00000000
00100000
00000000
01000000
,
00000000
00100000
00000000
01000000
,
00000000
00010000
00000000
10000000
,
00000000
01000000
00000000
00100000
,
00000000
00010000
00000000
10000000
,
00000000
01000000
00000000
00100000
,
00000000
01000000
00000000
00100000
,
00000000
00010000
00000000
10000000
,
00000000
00100000
00100000
00100000
,
00100000
00100000
00100000
00100000
,
00000000
01000000
01000000
01000000
,
01000000
01000000
01000000
01000000
,
00000000
00000000
00100000
00100000
,
00100000
00100000
00100000
00100000
,
00100000
00000000
01000000
01000000
,
01000000
01000000
01000000
01000000
,
01000000
01000000
00000000
00000000
,
10010000
00000000
10010000
00000000
,
10010000
00000000
01000000
00000000
,
00100000
00000000
01000000
00000000
,
00100000
00000000
00010000
00000000
,
01000000
00000000
00010000
00000000
,
01000000
00000000
10000000
00000000
,
00010000
00000000
01000000
00000000
,
00100000
00000000
00010000
10000000
,
00000000
01000000
00000000
00010000
,
00000000
00100000
00000000
10000000
,
00000000
01000000
00000000
00010000
,
00000000
00100000
00000000
10000000
,
00000000
10000000
00000000
01000000
,
00000000
00100000
00000000
00010000
,
00000000
00010000
00000000
00010000
,
00000000
00010000
00000000
00100000
,
00000000
00100000
00000000
01000000
,
00000000
10000000
00000000
00010000
,
00000000
10000000
00000000
01000000
,
00000000
00100000
00000000
00010000
,
00000000
00000000
00100000
00000000
,
01000000
00000000
10000000
00000000
,
01000000
00000000
00100000
00000000
,
00010000
00000000
01000000
00000000
,
10000000
00000000
01000000
00000000
,
00100000
00000000
00010000
00000000
,
00010000
00000000
00100000
00000000
,
01000000
00000000
10000000
00000000
,
01000000
00000000
00100000
00000000
,
00010000
00000000
00010000
00000000
,
00100000
00000000
01000000
00000000
,
10000000
00000000
01000000
00000000
,
00100000
00000000
00010000
00000000
,
00010000
00000000
00100000
00000000
,
00100000
00000000
01000000
00000000
,
01000000
00000000
10000000
00000000
,
00010000
00000000
10000000
00000000
,
00010000
00000000
10000000
00000000
,
00010000
00000000
01000000
00000000
,
00100000
00000000
00010000
00000000
,
10000000
00000000
00010000
00000000
,
10000000
00000000
01000000
00000000
,
00100000
00000000
10000000
00000000
,
00010000
00000000
00000000
10010000
,
00000000
00000000
00000000
10000000
,
00000000
00010000
00000000
00010000
,
00000000
00000000
10010000
00000000
;

//---------------dance-couple - Copied from----------------
#NOTES:
     dance-couple:
     Copied from:
     Easy:
     3:
     0.256,0.335,0.053,0.000,0.000:
00000000
00000000
10000000
00000000
,
00010000
00000000
10000000
00000000
,
00000000
01000000
00000000
00000000
,
00100000
00000000
00000000
00010000
,
00000000
00000000
10000000
00000000
,
10000000
00000000
01000000
00000000
,
00000000
00000000
00100000
00000000
,
00100000
00000000
00100000
00000000
,
00100000
00000000
01000000
00000000
,
01000000
00000000
01000000
00000000
,
00010000
00000000
00100000
00000000
,
01000000
00000000
00100000
00000000
,
00100000
00000000
00010000
00000000
,
01000000
00000000
10000000
00000000
,
00010000
00000000
00000000
01000000
,
00000000
00100000
00000000
01000000
,
00000000
00100000
00000000
01000000
,
00000000
00010000
00000000
10000000
,
00000000
01000000
00000000
00100000
,
00000000
00010000
00000000
10000000
,
00000000
01000000
00000000
00100000
,
00000000
01000000
00000000
00100000
,
00000000
00010000
00000000
10000000
,
00000000
00100000
00100000
00100000
,
00100000
00100000
00100000
00100000
,
00000000
01000000
01000000
01000000
,
01000000
01000000
01000000
01000000
,
00000000
00000000
00100000
00100000
,
00100000
00100000
00100000
00100000
,
00100000
00000000
01000000
01000000
,
01000000
01000000
01000000
01000000
,
01000000
01000000
00000000
00000000
,
10010000
00000000
10010000
00000000
,
10010000
00000000
01000000
00000000
,
00100000
00000000
01000000
00000000
,
00100000
00000000
00010000
00000000
,
01000000
00000000
00010000
00000000
,
01000000
00000000
10000000
00000000
,
00010000
00000000
01000000
00000000
,
00100000
00000000
00010000
10000000
,
00000000
01000000
00000000
00010000
,
00000000
00100000
00000000
10000000
,
00000000
01000000
00000000
00010000
,
00000000
00100000
00000000
10000000
,
00000000
10000000
00000000
01000000
,
00000000
00100000
00000000
00010000
,
00000000
00010000
00000000
00010000
,
00000000
00010000
00000000
00100000
,
00000000
00100000
00000000
01000000
,
00000000
10000000
00000000
00010000
,
00000000
10000000
00000000
01000000
,
00000000
00100000
00000000
00010000
,
00000000
00000000
00100000
00000000
,
01000000
00000000
10000000
00000000
,
01000000
00000000
00100000
00000000
,
00010000
00000000
01000000
00000000
,
10000000
00000000
01000000
00000000
,
00100000
00000000
00010000
00000000
,
00010000
00000000
00100000
00000000
,
01000000
00000000
10000000
00000000
,
01000000
00000000
00100000
00000000
,
00010000
00000000
00010000
00000000
,
00100000
00000000
01000000
00000000
,
10000000
00000000
01000000
00000000
,
00100000
00000000
00010000
00000000
,
00010000
00000000
00100000
00000000
,
00100000
00000000
01000000
00000000
,
01000000
00000000
10000000
00000000
,
00010000
00000000
10000000
00000000
,
00010000
00000000
10000000
00000000
,
00010000
00000000
01000000
00000000
,
00100000
00000000
00010000
00000000
,
10000000
00000000
00010000
00000000
,
10000000
00000000
01000000
00000000
,
00100000
00000000
10000000
00000000
,
00010000
00000000
00000000
10010000
,
00000000
00000000
00000000
10000000
,
00000000
00010000
00000000
00010000
,
00000000
00000000
10010000
00000000
;
