#TITLE:001;
#SUBTITLE:;
#ARTIST:100-200-300-400-500;
#TITLETRANSLIT:;
#SUBTITLETRANSLIT:;
#ARTISTTRANSLIT:;
#CREDIT:;
#BANNER:001.bmp;
#BACKGROUND:001-bg.bmp;
#LYRICSPATH:;
#CDTITLE:;
#MUSIC:001.mp3;
#OFFSET:0.000;
#SAMPLESTART:0.030;
#SAMPLELENGTH:12.000;
#SELECTABLE:YES;
#BPMS:0.000=103.620,7.000=200.820,24.000=300.460,39.000=405.639,82.000=500.537;
#STOPS:;
#BGCHANGES:;

//---------------dance-single - ----------------
#NOTES:
     dance-single:
     :
     Beginner:
     4:
     0.149,0.186,0.045,0.000,0.000:
0000
0000
0000
0000
,
0001
0000
1000
0000
,
1000
0000
0000
0000
,
0100
0000
0000
0000
,
0010
0000
0000
0000
,
0001
0000
0000
0000
,
1000
0000
0000
0000
,
0000
0100
0000
0000
,
0000
0000
0010
0000
,
0000
0000
0000
0001
,
0000
0000
0000
0000
,
0000
1000
0000
0000
,
0000
0000
0000
0001
,
0000
0000
0000
0000
,
0000
0010
0000
0000
,
0000
0000
1000
0000
,
0000
0000
0000
0000
,
0001
0000
0000
0000
,
0000
0000
0000
1000
,
0000
0000
0000
0000
,
0000
0000
0001
0000
,
0000
0000
0000
0000
,
0000
0000
0100
0000
,
0000
0000
0000
0000
,
1000
0000
0000
0000
,
0000
0001
0000
0000
,
0000
0000
0000
1000
,
0000
1001
0000
0000
;

//---------------dance-single - ----------------
#NOTES:
     dance-single:
     :
     Easy:
     8:
     0.364,0.434,0.000,0.000,0.000: // measure 1
0000
1000
1000
0001
,  // measure 2
0001
1000
1000
0000
,  // measure 3
1000
1000
0000
0000
,  // measure 4
0100
0010
0000
0000
,  // measure 5
0010
0001
0000
0000
,  // measure 6
0001
0001
0000
0000
,  // measure 7
1000
0100
0000
0000
,  // measure 8
0010
0100
0010
0000
,  // measure 9
0010
0001
0010
0000
,  // measure 10
0000
0000
0001
0001
,  // measure 11
0100
0000
0000
0000
,  // measure 12
1000
1000
0100
0000
,  // measure 13
0000
0000
0000
0001
,  // measure 14
0010
0001
0000
0000
,  // measure 15
0000
0010
0010
0100
,  // measure 16
0000
0000
1000
0100
,  // measure 17
1000
0000
0000
0000
,  // measure 18
0001
0001
0001
0000
,  // measure 19
0000
0000
0000
1000
,  // measure 20
0100
1000
0000
0000
,  // measure 21
0001
0000
0001
0000
,  // measure 22
0001
0000
0000
1000
,  // measure 23
0000
1000
0000
0100
,  // measure 24
0000
1000
0000
0000
,  // measure 25
1000
0000
0001
0000
,  // measure 26
0001
0000
0000
0001
,  // measure 27
0000
0000
1000
0000
,  // measure 28
0000
1000
0000
0000
;

//---------------dance-single - ----------------
#NOTES:
     dance-single:
     :
     Medium:
     13:
     0.727,0.991,0.091,0.045,0.000:
0001
0010
1000
0100
1000
0010
0001
0100
,
0001
0100
1000
0100
1000
0010
0001
0000
,
1000
0100
1000
0000
0000
0000
0000
0000
,
0100
0110
0000
0000
,
0010
0000
0001
0100
0000
0000
0000
0000
,
0001
0010
0001
0000
0000
0000
0000
0000
,
1000
0010
0100
0000
0000
0000
0000
0000
,
0010
0001
0100
1000
0010
0001
0100
1000
,
0010
0100
0001
1000
0010
0000
0000
0000
,
0000
0000
0000
0000
0001
0010
0001
1000
,
0100
0000
0000
0000
,
1000
0100
1000
0000
0100
0000
0010
0000
,
0001
0010
0100
1000
,
0010
0000
0001
0000
0100
0000
0000
0100
,
0000
0000
0010
0000
0010
0000
0100
0001
,
0000
1000
0000
0001
1000
0000
0100
0000
,
1001
2000
0000
0000
,
0001
0000
0001
0000
0001
3000
0000
0000
,
0001
0000
1000
0000
0000
0001
1000
0000
,
0100
0000
1000
0001
0000
0000
0000
0000
,
0001
0000
0001
0010
,
0001
0000
0000
1000
,
0100
1000
0100
0100
,
0001
1000
0100
0010
,
1000
0100
0001
0001
,
0001
0000
0001
0000
1000
0000
0001
0100
,
0000
0010
0000
0001
1000
0010
0000
0100
,
0000
0010
1000
0000
0000
0000
0000
0000
;

//---------------dance-single - ----------------
#NOTES:
     dance-single:
     :
     Hard:
     15:
     1.000,1.000,0.500,0.091,0.000:
0001
0010
1000
0100
1000
0010
0001
0100
,
0001
0100
1000
0100
1000
0010
0001
0000
,
1000
0100
1000
0100
0010
0001
0010
0000
,
1100
0000
0110
0000
0011
0000
0001
1000
,
0010
0100
0001
0100
0001
0010
0100
1010
,
0001
0010
0001
0100
0000
0010
0100
0000
,
1001
0010
0100
0001
0010
0100
1000
0100
,
0010
0001
0100
1000
0010
0001
0100
1000
,
0010
0100
0001
1000
0010
0002
0013
0100
,
1000
0001
0010
0100
1001
0010
0001
1000
,
0100
0000
0001
0010
0100
1000
0001
0010
,
1000
0100
1000
0001
0100
1000
0010
1000
,
0001
0001
0010
1000
0100
0001
1000
0001
,
0010
1000
0001
0010
0100
0001
1000
0100
,
0001
0000
0010
0001
0010
0000
0100
0001
,
0100
1000
0000
0001
1000
0001
0100
0000
,
1001
0010
2001
0000
0001
0000
0001
0000
,
0001
0000
0001
0000
0001
3000
0000
0000
,
1001
0100
1000
0000
1000
0101
1000
0000
,
0100
0000
1000
0101
0010
0000
0001
0010
,
0001
0000
0001
0010
0001
1000
0010
0000
,
0001
0000
0001
0010
0100
0010
1000
0001
,
0100
0001
1000
0010
0100
0010
0100
0000
,
0001
0010
1000
0001
0100
1000
0010
0001
,
1000
0001
0100
0000
0001
1000
0001
1000
,
0001
1000
0001
0000
1000
0010
0001
0100
,
0000
0010
0000
0001
1000
0010
0000
0100
,
0000
0010
1000
0000
0000
0000
0000
0000
;
